<?xml version="1.0" standalone="no"?>
<!DOCTYPE svg PUBLIC "-//W3C//DTD SVG 1.1//EN" "http://www.w3.org/Graphics/SVG/1.1/DTD/svg11.dtd" >
<svg xmlns="http://www.w3.org/2000/svg" xmlns:xlink="http://www.w3.org/1999/xlink" version="1.1">
<metadata>
Created by FontForge 20170731 at Wed Jun 14 23:29:24 2023
 By Aleksey,,,
2011
</metadata>
<defs>
<font id="Cubano-Regular" horiz-adv-x="1228" >
  <font-face 
    font-family="Cubano"
    font-weight="400"
    font-stretch="normal"
    units-per-em="2048"
    panose-1="0 0 5 0 0 0 0 0 0 0"
    ascent="1638"
    descent="-410"
    x-height="1434"
    cap-height="1434"
    bbox="-79 -410 1778 2028.51"
    underline-thickness="102"
    underline-position="-307"
    unicode-range="U+0020-2260"
  />
<missing-glyph horiz-adv-x="512" 
 />
    <glyph glyph-name=".notdef" horiz-adv-x="512" 
 />
    <glyph glyph-name=".null" horiz-adv-x="0" 
 />
    <glyph glyph-name="nonmarkingreturn" horiz-adv-x="682" 
 />
    <glyph glyph-name="space" unicode=" " horiz-adv-x="614" 
 />
    <glyph glyph-name="exclam" unicode="!" horiz-adv-x="679" 
d="M496 1434h-312q-30 0 -46 -16t-15 -46l41 -860q3 -61 61 -61h230q58 0 61 61l41 860q3 62 -61 62zM455 352h-230q-61 0 -61 -61v-230q0 -61 61 -61h230q61 0 61 61v230q0 61 -61 61z" />
    <glyph glyph-name="quotedbl" unicode="&#x22;" horiz-adv-x="802" 
d="M311 1536h-188q-31 0 -48 -15.5t-14 -45.5l41 -332q10 -62 62 -62h106q29 0 43 15.5t19 46.5l41 332q3 30 -13.5 45.5t-48.5 15.5zM680 1536h-188q-31 0 -48 -15.5t-14 -45.5l41 -332q10 -62 61 -62h107q29 0 42.5 15.5t18.5 46.5l41 332q6 61 -61 61z" />
    <glyph glyph-name="numbersign" unicode="#" 
d="M1176 819h-213q-17 0 -23 -18l-35 -164q-3 -23 19 -23h194q32 0 47 -17.5t9 -49.5l-17 -82q-12 -55 -67 -55h-213q-20 0 -23 -19l-72 -336q-12 -55 -67 -55h-80q-32 0 -46.5 18t-8.5 50l67 319q3 10 -2 16.5t-16 6.5h-162q-20 0 -23 -19l-71 -336q-12 -55 -68 -55h-80
q-32 0 -46.5 18t-8.5 50l68 319q3 10 -2.5 16.5t-16.5 6.5h-192q-70 0 -58 67l17 82q12 55 69 55h213q17 0 23 19l35 164q3 22 -19 22h-194q-32 0 -47 18t-9 50l17 82q12 55 67 55h213q20 0 23 18l72 336q12 56 67 56h80q32 0 46.5 -18t8.5 -50l-67 -319q-3 -10 2 -16.5
t16 -6.5h162q19 0 22 18l72 336q12 56 68 56h80q32 0 46.5 -18t8.5 -50l-68 -319q-3 -10 2.5 -16.5t16.5 -6.5h192q32 0 47 -18t9 -50l-17 -82q-12 -55 -67 -55zM700 633l35 164q3 22 -18 22h-164q-17 0 -23 -18l-34 -164q-3 -23 18 -23h164q16 0 22 19z" />
    <glyph glyph-name="dollar" unicode="$" horiz-adv-x="1185" 
d="M1004 958l-218 -53q-56 -14 -65 47q-26 132 -150 129q-52 -1 -76 -30t-16 -62q7 -31 43.5 -56t89.5 -45t116.5 -42.5t125 -56.5t112.5 -78.5t83.5 -117.5t33.5 -165q1 -16 -3 -41.5t-14.5 -65.5t-35 -81.5t-59.5 -81.5t-94 -73.5t-132 -51.5v-127q0 -62 -61 -62h-229
q-29 -1 -45.5 15t-16.5 45v135q-261 77 -291 391q-3 53 50 66l217 51q54 12 63 -47q8 -77 40.5 -113t111.5 -35q78 1 109 37t22 74q-8 34 -44.5 59.5t-88 44t-112 38.5t-120 51t-108.5 73.5t-80 113.5t-33 163q-1 15 0 33.5t6.5 52t16 65.5t31.5 70t50 69t74.5 59t102.5 44
v127q0 61 61 61h229q62 0 62 -61v-131q65 -19 116 -53.5t81 -72.5t51 -84.5t29.5 -84t11.5 -76.5q6 -54 -47 -66z" />
    <glyph glyph-name="percent" unicode="%" horiz-adv-x="1327" 
d="M1118 1434h101q34 0 43.5 -20t-9.5 -52l-962 -1313q-30 -49 -82 -49h-100q-34 0 -44.5 20t9.5 52l962 1312q27 50 82 50zM299 918q-85 0 -146 60.5t-61 145.5t61 146t146 61t146 -61t61 -146t-61 -145.5t-146 -60.5zM1028 102q-85 0 -146 61t-61 146t61 146t146 61
t146 -61t61 -146t-61 -146t-146 -61z" />
    <glyph glyph-name="ampersand" unicode="&#x26;" horiz-adv-x="1314" 
d="M1085 588l129 -148q39 -46 -4 -86q-50 -46 -94 -82q-15 -15 -2 -28l43 -49q43 -46 -6 -86l-137 -107q-47 -38 -86 10l-45 56q-12 14 -29 4q-165 -109 -367 -109q-137 0 -241.5 65.5t-153.5 164.5q-30 62 -34.5 132t15.5 142t72.5 144.5t133.5 133.5q20 13 4 29
q-152 187 -103 402q15 65 48 119.5t87 98t135.5 64t182.5 10.5q122 -12 209 -74t122 -155.5t15 -200.5q-23 -102 -72.5 -184.5t-152.5 -161.5q-17 -13 -2 -28l129 -148q12 -15 28 -2q58 46 90 78q47 41 86 -4zM469 1104q-8 -38 4 -69.5t62 -100.5q12 -15 28 -6
q104 69 119 135q7 38 -17 79t-73 46q-49 6 -82 -19.5t-41 -64.5zM410 315q33 -41 101 -40t132 40q18 12 4 29q-48 56 -137 164q-14 14 -27 4q-30 -22 -50.5 -42.5t-35.5 -46t-12 -53t25 -55.5z" />
    <glyph glyph-name="quotesingle" unicode="'" horiz-adv-x="434" 
d="M311 1536h-188q-31 0 -48 -15.5t-14 -45.5l41 -332q10 -62 62 -62h106q29 0 43 15.5t19 46.5l41 332q3 30 -13.5 45.5t-48.5 15.5z" />
    <glyph glyph-name="parenleft" unicode="(" horiz-adv-x="604" 
d="M512 1348q31 39 31 75v115q0 40 -23.5 51t-52.5 -16q-181 -164 -303.5 -413t-122.5 -511q0 -259 121 -501t301 -408q31 -27 55.5 -15t24.5 54v106q0 39 -31 78q-108 121 -171 305t-65 377q-2 199 61.5 389.5t174.5 313.5z" />
    <glyph glyph-name="parenright" unicode=")" horiz-adv-x="604" 
d="M92 1348q111 -123 174.5 -313.5t61.5 -389.5q-2 -193 -65 -377t-171 -305q-31 -39 -31 -78v-106q0 -42 24.5 -54t55.5 15q180 166 301 408t121 501q0 262 -122.5 511t-303.5 413q-29 27 -52.5 16t-23.5 -51v-115q0 -36 31 -75z" />
    <glyph glyph-name="asterisk" unicode="*" horiz-adv-x="819" 
d="M784 1280v-2q3 -22 -10 -43t-43 -25l-158 -39q-11 -3 -13 -11t5 -17l107 -125q22 -28 18 -55.5t-28 -38.5l-68 -47q-17 -13 -41.5 -6t-42.5 34l-84 142q-6 9 -14.5 9t-14.5 -9l-86 -142q-17 -27 -41.5 -34t-42.5 6l-73 53h-2q-18 15 -18 39.5t18 48.5l106 125
q16 19 -8 26l-176 45q-24 9 -32.5 28.5t-0.5 39.5l29 92q9 20 32.5 26.5t51.5 -3.5l147 -62q25 -9 25 17l-15 164q0 29 16 48t38 19h94q24 0 37.5 -20t13.5 -50l-12 -161q0 -26 22 -17l150 62q28 12 52.5 3.5t33.5 -32.5z" />
    <glyph glyph-name="plus" unicode="+" horiz-adv-x="1429" 
d="M911 846h334q62 0 62 -62v-229q0 -61 -62 -61h-334q-20 0 -20 -21v-334q0 -61 -62 -61h-229q-61 0 -61 61v334q0 21 -21 21h-334q-61 0 -61 61v229q0 62 61 62h334q21 0 21 20v334q0 29 16 45.5t45 16.5h229q62 0 62 -62v-334q0 -20 20 -20z" />
    <glyph glyph-name="comma" unicode="," horiz-adv-x="485" 
d="M373 352h-230q-61 0 -61 -61v-230q0 -61 61 -61h95q20 0 20 -20q-4 -85 -65 -158q-14 -17 -8 -31.5t26 -13.5q113 11 168 88t55 196v230q0 61 -61 61z" />
    <glyph glyph-name="hyphen" unicode="-" horiz-adv-x="1347" 
d="M143 555v229q0 62 62 62h938q61 0 61 -62v-229q0 -61 -61 -61h-938q-29 0 -45.5 16t-16.5 45z" />
    <glyph glyph-name="period" unicode="." horiz-adv-x="485" 
d="M373 352h-230q-61 0 -61 -61v-230q0 -61 61 -61h230q61 0 61 61v230q0 61 -61 61z" />
    <glyph glyph-name="slash" unicode="/" 
d="M881 1571h100q34 0 47.5 -20t1.5 -52l-610 -1655q-18 -49 -72 -49h-100q-34 0 -47.5 20t-1.5 52l610 1655q18 49 72 49z" />
    <glyph glyph-name="zero" unicode="0" 
d="M1128 717q0 -53 -1.5 -97t-7.5 -106t-16.5 -112.5t-29.5 -109t-45 -104t-65.5 -89t-88 -72.5t-115 -46.5t-145.5 -17.5t-145.5 17.5t-115 46.5t-88 72.5t-65.5 89t-45 104t-29.5 109t-16.5 112.5t-7.5 106t-1.5 97q0 57 1 99t6.5 106.5t15 113t28 108.5t44 103.5t65 88
t88.5 72t117 45t149 17.5q104 0 186.5 -29t135.5 -72t91 -112.5t57 -129.5t29.5 -145t12.5 -137.5t2 -127.5zM614 1118q-37 0 -64.5 -14.5t-45 -44.5t-28 -63t-15.5 -84t-6.5 -92.5t-1.5 -102.5q0 -58 0.5 -88.5t3.5 -80.5t9 -77.5t17.5 -61.5t28.5 -51.5t43 -30t59 -12.5
q37 0 64.5 14.5t45 44.5t28.5 63.5t16 84.5t6.5 92.5t1.5 102.5q0 44 -0.5 69t-2 64.5t-4 63t-8.5 55.5t-14 50.5t-20 40t-28 32.5t-37.5 18.5t-47.5 7.5z" />
    <glyph glyph-name="one" unicode="1" horiz-adv-x="778" 
d="M567 1434h-170q-12 0 -26 -7l-262 -157q-41 -23 -41 -74v-111q0 -61 61 -61h88q62 0 62 -61v-902q0 -61 61 -61h227q62 0 62 61v1311q0 62 -62 62z" />
    <glyph glyph-name="two" unicode="2" horiz-adv-x="1167" 
d="M487 352h517q61 0 61 -61v-230q0 -61 -61 -61h-873q-61 0 -61 61v177q0 96 33.5 181.5t87 148.5t119 117.5t132 97.5t123 80t95 73t45.5 68q9 48 -17 81t-84 33q-135 0 -158 -137q-9 -62 -67 -51l-234 51q-56 12 -53 68q4 52 16.5 101t48 110t88 105t146 74.5t213.5 30.5
q94 0 170.5 -20.5t124.5 -52t84 -75t53.5 -83t27.5 -82.5t12 -67t1 -43q0 -82 -29.5 -152t-78.5 -120.5t-108.5 -94.5t-122 -80.5t-117 -70.5t-96.5 -73.5t-56 -80.5q-7 -23 18 -23z" />
    <glyph glyph-name="three" unicode="3" horiz-adv-x="1208" 
d="M399 930l-233 51q-56 12 -53 68q4 52 16.5 101t48 110t88 105t146 74.5t213.5 30.5t214.5 -36.5t152 -98.5t86 -142t24.5 -171q-5 -111 -48.5 -186.5t-97.5 -108.5q-23 -10 0 -20q54 -33 97.5 -108.5t48.5 -186.5q4 -91 -24.5 -171t-86 -142.5t-152 -99t-214.5 -36.5
t-213.5 30.5t-146 75t-88 105.5t-48 110t-16.5 101q-3 56 53 68l233 51q59 11 68 -51q23 -138 158 -138q64 0 98.5 51.5t3.5 112.5q-48 88 -201 107q-61 6 -61 61v139q0 56 61 62q154 19 201 106q33 61 -2.5 112.5t-99.5 51.5q-135 0 -158 -137q-9 -62 -68 -51z" />
    <glyph glyph-name="four" unicode="4" 
d="M1180 782v-229q0 -61 -62 -61h-24q-62 0 -62 -62v-369q0 -61 -61 -61h-230q-61 0 -61 61v369q0 62 -62 62h-518q-61 0 -61 61v287q0 1 1.5 6l4.5 15l6 20l176 350q13 26 28 37.5t42 11.5h225q35 0 50.5 -20t0.5 -50l-172 -344q-6 -22 17 -22h200q62 0 62 61v508
q0 62 61 62h230q61 0 61 -62v-508q0 -29 16.5 -45t45.5 -16h24q62 0 62 -62z" />
    <glyph glyph-name="five" unicode="5" horiz-adv-x="1208" 
d="M1085 1372v-229q0 -62 -61 -62h-514q-21 0 -21 -20v-41q0 -29 16.5 -45.5t45.5 -16.5h63q109 0 198 -33.5t145.5 -85.5t95.5 -119.5t55 -132.5t16 -126q0 -68 -16 -134.5t-54.5 -133t-95.5 -117t-146 -82t-198 -31.5q-120 0 -213.5 30.5t-146 75t-88 105.5t-48 110
t-16.5 101q-3 56 54 68l233 51q59 11 68 -51q23 -138 157 -138q69 0 103 45t26 101q-12 83 -73 120t-181 37h-290q-29 0 -45.5 16.5t-16.5 45.5v692q0 29 16.5 45.5t45.5 16.5h825q61 0 61 -62z" />
    <glyph glyph-name="six" unicode="6" horiz-adv-x="1126" 
d="M592 1434h307q42 0 49 -20t-26 -48q-118 -103 -228.5 -225t-148.5 -215q-4 -12 2.5 -18.5t21.5 -4.5q116 11 213.5 -20t161 -93t98.5 -147t35 -182q0 -102 -33 -191t-95.5 -158t-161.5 -109t-224 -40t-224 40t-161.5 109t-95.5 158t-33 191q0 101 29.5 225.5t84.5 255
t147.5 256t205.5 211.5q35 25 76 25zM563 578q-71 0 -116.5 -39.5t-45.5 -114.5q0 -76 43 -115t119 -39q71 0 116.5 39.5t45.5 114.5q0 76 -43 115t-119 39z" />
    <glyph glyph-name="seven" unicode="7" horiz-adv-x="1167" 
d="M514 0h-285q-34 0 -47 20t2 52l439 985q10 24 -15 24h-504q-29 0 -45 16.5t-16 45.5v229q0 62 61 62h1029q35 0 45.5 -21t-4.5 -53l-588 -1313q-20 -47 -72 -47z" />
    <glyph glyph-name="eight" unicode="8" 
d="M991 791q137 -116 137 -322q0 -101 -33 -190.5t-95 -159.5t-162 -111t-224 -41t-224 41t-162 111t-95 159.5t-33 190.5q0 211 136 326q-89 118 -89 280q0 186 114.5 290.5t352.5 104.5q228 0 347.5 -106t119.5 -289q0 -162 -90 -284zM467 1038q0 -66 39 -100.5t108 -34.5
q65 0 106.5 35t41.5 100q0 70 -39.5 106t-108.5 36q-65 0 -106 -36.5t-41 -105.5zM614 319q71 0 116.5 39t45.5 111q0 76 -43 112.5t-119 36.5q-72 0 -116.5 -37.5t-44.5 -111.5q0 -73 43 -111.5t118 -38.5z" />
    <glyph glyph-name="nine" unicode="9" horiz-adv-x="1146" 
d="M561 0h-301q-41 0 -50.5 22.5t19.5 51.5q97 99 195 223.5t139 212.5q4 10 -2 17.5t-20 7.5q-236 9 -359 124.5t-123 313.5q0 102 33 191t95.5 158t161.5 108.5t224 39.5t224 -39.5t161.5 -108.5t95.5 -158t33 -191q0 -184 -131 -445.5t-321 -492.5q-28 -35 -74 -35z
M573 856q71 0 116.5 39.5t45.5 114.5q0 76 -43 114.5t-119 38.5q-71 0 -116 -39t-45 -114q0 -76 42.5 -115t118.5 -39z" />
    <glyph glyph-name="colon" unicode=":" horiz-adv-x="557" 
d="M393 901h-229q-62 0 -62 -61v-230q0 -29 16.5 -45t45.5 -16h229q62 0 62 61v230q0 61 -62 61zM393 352h-229q-62 0 -62 -61v-230q0 -29 16.5 -45t45.5 -16h229q62 0 62 61v230q0 61 -62 61z" />
    <glyph glyph-name="semicolon" unicode=";" horiz-adv-x="516" 
d="M373 901h-230q-61 0 -61 -61v-230q0 -61 61 -61h230q61 0 61 61v230q0 61 -61 61zM373 352h-230q-61 0 -61 -61v-230q0 -61 61 -61h95q20 0 20 -20q-4 -85 -65 -158q-14 -17 -8 -31.5t26 -13.5q118 12 170.5 79.5t52.5 204.5v230q0 61 -61 61z" />
    <glyph glyph-name="equal" unicode="=" horiz-adv-x="1347" 
d="M143 797v229q0 61 62 61h938q61 0 61 -61v-229q0 -62 -61 -62h-938q-29 0 -45.5 16.5t-16.5 45.5zM143 283v229q0 61 62 61h938q61 0 61 -61v-229q0 -62 -61 -62h-938q-29 0 -45.5 16.5t-16.5 45.5z" />
    <glyph glyph-name="question" unicode="?" 
d="M737 457h-231q-31 0 -47 17.5t-10 49.5q11 65 35.5 116t53 80.5t61.5 59t61 53.5t51.5 62.5t33.5 87.5q10 50 -17 92.5t-83 42.5q-135 0 -158 -137q-9 -62 -67 -51l-234 51q-56 12 -53 68q4 52 16.5 101t48 110t88 105t146 74.5t213.5 30.5q94 0 170.5 -20.5t124.5 -52
t84 -75t53.5 -83t27.5 -82.5t12 -67t1 -43q0 -95 -24.5 -168.5t-64 -120.5t-80.5 -83.5t-82 -79.5t-60 -87q-20 -51 -70 -51zM729 352h-229q-62 0 -62 -61v-230q0 -29 16.5 -45t45.5 -16h229q62 0 62 61v230q0 61 -62 61z" />
    <glyph glyph-name="at" unicode="@" horiz-adv-x="1712" 
d="M1061 217l51 -76q39 -57 -16 -92q-75 -47 -248 -55q-153 -7 -291.5 46.5t-238 151t-158 235t-58.5 290.5t60 292.5t161 240.5t240.5 160.5t292.5 59.5t292.5 -59.5t240.5 -160.5t161 -240.5t60 -292.5q0 -96 -18.5 -176t-57 -145.5t-106.5 -102.5t-160 -37
q-70 0 -127.5 22.5t-93.5 59t-58 71t-35 70.5q-5 14 -8 -2q-15 -50 -89 -70.5t-157 3.5q-82 27 -131 114.5t-49 192.5q0 138 86 227.5t221 89.5q39 0 70 -12t31 -31q0 43 67 43h86q68 0 68 -65v-252q0 -124 34.5 -181t84.5 -57q53 0 87 57t34 181q0 144 -71.5 266
t-194.5 193t-269 71q-144 0 -265.5 -71t-192 -193t-70.5 -266q0 -108 40.5 -203.5t110 -161.5t166 -100.5t203.5 -26.5q62 6 127 23q60 15 88 -31zM827 610q42 0 72.5 28.5t34.5 78.5q6 54 -18.5 82t-67.5 28q-42 0 -73.5 -28t-35.5 -82q-4 -50 21.5 -78.5t66.5 -28.5z" />
    <glyph glyph-name="A" unicode="A" horiz-adv-x="1187" 
d="M1096 70v868q0 63 -3.5 111.5t-15.5 106.5t-33 100.5t-59 85t-90 69t-128.5 43t-172.5 16.5t-172.5 -16.5t-128.5 -43t-90 -69t-59 -85t-33 -100.5t-15.5 -106.5t-3.5 -111.5v-868q0 -34 16.5 -52t45.5 -18h229q61 0 61 61v179q0 61 62 61h176q61 0 61 -61v-179
q0 -61 62 -61h229q62 0 62 70zM743 938v-221q0 -61 -61 -64h-176q-29 0 -45.5 16.5t-16.5 45.5v223q0 41 4.5 65t19.5 44.5t45.5 29t80.5 8.5q95 0 122 -32.5t27 -114.5z" />
    <glyph glyph-name="B" unicode="B" horiz-adv-x="1200" 
d="M164 1434h430q285 0 408.5 -118t123.5 -374q0 -69 -24 -152t-80 -145q64 -30 104.5 -102.5t40.5 -165.5q0 -132 -43.5 -212t-153.5 -122.5t-300 -42.5h-506q-29 0 -45.5 16t-16.5 45v1309q0 61 62 64zM516 803h111q42 0 65.5 4t44 17.5t29 42t8.5 75.5t-8.5 75.5t-29 42
t-44 17.5t-65.5 4h-111q-61 0 -61 -61v-156q0 -61 61 -61zM514 291h129q82 0 115 19.5t33 86.5q0 68 -32.5 89.5t-111.5 21.5h-133q-61 0 -61 -62v-94q0 -61 61 -61z" />
    <glyph glyph-name="C" unicode="C" horiz-adv-x="1146" 
d="M82 461v512q0 37 2.5 71t14.5 86t32 95.5t59 90.5t91.5 79.5t133.5 53.5t181 21q90 0 165 -17t126 -44.5t91 -66.5t63 -78.5t38 -86t21 -82.5t8 -75q1 -22 -11 -37t-34 -20l-227 -52q-32 -6 -54.5 12.5t-27.5 51.5q-8 72 -43.5 107.5t-114.5 35.5q-45 0 -75.5 -12
t-47.5 -31t-26 -54.5t-11 -68.5t-2 -88v-295q0 -55 2 -88t11 -68.5t26 -54.5t47.5 -31t75.5 -12q80 0 113 36t43 112q5 33 27 49.5t52 9.5l232 -51q22 -5 34 -20.5t11 -38.5q-3 -56 -14 -107.5t-45 -117t-86.5 -112.5t-147.5 -79.5t-219 -32.5q-100 0 -181 21t-133.5 53.5
t-91.5 79.5t-59 90.5t-32 96t-14.5 86.5t-2.5 71z" />
    <glyph glyph-name="D" unicode="D" horiz-adv-x="1214" 
d="M164 1434h457q144 0 242.5 -29t158 -91.5t85.5 -152.5t26 -219v-448q0 -129 -26 -219.5t-85.5 -153t-158 -92t-242.5 -29.5h-457q-29 0 -45.5 16t-16.5 45v1309q0 61 62 64zM516 352h111q80 0 113.5 26.5t33.5 113.5v450q0 47 -8.5 75.5t-29 42t-44 17.5t-65.5 4h-111
q-61 0 -61 -61v-606q0 -29 16 -45.5t45 -16.5z" />
    <glyph glyph-name="E" unicode="E" horiz-adv-x="1140" 
d="M1024 1434h-860q-62 0 -62 -62v-1311q0 -29 16.5 -45t45.5 -16h860q61 0 61 61v230q0 61 -61 61h-496q-29 0 -45 16.5t-16 45.5v65q0 62 61 62h318q61 0 61 61v229q0 62 -61 62h-318q-61 0 -61 61v66q0 61 61 61h496q61 0 61 62v229q0 62 -61 62z" />
    <glyph glyph-name="F" unicode="F" horiz-adv-x="1126" 
d="M1044 1434h-880q-62 0 -62 -62v-1311q0 -29 16.5 -45t45.5 -16h242q61 0 61 61v418q0 62 61 62h338q62 0 62 61v229q0 62 -62 62h-338q-61 0 -61 61v66q0 61 61 61h516q62 0 62 62v229q0 62 -62 62z" />
    <glyph glyph-name="G" unicode="G" horiz-adv-x="1187" 
d="M82 461v512q0 37 2.5 71t14.5 86t32 95.5t59 90.5t91.5 79.5t133.5 53.5t181 21q89 0 163 -16.5t125 -43t90.5 -64.5t63 -76.5t39.5 -84t22.5 -82t8.5 -75.5q3 -55 -53 -67l-232 -52q-61 -12 -67 54q-6 79 -41.5 117t-118.5 38q-45 0 -75.5 -12t-47.5 -31t-26 -54.5
t-11 -68.5t-2 -88v-295q0 -55 2 -88t11 -68.5t26 -54.5t47.5 -31t75.5 -12q44 0 75 11.5t47.5 28.5t26 45.5t11.5 52t2 59.5h-119q-61 0 -61 61v164q0 62 61 62h410q61 0 61 -62v-276q0 -37 -2.5 -71t-14.5 -86.5t-32 -96t-59 -90.5t-91.5 -79.5t-133.5 -53.5t-181 -21
t-181 21t-133.5 53.5t-91.5 79.5t-59 90.5t-32 96t-14.5 86.5t-2.5 71z" />
    <glyph glyph-name="H" unicode="H" 
d="M393 1434h-229q-62 0 -62 -62v-1311q0 -29 16.5 -45t45.5 -16h229q62 0 62 61v324q0 61 61 61h197q61 0 61 -61v-324q0 -29 16.5 -45t45.5 -16h229q61 0 61 61v1311q0 62 -61 62h-229q-29 0 -45.5 -16.5t-16.5 -45.5v-512q0 -61 -61 -61h-197q-61 0 -61 61v512
q0 29 -16.5 45.5t-45.5 16.5z" />
    <glyph glyph-name="I" unicode="I" horiz-adv-x="552" 
d="M389 1434h-225q-62 0 -62 -62v-1311q0 -29 16.5 -45t45.5 -16h225q62 0 62 61v1311q0 62 -62 62z" />
    <glyph glyph-name="J" unicode="J" horiz-adv-x="1138" 
d="M758 1434h225q28 0 46 -18t18 -46v-909q0 -37 -3 -71t-15 -86.5t-32 -96t-59 -90.5t-91.5 -79.5t-133.5 -53.5t-181 -21q-90 0 -165 17t-126 44.5t-91 66.5t-63 78.5t-38 86t-21 83t-8 75.5q-1 21 11.5 36.5t34.5 20.5l227 51q32 6 54.5 -12t27.5 -51q8 -72 43 -108
t114 -36q45 0 75.5 12t47.5 31t26 54.5t11 68.5t2 88v801q0 28 18 46t46 18z" />
    <glyph glyph-name="K" unicode="K" horiz-adv-x="1275" 
d="M807 760l446 -686q21 -31 9.5 -52.5t-48.5 -21.5h-307q-48 0 -73 41l-254 389q-6 9 -14.5 9t-14.5 -9l-84 -115q-8 -11 -8 -26v-228q0 -61 -62 -61h-233q-29 0 -45.5 16t-16.5 45v1311q0 62 62 62h233q62 0 62 -62v-411q0 -15 8.5 -18t15.5 9l322 443q26 39 74 39h303
q38 0 49.5 -22t-10.5 -54l-414 -570q-10 -16 0 -28z" />
    <glyph glyph-name="L" unicode="L" horiz-adv-x="1058" 
d="M393 1434h-229q-62 0 -62 -62v-1311q0 -29 16.5 -45t45.5 -16h809q61 0 61 61v230q0 61 -61 61h-457q-29 0 -45 16.5t-16 45.5v958q0 62 -62 62z" />
    <glyph glyph-name="M" unicode="M" horiz-adv-x="1622" 
d="M588 1434h-424q-62 0 -62 -62v-1311q0 -61 62 -61h229q62 0 62 61v807q0 11 9.5 11.5t12.5 -9.5l199 -817q12 -53 67 -53h136q55 0 67 53l199 817q3 10 12.5 9.5t9.5 -11.5v-807q0 -29 16.5 -45t45.5 -16h229q62 0 62 61v1311q0 62 -62 62h-424q-52 0 -65 -56l-146 -596
q-3 -15 -12 -15t-12 15l-146 596q-13 56 -65 56z" />
    <glyph glyph-name="N" unicode="N" horiz-adv-x="1294" 
d="M465 1434h-301q-62 0 -62 -62v-1311q0 -29 16.5 -45t45.5 -16h229q62 0 62 61v662q0 15 9 17t15 -11l279 -682q20 -47 71 -47h301q62 0 62 61v1311q0 62 -62 62h-229q-61 0 -61 -62v-661q0 -15 -9.5 -17.5t-15.5 11.5l-278 681q-20 48 -72 48z" />
    <glyph glyph-name="O" unicode="O" horiz-adv-x="1191" 
d="M1110 973v-512q0 -37 -2.5 -71t-14.5 -86.5t-32 -96t-59 -90.5t-91.5 -79.5t-133.5 -53.5t-181 -21t-181 21t-133.5 53.5t-91.5 79.5t-59 90.5t-32 96t-14.5 86.5t-2.5 71v512q0 37 2.5 71t14.5 86t32 95.5t59 90.5t91.5 79.5t133.5 53.5t181 21t181 -21t133.5 -53.5
t91.5 -79.5t59 -90.5t32 -95.5t14.5 -86t2.5 -71zM758 569v295q0 55 -2 88t-11 68.5t-26 54.5t-47.5 31t-75.5 12t-75.5 -12t-47.5 -31t-26 -54.5t-11 -68.5t-2 -88v-295q0 -55 2 -88t11 -68.5t26 -54.5t47.5 -31t75.5 -12t75.5 12t47.5 31t26 54.5t11 68.5t2 88z" />
    <glyph glyph-name="P" unicode="P" horiz-adv-x="1150" 
d="M164 1434h450q271 0 391.5 -118.5t120.5 -373.5t-120.5 -373t-391.5 -118h-98q-61 0 -61 -62v-328q0 -61 -62 -61h-229q-29 0 -45.5 16t-16.5 45v1309q0 61 62 64zM516 803h111q42 0 65.5 4t44 17.5t29 42t8.5 75.5t-8.5 75.5t-29 42t-44 17.5t-65.5 4h-111
q-61 0 -61 -61v-156q0 -61 61 -61z" />
    <glyph glyph-name="Q" unicode="Q" horiz-adv-x="1198" 
d="M1182 72l-166 -158q-43 -43 -86 0l-78 78q-12 12 -29 6q-93 -35 -227 -35q-100 0 -181 21t-133.5 53.5t-91.5 79.5t-59 90.5t-32 96t-14.5 86.5t-2.5 71v512q0 37 2.5 71t14.5 86t32 95.5t59 90.5t91.5 79.5t133.5 53.5t181 21t181 -21t133.5 -53.5t91.5 -79.5t59 -90.5
t32 -95.5t14.5 -86t2.5 -71v-512q0 -87 -23 -174q-3 -16 7 -29l92 -98q40 -44 -4 -88zM434 864v-295q0 -55 2 -88t11 -68.5t26 -54.5t47.5 -31t75.5 -12t75.5 12t47.5 31t26 54.5t11 68.5t2 88v295q0 55 -2 88t-11 68.5t-26 54.5t-47.5 31t-75.5 12t-75.5 -12t-47.5 -31
t-26 -54.5t-11 -68.5t-2 -88z" />
    <glyph glyph-name="R" unicode="R" horiz-adv-x="1214" 
d="M965 514l217 -403q22 -40 0.5 -75.5t-68.5 -35.5h-233q-34 0 -47 29l-213 411q-7 11 -17 11h-82q-28 0 -45.5 -18t-17.5 -46v-324q0 -28 -18 -45.5t-46 -17.5h-229q-28 0 -46 17.5t-18 45.5v1307q0 28 18 46t46 18h448q271 0 391.5 -118.5t120.5 -373.5q0 -290 -155 -401
q-13 -10 -6 -27zM627 1081h-105q-28 0 -45.5 -17.5t-17.5 -45.5v-152q0 -28 17.5 -45.5t45.5 -17.5h105q42 0 65.5 4t44 17.5t29 42t8.5 75.5t-8.5 75.5t-29 42t-44 17.5t-65.5 4z" />
    <glyph glyph-name="S" unicode="S" horiz-adv-x="1171" 
d="M1051 977l-234 -51q-58 -11 -67 51q-11 63 -59 100t-120 37q-58 0 -92 -28.5t-28 -65.5q5 -28 37.5 -53.5t80.5 -45.5t108.5 -45.5t122 -52t120.5 -67.5t104.5 -89t73.5 -118.5t28 -155.5q0 -17 -5 -43t-20.5 -67.5t-40 -82.5t-68 -83.5t-99 -74.5t-139.5 -52.5
t-183 -20.5q-123 0 -219 31.5t-152 78t-93 109.5t-51 116t-17 108t53 67l232 51q61 12 67 -53q6 -72 56 -113.5t124 -41.5q73 0 122 36t40 78q-8 35 -48.5 63.5t-98.5 51t-127 48t-136 62.5t-122 85t-89 124t-34 172q-1 17 2 43t15 67.5t31.5 82t57.5 83.5t88 75t127.5 52.5
t171.5 20.5q120 0 215.5 -30.5t151.5 -75t94 -105t53 -111t19 -100.5q3 -55 -53 -67z" />
    <glyph glyph-name="T" unicode="T" horiz-adv-x="1212" 
d="M430 1020v-959q0 -29 16.5 -45t45.5 -16h229q61 0 61 61v959q0 61 62 61h286q62 0 62 62v229q0 62 -62 62h-1048q-62 0 -62 -62v-229q0 -29 16.5 -45.5t45.5 -16.5h287q61 0 61 -61z" />
    <glyph glyph-name="U" unicode="U" horiz-adv-x="1208" 
d="M152 1434h229q61 0 61 -62v-803q0 -55 2 -88t11 -68.5t26 -54.5t47.5 -31t75.5 -12t75.5 12t47.5 31t26 54.5t11 68.5t2 88v803q0 62 61 62h230q61 0 61 -62v-911q0 -37 -2.5 -71t-14.5 -86.5t-32 -96t-59 -90.5t-91.5 -79.5t-133.5 -53.5t-181 -21t-181 21t-133.5 53.5
t-91.5 79.5t-59 90.5t-32 96t-14.5 86.5t-2.5 71v911q0 62 62 62z" />
    <glyph glyph-name="V" unicode="V" horiz-adv-x="1187" 
d="M334 1434h-244q-32 0 -46 -18t-7 -50l299 -1313q12 -53 67 -53h381q56 0 68 53l299 1313q7 32 -7 50t-46 18h-244q-56 0 -68 -54l-180 -786q-2 -9 -7 -12t-10 0t-7 12l-181 786q-12 54 -67 54z" />
    <glyph glyph-name="W" unicode="W" horiz-adv-x="1658" 
d="M29 1366l252 -1313q9 -53 67 -53h289q56 0 68 53l112 504q3 15 12.5 15t12.5 -15l112 -504q12 -53 68 -53h289q58 0 67 53l252 1313q6 32 -8.5 50t-46.5 18h-244q-28 0 -46 -14t-21 -40l-117 -854q-3 -15 -12.5 -15t-12.5 15l-137 854q-9 54 -67 54h-177q-58 0 -67 -54
l-137 -854q-3 -15 -12.5 -15t-12.5 15l-117 854q-3 26 -21 40t-46 14h-244q-32 0 -46.5 -18t-8.5 -50z" />
    <glyph glyph-name="X" unicode="X" 
d="M823 729l387 -655q19 -32 6.5 -53t-49.5 -21h-254q-50 0 -73 41l-203 344q-6 11 -13.5 11t-13.5 -11l-196 -342q-22 -43 -74 -43h-279q-37 0 -49.5 21t6.5 53l394 665q9 15 0 29l-349 592q-19 32 -6.5 53t49.5 21h254q51 0 74 -41l166 -285q6 -10 14.5 -10t14.5 10
l168 285q23 41 73 41h256q36 0 47.5 -21t-6.5 -53l-344 -602q-9 -14 0 -29z" />
    <glyph glyph-name="Y" unicode="Y" horiz-adv-x="1230" 
d="M381 1434h-295q-35 0 -48.5 -20t1.5 -52l369 -819q4 -8 4 -25v-457q0 -61 61 -61h287q61 0 61 61v457q0 17 4 25l367 819q15 32 1.5 52t-48.5 20h-293q-53 0 -70 -48l-151 -380q-6 -14 -14.5 -14t-14.5 14l-151 380q-17 48 -70 48z" />
    <glyph glyph-name="Z" unicode="Z" horiz-adv-x="1208" 
d="M641 352h432q62 0 62 -61v-230q0 -61 -62 -61h-1018q-37 0 -49.5 21t6.5 53l559 983q6 11 2 17.5t-16 6.5h-391q-29 0 -45.5 16.5t-16.5 45.5v229q0 62 62 62h987q37 0 49.5 -21t-6.5 -53l-569 -983q-6 -11 -2 -18t16 -7z" />
    <glyph glyph-name="bracketleft" unicode="[" horiz-adv-x="573" 
d="M451 1638h-328q-62 0 -62 -61v-1925q0 -29 16.5 -45.5t45.5 -16.5h328q61 0 61 62v123q0 61 -61 61h-123q-29 0 -45.5 16.5t-16.5 45.5v1474q0 62 62 62h123q61 0 61 61v82q0 61 -61 61z" />
    <glyph glyph-name="backslash" unicode="\" 
d="M809 -154l-610 1655q-12 32 1.5 52t47.5 20h100q54 0 72 -49l610 -1655q12 -32 -1.5 -52t-47.5 -20h-100q-54 0 -72 49z" />
    <glyph glyph-name="bracketright" unicode="]" horiz-adv-x="573" 
d="M512 -348v1925q0 61 -61 61h-328q-62 0 -62 -61v-82q0 -61 62 -61h123q61 0 61 -62v-1474q0 -29 -16 -45.5t-45 -16.5h-123q-62 0 -62 -61v-123q0 -62 62 -62h328q29 0 45 16.5t16 45.5z" />
    <glyph glyph-name="asciicircum" unicode="^" 
d="M651 1534l404 -404q45 -42 0 -90l-58 -55q-43 -43 -86 0l-293 289q-9 15 -24 0l-291 -289q-19 -20 -41.5 -20t-42.5 20l-57 55q-44 46 0 90l403 404q22 22 41.5 22t44.5 -22z" />
    <glyph glyph-name="underscore" unicode="_" 
d="M23 -266v82q0 61 61 61h1061q61 0 61 -61v-82q0 -62 -61 -62h-1061q-29 0 -45 16.5t-16 45.5z" />
    <glyph glyph-name="grave" unicode="`" horiz-adv-x="608" 
d="M309 1559h-215q-44 0 -52 -24t26 -52l235 -189q33 -26 76 -26h135q41 0 51 22t-16 53l-164 183q-33 33 -76 33z" />
    <glyph glyph-name="a" unicode="a" horiz-adv-x="1187" 
d="M1096 70v868q0 63 -3.5 111.5t-15.5 106.5t-33 100.5t-59 85t-90 69t-128.5 43t-172.5 16.5t-172.5 -16.5t-128.5 -43t-90 -69t-59 -85t-33 -100.5t-15.5 -106.5t-3.5 -111.5v-868q0 -34 16.5 -52t45.5 -18h229q61 0 61 61v179q0 61 62 61h176q61 0 61 -61v-179
q0 -61 62 -61h229q62 0 62 70zM743 938v-221q0 -61 -61 -64h-176q-29 0 -45.5 16.5t-16.5 45.5v223q0 41 4.5 65t19.5 44.5t45.5 29t80.5 8.5q95 0 122 -32.5t27 -114.5z" />
    <glyph glyph-name="b" unicode="b" horiz-adv-x="1200" 
d="M164 1434h430q285 0 408.5 -118t123.5 -374q0 -69 -24 -152t-80 -145q64 -30 104.5 -102.5t40.5 -165.5q0 -132 -43.5 -212t-153.5 -122.5t-300 -42.5h-506q-29 0 -45.5 16t-16.5 45v1309q0 61 62 64zM516 803h111q42 0 65.5 4t44 17.5t29 42t8.5 75.5t-8.5 75.5t-29 42
t-44 17.5t-65.5 4h-111q-61 0 -61 -61v-156q0 -61 61 -61zM514 291h129q82 0 115 19.5t33 86.5q0 68 -32.5 89.5t-111.5 21.5h-133q-61 0 -61 -62v-94q0 -61 61 -61z" />
    <glyph glyph-name="c" unicode="c" horiz-adv-x="1146" 
d="M82 461v512q0 37 2.5 71t14.5 86t32 95.5t59 90.5t91.5 79.5t133.5 53.5t181 21q90 0 165 -17t126 -44.5t91 -66.5t63 -78.5t38 -86t21 -82.5t8 -75q1 -22 -11 -37t-34 -20l-227 -52q-32 -6 -54.5 12.5t-27.5 51.5q-8 72 -43.5 107.5t-114.5 35.5q-45 0 -75.5 -12
t-47.5 -31t-26 -54.5t-11 -68.5t-2 -88v-295q0 -55 2 -88t11 -68.5t26 -54.5t47.5 -31t75.5 -12q80 0 113 36t43 112q5 33 27 49.5t52 9.5l232 -51q22 -5 34 -20.5t11 -38.5q-3 -56 -14 -107.5t-45 -117t-86.5 -112.5t-147.5 -79.5t-219 -32.5q-100 0 -181 21t-133.5 53.5
t-91.5 79.5t-59 90.5t-32 96t-14.5 86.5t-2.5 71z" />
    <glyph glyph-name="d" unicode="d" horiz-adv-x="1214" 
d="M164 1434h457q144 0 242.5 -29t158 -91.5t85.5 -152.5t26 -219v-448q0 -129 -26 -219.5t-85.5 -153t-158 -92t-242.5 -29.5h-457q-29 0 -45.5 16t-16.5 45v1309q0 61 62 64zM516 352h111q80 0 113.5 26.5t33.5 113.5v450q0 47 -8.5 75.5t-29 42t-44 17.5t-65.5 4h-111
q-61 0 -61 -61v-606q0 -29 16 -45.5t45 -16.5z" />
    <glyph glyph-name="e" unicode="e" horiz-adv-x="1140" 
d="M1024 1434h-860q-62 0 -62 -62v-1311q0 -29 16.5 -45t45.5 -16h860q61 0 61 61v230q0 61 -61 61h-496q-29 0 -45 16.5t-16 45.5v65q0 62 61 62h318q61 0 61 61v229q0 62 -61 62h-318q-61 0 -61 61v66q0 61 61 61h496q61 0 61 62v229q0 62 -61 62z" />
    <glyph glyph-name="f" unicode="f" horiz-adv-x="1126" 
d="M1044 1434h-880q-62 0 -62 -62v-1311q0 -29 16.5 -45t45.5 -16h242q61 0 61 61v418q0 62 61 62h338q62 0 62 61v229q0 62 -62 62h-338q-61 0 -61 61v66q0 61 61 61h516q62 0 62 62v229q0 62 -62 62z" />
    <glyph glyph-name="g" unicode="g" horiz-adv-x="1187" 
d="M82 461v512q0 37 2.5 71t14.5 86t32 95.5t59 90.5t91.5 79.5t133.5 53.5t181 21q89 0 163 -16.5t125 -43t90.5 -64.5t63 -76.5t39.5 -84t22.5 -82t8.5 -75.5q3 -55 -53 -67l-232 -52q-61 -12 -67 54q-6 79 -41.5 117t-118.5 38q-45 0 -75.5 -12t-47.5 -31t-26 -54.5
t-11 -68.5t-2 -88v-295q0 -55 2 -88t11 -68.5t26 -54.5t47.5 -31t75.5 -12q44 0 75 11.5t47.5 28.5t26 45.5t11.5 52t2 59.5h-119q-61 0 -61 61v164q0 62 61 62h410q61 0 61 -62v-276q0 -37 -2.5 -71t-14.5 -86.5t-32 -96t-59 -90.5t-91.5 -79.5t-133.5 -53.5t-181 -21
t-181 21t-133.5 53.5t-91.5 79.5t-59 90.5t-32 96t-14.5 86.5t-2.5 71z" />
    <glyph glyph-name="h" unicode="h" 
d="M393 1434h-229q-62 0 -62 -62v-1311q0 -29 16.5 -45t45.5 -16h229q62 0 62 61v324q0 61 61 61h197q61 0 61 -61v-324q0 -29 16.5 -45t45.5 -16h229q61 0 61 61v1311q0 62 -61 62h-229q-29 0 -45.5 -16.5t-16.5 -45.5v-512q0 -61 -61 -61h-197q-61 0 -61 61v512
q0 29 -16.5 45.5t-45.5 16.5z" />
    <glyph glyph-name="i" unicode="i" horiz-adv-x="552" 
d="M389 1434h-225q-62 0 -62 -62v-1311q0 -29 16.5 -45t45.5 -16h225q62 0 62 61v1311q0 62 -62 62z" />
    <glyph glyph-name="j" unicode="j" horiz-adv-x="1138" 
d="M758 1434h225q28 0 46 -18t18 -46v-909q0 -37 -3 -71t-15 -86.5t-32 -96t-59 -90.5t-91.5 -79.5t-133.5 -53.5t-181 -21q-90 0 -165 17t-126 44.5t-91 66.5t-63 78.5t-38 86t-21 83t-8 75.5q-1 21 11.5 36.5t34.5 20.5l227 51q32 6 54.5 -12t27.5 -51q8 -72 43 -108
t114 -36q45 0 75.5 12t47.5 31t26 54.5t11 68.5t2 88v801q0 28 18 46t46 18z" />
    <glyph glyph-name="k" unicode="k" horiz-adv-x="1275" 
d="M807 760l446 -686q21 -31 9.5 -52.5t-48.5 -21.5h-307q-48 0 -73 41l-254 389q-6 9 -14.5 9t-14.5 -9l-84 -115q-8 -11 -8 -26v-228q0 -61 -62 -61h-233q-29 0 -45.5 16t-16.5 45v1311q0 62 62 62h233q62 0 62 -62v-411q0 -15 8.5 -18t15.5 9l322 443q26 39 74 39h303
q38 0 49.5 -22t-10.5 -54l-414 -570q-10 -16 0 -28z" />
    <glyph glyph-name="l" unicode="l" horiz-adv-x="1058" 
d="M393 1434h-229q-62 0 -62 -62v-1311q0 -29 16.5 -45t45.5 -16h809q61 0 61 61v230q0 61 -61 61h-457q-29 0 -45 16.5t-16 45.5v958q0 62 -62 62z" />
    <glyph glyph-name="m" unicode="m" horiz-adv-x="1622" 
d="M588 1434h-424q-62 0 -62 -62v-1311q0 -61 62 -61h229q62 0 62 61v807q0 11 9.5 11.5t12.5 -9.5l199 -817q12 -53 67 -53h136q55 0 67 53l199 817q3 10 12.5 9.5t9.5 -11.5v-807q0 -29 16.5 -45t45.5 -16h229q62 0 62 61v1311q0 62 -62 62h-424q-52 0 -65 -56l-146 -596
q-3 -15 -12 -15t-12 15l-146 596q-13 56 -65 56z" />
    <glyph glyph-name="n" unicode="n" horiz-adv-x="1294" 
d="M465 1434h-301q-62 0 -62 -62v-1311q0 -29 16.5 -45t45.5 -16h229q62 0 62 61v662q0 15 9 17t15 -11l279 -682q20 -47 71 -47h301q62 0 62 61v1311q0 62 -62 62h-229q-61 0 -61 -62v-661q0 -15 -9.5 -17.5t-15.5 11.5l-278 681q-20 48 -72 48z" />
    <glyph glyph-name="o" unicode="o" horiz-adv-x="1191" 
d="M1110 973v-512q0 -37 -2.5 -71t-14.5 -86.5t-32 -96t-59 -90.5t-91.5 -79.5t-133.5 -53.5t-181 -21t-181 21t-133.5 53.5t-91.5 79.5t-59 90.5t-32 96t-14.5 86.5t-2.5 71v512q0 37 2.5 71t14.5 86t32 95.5t59 90.5t91.5 79.5t133.5 53.5t181 21t181 -21t133.5 -53.5
t91.5 -79.5t59 -90.5t32 -95.5t14.5 -86t2.5 -71zM758 569v295q0 55 -2 88t-11 68.5t-26 54.5t-47.5 31t-75.5 12t-75.5 -12t-47.5 -31t-26 -54.5t-11 -68.5t-2 -88v-295q0 -55 2 -88t11 -68.5t26 -54.5t47.5 -31t75.5 -12t75.5 12t47.5 31t26 54.5t11 68.5t2 88z" />
    <glyph glyph-name="p" unicode="p" horiz-adv-x="1150" 
d="M164 1434h450q271 0 391.5 -118.5t120.5 -373.5t-120.5 -373t-391.5 -118h-98q-61 0 -61 -62v-328q0 -61 -62 -61h-229q-29 0 -45.5 16t-16.5 45v1309q0 61 62 64zM516 803h111q42 0 65.5 4t44 17.5t29 42t8.5 75.5t-8.5 75.5t-29 42t-44 17.5t-65.5 4h-111
q-61 0 -61 -61v-156q0 -61 61 -61z" />
    <glyph glyph-name="q" unicode="q" horiz-adv-x="1198" 
d="M1182 72l-166 -158q-43 -43 -86 0l-78 78q-12 12 -29 6q-93 -35 -227 -35q-100 0 -181 21t-133.5 53.5t-91.5 79.5t-59 90.5t-32 96t-14.5 86.5t-2.5 71v512q0 37 2.5 71t14.5 86t32 95.5t59 90.5t91.5 79.5t133.5 53.5t181 21t181 -21t133.5 -53.5t91.5 -79.5t59 -90.5
t32 -95.5t14.5 -86t2.5 -71v-512q0 -87 -23 -174q-3 -16 7 -29l92 -98q40 -44 -4 -88zM434 864v-295q0 -55 2 -88t11 -68.5t26 -54.5t47.5 -31t75.5 -12t75.5 12t47.5 31t26 54.5t11 68.5t2 88v295q0 55 -2 88t-11 68.5t-26 54.5t-47.5 31t-75.5 12t-75.5 -12t-47.5 -31
t-26 -54.5t-11 -68.5t-2 -88z" />
    <glyph glyph-name="r" unicode="r" horiz-adv-x="1214" 
d="M965 514l217 -403q22 -40 0.5 -75.5t-68.5 -35.5h-233q-34 0 -47 29l-213 411q-7 11 -17 11h-82q-28 0 -45.5 -18t-17.5 -46v-324q0 -28 -18 -45.5t-46 -17.5h-229q-28 0 -46 17.5t-18 45.5v1307q0 28 18 46t46 18h448q271 0 391.5 -118.5t120.5 -373.5q0 -290 -155 -401
q-13 -10 -6 -27zM627 1081h-105q-28 0 -45.5 -17.5t-17.5 -45.5v-152q0 -28 17.5 -45.5t45.5 -17.5h105q42 0 65.5 4t44 17.5t29 42t8.5 75.5t-8.5 75.5t-29 42t-44 17.5t-65.5 4z" />
    <glyph glyph-name="s" unicode="s" horiz-adv-x="1171" 
d="M1051 977l-234 -51q-58 -11 -67 51q-11 63 -59 100t-120 37q-58 0 -92 -28.5t-28 -65.5q5 -28 37.5 -53.5t80.5 -45.5t108.5 -45.5t122 -52t120.5 -67.5t104.5 -89t73.5 -118.5t28 -155.5q0 -17 -5 -43t-20.5 -67.5t-40 -82.5t-68 -83.5t-99 -74.5t-139.5 -52.5
t-183 -20.5q-123 0 -219 31.5t-152 78t-93 109.5t-51 116t-17 108t53 67l232 51q61 12 67 -53q6 -72 56 -113.5t124 -41.5q73 0 122 36t40 78q-8 35 -48.5 63.5t-98.5 51t-127 48t-136 62.5t-122 85t-89 124t-34 172q-1 17 2 43t15 67.5t31.5 82t57.5 83.5t88 75t127.5 52.5
t171.5 20.5q120 0 215.5 -30.5t151.5 -75t94 -105t53 -111t19 -100.5q3 -55 -53 -67z" />
    <glyph glyph-name="t" unicode="t" horiz-adv-x="1212" 
d="M430 1020v-959q0 -29 16.5 -45t45.5 -16h229q61 0 61 61v959q0 61 62 61h286q62 0 62 62v229q0 62 -62 62h-1048q-62 0 -62 -62v-229q0 -29 16.5 -45.5t45.5 -16.5h287q61 0 61 -61z" />
    <glyph glyph-name="u" unicode="u" horiz-adv-x="1208" 
d="M152 1434h229q61 0 61 -62v-803q0 -55 2 -88t11 -68.5t26 -54.5t47.5 -31t75.5 -12t75.5 12t47.5 31t26 54.5t11 68.5t2 88v803q0 62 61 62h230q61 0 61 -62v-911q0 -37 -2.5 -71t-14.5 -86.5t-32 -96t-59 -90.5t-91.5 -79.5t-133.5 -53.5t-181 -21t-181 21t-133.5 53.5
t-91.5 79.5t-59 90.5t-32 96t-14.5 86.5t-2.5 71v911q0 62 62 62z" />
    <glyph glyph-name="v" unicode="v" horiz-adv-x="1187" 
d="M334 1434h-244q-32 0 -46 -18t-7 -50l299 -1313q12 -53 67 -53h381q56 0 68 53l299 1313q7 32 -7 50t-46 18h-244q-56 0 -68 -54l-180 -786q-2 -9 -7 -12t-10 0t-7 12l-181 786q-12 54 -67 54z" />
    <glyph glyph-name="w" unicode="w" horiz-adv-x="1658" 
d="M29 1366l252 -1313q9 -53 67 -53h289q56 0 68 53l112 504q3 15 12.5 15t12.5 -15l112 -504q12 -53 68 -53h289q58 0 67 53l252 1313q6 32 -8.5 50t-46.5 18h-244q-28 0 -46 -14t-21 -40l-117 -854q-3 -15 -12.5 -15t-12.5 15l-137 854q-9 54 -67 54h-177q-58 0 -67 -54
l-137 -854q-3 -15 -12.5 -15t-12.5 15l-117 854q-3 26 -21 40t-46 14h-244q-32 0 -46.5 -18t-8.5 -50z" />
    <glyph glyph-name="x" unicode="x" 
d="M823 729l387 -655q19 -32 6.5 -53t-49.5 -21h-254q-50 0 -73 41l-203 344q-6 11 -13.5 11t-13.5 -11l-196 -342q-22 -43 -74 -43h-279q-37 0 -49.5 21t6.5 53l394 665q9 15 0 29l-349 592q-19 32 -6.5 53t49.5 21h254q51 0 74 -41l166 -285q6 -10 14.5 -10t14.5 10
l168 285q23 41 73 41h256q36 0 47.5 -21t-6.5 -53l-344 -602q-9 -14 0 -29z" />
    <glyph glyph-name="y" unicode="y" horiz-adv-x="1230" 
d="M381 1434h-295q-35 0 -48.5 -20t1.5 -52l369 -819q4 -8 4 -25v-457q0 -61 61 -61h287q61 0 61 61v457q0 17 4 25l367 819q15 32 1.5 52t-48.5 20h-293q-53 0 -70 -48l-151 -380q-6 -14 -14.5 -14t-14.5 14l-151 380q-17 48 -70 48z" />
    <glyph glyph-name="z" unicode="z" horiz-adv-x="1208" 
d="M641 352h432q62 0 62 -61v-230q0 -61 -62 -61h-1018q-37 0 -49.5 21t6.5 53l559 983q6 11 2 17.5t-16 6.5h-391q-29 0 -45.5 16.5t-16.5 45.5v229q0 62 62 62h987q37 0 49.5 -21t-6.5 -53l-569 -983q-6 -11 -2 -18t16 -7z" />
    <glyph glyph-name="braceleft" unicode="{" horiz-adv-x="542" 
d="M481 -279v134q0 45 -51 65q-54 23 -73.5 85t-13.5 143t15.5 164.5t6 166.5t-32.5 131q-4 6 -7.5 11.5t-5.5 9t-4.5 6t-2 5t0 4t1.5 5t3 6t5.5 8.5t7.5 11q31 47 34.5 129.5t-6.5 166.5t-15.5 166.5t14 145.5t73.5 86q51 20 51 66v133q0 31 -17 46t-48 11
q-97 -12 -159 -61t-86.5 -118.5t-32 -151.5t-3.5 -166t6.5 -156t-8.5 -127.5t-43 -75.5q-16 -10 -20.5 -13t-14 -11.5t-12 -18t-2.5 -22.5v-119q0 -17 7.5 -30t15 -18.5t26.5 -17.5q32 -19 43.5 -74.5t9 -127.5t-7 -156t3.5 -166t32 -151.5t86 -118.5t159 -62q31 -4 48 11
t17 46z" />
    <glyph glyph-name="bar" unicode="|" horiz-adv-x="368" 
d="M225 1577h-82q-61 0 -61 -61v-1803q0 -61 61 -61h82q62 0 62 61v1803q0 61 -62 61z" />
    <glyph glyph-name="braceright" unicode="}" horiz-adv-x="542" 
d="M61 1569v-133q0 -46 52 -66q54 -23 73.5 -86t14 -145.5t-15.5 -166.5t-6.5 -166.5t34.5 -129.5q3 -5 8 -12q10 -15 10 -19.5t-9 -16.5q-6 -11 -11 -18q-29 -48 -32.5 -131t6 -166.5t15.5 -164.5t-13.5 -143t-73.5 -85q-52 -20 -52 -65v-134q0 -31 17.5 -46t48.5 -11
q97 13 159 62t86 118.5t32 151.5t3.5 166t-7 156t9 127.5t43.5 74.5q19 12 26.5 17.5t15 18.5t7.5 30v119q0 13 -2.5 22.5t-12 18t-14 11.5t-20.5 13q-32 20 -43 75.5t-8.5 127.5t6.5 156t-3.5 166t-32 151.5t-86.5 118.5t-159 61q-31 4 -48.5 -11t-17.5 -46z" />
    <glyph glyph-name="asciitilde" unicode="~" 
d="M238 862l-123 -39q-63 -21 -39 -80q38 -76 92.5 -120t112.5 -54t123.5 -5.5t127 23t122.5 34t110 25.5t88 -1t59 -47q10 -18 35 -25.5t45 0.5l123 39q63 22 39 80q-38 76 -92 120t-112 54t-123.5 5.5t-127.5 -23t-122.5 -33.5t-110 -25t-89 1t-59.5 47q-8 18 -32.5 26
t-46.5 -2z" />
    <glyph glyph-name="exclamdown" unicode="&#xa1;" horiz-adv-x="679" 
d="M455 674h-230q-61 0 -61 61v230q0 61 61 61h230q61 0 61 -61v-230q0 -61 -61 -61zM496 -408h-312q-30 0 -46 16t-15 46l41 860q3 61 61 61h230q58 0 61 -61l41 -860q3 -62 -61 -62z" />
    <glyph glyph-name="cent" unicode="&#xa2;" horiz-adv-x="968" 
d="M727 670l137 -33q46 -9 43 -55q-1 -42 -9 -81t-30.5 -87t-57.5 -85t-96 -66.5t-141 -39.5v-174q0 -49 -51 -49h-67q-52 0 -52 49v172q-69 8 -123.5 31t-89.5 51.5t-60.5 72t-38.5 80.5t-20 90t-8.5 87t-1.5 84q0 48 2 85t9.5 87.5t21.5 89.5t39.5 81t60.5 71.5t88.5 52
t120.5 30.5v170q0 23 13.5 36.5t38.5 13.5h67q51 0 51 -50v-172q80 -10 141 -39.5t96 -66.5t57.5 -85t30.5 -87t9 -80q3 -45 -43 -57l-137 -33q-46 -8 -55 43q-7 74 -27.5 113t-71.5 53v-510q51 14 71.5 52.5t27.5 109.5q9 53 55 45zM403 461v514q-68 -19 -87 -75t-19 -183
q0 -42 1 -68t4.5 -56t10 -48.5t18.5 -36.5t29.5 -29t42.5 -18z" />
    <glyph glyph-name="dieresis" unicode="&#xa8;" 
d="M399 1194q-47 0 -81.5 35t-34.5 82t34.5 81.5t81.5 34.5t82 -34.5t35 -81.5t-35 -82t-82 -35zM829 1194q-47 0 -81.5 35t-34.5 82t34.5 81.5t81.5 34.5t82 -34.5t35 -81.5t-35 -82t-82 -35z" />
    <glyph glyph-name="guillemotleft" unicode="&#xab;" horiz-adv-x="1165" 
d="M651 254l-55 -57q-48 -45 -90 0l-404 403q-22 25 -22 44.5t22 41.5l404 404q44 44 90 0l55 -58q20 -20 20 -42.5t-20 -41.5l-289 -291q-15 -15 0 -24l289 -293q43 -43 0 -86zM1061 254l-57 -57q-46 -46 -86 0l-406 403q-22 25 -22 44.5t22 41.5l406 404q41 45 86 0
l57 -58q23 -20 23 -42.5t-23 -41.5l-289 -291q-15 -15 0 -24l289 -293q48 -45 0 -86z" />
    <glyph glyph-name="degree" unicode="&#xb0;" horiz-adv-x="589" 
d="M295 1040q-113 0 -194 81t-81 194q0 114 81 194t194 80q114 0 194 -80t80 -194q0 -113 -80 -194t-194 -81zM295 1219q38 0 67 29t29 67t-29 67t-67 29t-67 -29t-29 -67t29 -67t67 -29z" />
    <glyph glyph-name="acute" unicode="&#xb4;" horiz-adv-x="608" 
d="M305 1294l236 189q34 28 25.5 52t-52.5 24h-215q-43 0 -76 -33l-164 -183q-26 -31 -16 -53t51 -22h135q43 0 76 26z" />
    <glyph glyph-name="periodcentered" unicode="&#xb7;" horiz-adv-x="475" 
d="M352 889h-229q-62 0 -62 -62v-229q0 -29 16.5 -45t45.5 -16h229q62 0 62 61v229q0 62 -62 62z" />
    <glyph glyph-name="guillemotright" unicode="&#xbb;" horiz-adv-x="1165" 
d="M653 600l-405 -403q-40 -46 -86 0l-58 57q-48 41 0 86l289 293q15 9 0 24l-289 291q-23 19 -23 41.5t23 42.5l58 58q45 45 86 0l405 -404q22 -22 22 -41.5t-22 -44.5zM1063 600l-404 -403q-42 -45 -90 0l-55 57q-43 43 0 86l289 293q15 9 0 24l-289 291q-20 19 -20 41.5
t20 42.5l55 58q46 44 90 0l404 -404q22 -22 22 -41.5t-22 -44.5z" />
    <glyph glyph-name="questiondown" unicode="&#xbf;" 
d="M522 709h230q61 0 61 61v229q0 29 -16 45.5t-45 16.5h-230q-61 0 -61 -62v-229q0 -61 61 -61zM514 604h231q32 0 48 -17.5t10 -49.5q-14 -77 -45.5 -133.5t-68.5 -89.5t-73.5 -63t-67 -73t-42.5 -100q-10 -50 17 -92.5t83 -42.5q135 0 158 137q9 62 67 51l234 -51
q56 -12 53 -68q-4 -52 -16.5 -101t-48 -110t-88 -105.5t-146 -75t-213.5 -30.5q-94 0 -170.5 20.5t-124.5 52.5t-84 75.5t-53.5 83t-27.5 82.5t-12 67t-1 43q0 95 24.5 168.5t64 120.5t80.5 83.5t82 79.5t60 87q20 51 70 51z" />
    <glyph glyph-name="Agrave" unicode="&#xc0;" horiz-adv-x="1187" 
d="M606 1968h-215q-44 0 -52 -24t26 -52l235 -188q35 -27 76 -27h135q41 0 51 22.5t-16 53.5l-164 182q-33 33 -76 33zM1096 70v868q0 63 -3.5 111.5t-15.5 106.5t-33 100.5t-59 85t-90 69t-128.5 43t-172.5 16.5t-172.5 -16.5t-128.5 -43t-90 -69t-59 -85t-33 -100.5
t-15.5 -106.5t-3.5 -111.5v-868q0 -34 16.5 -52t45.5 -18h229q61 0 61 61v179q0 61 62 61h176q61 0 61 -61v-179q0 -61 62 -61h229q62 0 62 70zM743 938v-221q0 -61 -61 -64h-176q-29 0 -45.5 16.5t-16.5 45.5v223q0 41 4.5 65t19.5 44.5t45.5 29t80.5 8.5q95 0 122 -32.5
t27 -114.5z" />
    <glyph glyph-name="Aacute" unicode="&#xc1;" horiz-adv-x="1187" 
d="M600 1704l236 188q34 28 25.5 52t-52.5 24h-215q-43 0 -76 -33l-164 -182q-26 -31 -16 -53.5t51 -22.5h135q42 0 76 27zM1096 70v868q0 63 -3.5 111.5t-15.5 106.5t-33 100.5t-59 85t-90 69t-128.5 43t-172.5 16.5t-172.5 -16.5t-128.5 -43t-90 -69t-59 -85t-33 -100.5
t-15.5 -106.5t-3.5 -111.5v-868q0 -34 16.5 -52t45.5 -18h229q61 0 61 61v179q0 61 62 61h176q61 0 61 -61v-179q0 -61 62 -61h229q62 0 62 70zM743 938v-221q0 -61 -61 -64h-176q-29 0 -45.5 16.5t-16.5 45.5v223q0 41 4.5 65t19.5 44.5t45.5 29t80.5 8.5q95 0 122 -32.5
t27 -114.5z" />
    <glyph glyph-name="Acircumflex" unicode="&#xc2;" horiz-adv-x="1187" 
d="M641 2005l293 -295q45 -42 0 -90l-57 -55q-43 -43 -86 0l-183 180q-12 12 -24 0l-176 -176q-19 -20 -41.5 -20t-42.5 20l-58 55q-44 46 0 90l289 291q23 23 41.5 23.5t44.5 -23.5zM1096 70v868q0 63 -3.5 111.5t-15.5 106.5t-33 100.5t-59 85t-90 69t-128.5 43
t-172.5 16.5t-172.5 -16.5t-128.5 -43t-90 -69t-59 -85t-33 -100.5t-15.5 -106.5t-3.5 -111.5v-868q0 -34 16.5 -52t45.5 -18h229q61 0 61 61v179q0 61 62 61h176q61 0 61 -61v-179q0 -61 62 -61h229q62 0 62 70zM743 938v-221q0 -61 -61 -64h-176q-29 0 -45.5 16.5
t-16.5 45.5v223q0 41 4.5 65t19.5 44.5t45.5 29t80.5 8.5q95 0 122 -32.5t27 -114.5z" />
    <glyph glyph-name="Atilde" unicode="&#xc3;" horiz-adv-x="1187" 
d="M317 1800l-94 -31q-47 -15 -26 -59q32 -65 79.5 -98.5t99 -36.5t107.5 6.5t108.5 25t98 26t81 4t52.5 -37.5q7 -13 25.5 -18t34.5 0l94 31q47 17 27 59q-32 65 -79.5 98.5t-99.5 36.5t-107.5 -6.5t-108.5 -25t-98.5 -26t-81 -4t-52.5 37.5q-6 12 -25.5 18.5t-34.5 -0.5z
M1096 70v868q0 63 -3.5 111.5t-15.5 106.5t-33 100.5t-59 85t-90 69t-128.5 43t-172.5 16.5t-172.5 -16.5t-128.5 -43t-90 -69t-59 -85t-33 -100.5t-15.5 -106.5t-3.5 -111.5v-868q0 -34 16.5 -52t45.5 -18h229q61 0 61 61v179q0 61 62 61h176q61 0 61 -61v-179
q0 -61 62 -61h229q62 0 62 70zM743 938v-221q0 -61 -61 -64h-176q-29 0 -45.5 16.5t-16.5 45.5v223q0 41 4.5 65t19.5 44.5t45.5 29t80.5 8.5q95 0 122 -32.5t27 -114.5z" />
    <glyph glyph-name="Adieresis" unicode="&#xc4;" horiz-adv-x="1187" 
d="M385 1604q-47 0 -82 34.5t-35 81.5t35 82t82 35t82 -35t35 -82t-35 -81.5t-82 -34.5zM815 1604q-47 0 -82 34.5t-35 81.5t35 82t82 35t82 -35t35 -82t-35 -81.5t-82 -34.5zM1096 70v868q0 63 -3.5 111.5t-15.5 106.5t-33 100.5t-59 85t-90 69t-128.5 43t-172.5 16.5
t-172.5 -16.5t-128.5 -43t-90 -69t-59 -85t-33 -100.5t-15.5 -106.5t-3.5 -111.5v-868q0 -34 16.5 -52t45.5 -18h229q61 0 61 61v179q0 61 62 61h176q61 0 61 -61v-179q0 -61 62 -61h229q62 0 62 70zM743 938v-221q0 -61 -61 -64h-176q-29 0 -45.5 16.5t-16.5 45.5v223
q0 41 4.5 65t19.5 44.5t45.5 29t80.5 8.5q95 0 122 -32.5t27 -114.5z" />
    <glyph glyph-name="Egrave" unicode="&#xc8;" horiz-adv-x="1140" 
d="M621 1968h-215q-44 0 -52.5 -24t25.5 -52l235 -188q35 -27 76 -27h135q41 0 51 22.5t-16 53.5l-164 182q-33 33 -75 33zM1024 1434h-860q-62 0 -62 -62v-1311q0 -29 16.5 -45t45.5 -16h860q61 0 61 61v230q0 61 -61 61h-496q-29 0 -45 16.5t-16 45.5v65q0 62 61 62h318
q61 0 61 61v229q0 62 -61 62h-318q-61 0 -61 61v66q0 61 61 61h496q61 0 61 62v229q0 62 -61 62z" />
    <glyph glyph-name="Eacute" unicode="&#xc9;" horiz-adv-x="1140" 
d="M614 1704l236 188q34 28 25.5 52t-52.5 24h-215q-43 0 -76 -33l-163 -182q-27 -31 -17 -53.5t51 -22.5h136q41 0 75 27zM1024 1434h-860q-62 0 -62 -62v-1311q0 -29 16.5 -45t45.5 -16h860q61 0 61 61v230q0 61 -61 61h-496q-29 0 -45 16.5t-16 45.5v65q0 62 61 62h318
q61 0 61 61v229q0 62 -61 62h-318q-61 0 -61 61v66q0 61 61 61h496q61 0 61 62v229q0 62 -61 62z" />
    <glyph glyph-name="Ecircumflex" unicode="&#xca;" horiz-adv-x="1140" 
d="M655 2005l293 -295q45 -42 0 -90l-57 -55q-43 -43 -86 0l-182 180q-13 13 -25 0l-176 -176q-19 -20 -41.5 -20t-42.5 20l-57 55q-44 46 0 90l288 291q23 23 41.5 23.5t44.5 -23.5zM1024 1434h-860q-62 0 -62 -62v-1311q0 -29 16.5 -45t45.5 -16h860q61 0 61 61v230
q0 61 -61 61h-496q-29 0 -45 16.5t-16 45.5v65q0 62 61 62h318q61 0 61 61v229q0 62 -61 62h-318q-61 0 -61 61v66q0 61 61 61h496q61 0 61 62v229q0 62 -61 62z" />
    <glyph glyph-name="Edieresis" unicode="&#xcb;" horiz-adv-x="1140" 
d="M399 1604q-47 0 -81.5 34.5t-34.5 81.5t34.5 82t81.5 35t82 -35t35 -82t-35 -81.5t-82 -34.5zM829 1604q-47 0 -81.5 34.5t-34.5 81.5t34.5 82t81.5 35t82 -35t35 -82t-35 -81.5t-82 -34.5zM1024 1434h-860q-62 0 -62 -62v-1311q0 -29 16.5 -45t45.5 -16h860q61 0 61 61
v230q0 61 -61 61h-496q-29 0 -45 16.5t-16 45.5v65q0 62 61 62h318q61 0 61 61v229q0 62 -61 62h-318q-61 0 -61 61v66q0 61 61 61h496q61 0 61 62v229q0 62 -61 62z" />
    <glyph glyph-name="Igrave" unicode="&#xcc;" horiz-adv-x="552" 
d="M283 1968h-215q-44 0 -52.5 -24t25.5 -52l235 -188q34 -27 76 -27h135q41 0 51 22.5t-16 53.5l-164 182q-33 33 -75 33zM389 1434h-225q-62 0 -62 -62v-1311q0 -29 16.5 -45t45.5 -16h225q62 0 62 61v1311q0 62 -62 62z" />
    <glyph glyph-name="Iacute" unicode="&#xcd;" horiz-adv-x="552" 
d="M276 1704l236 188q34 28 25.5 52t-52.5 24h-215q-42 0 -75 -33l-164 -182q-26 -31 -16 -53.5t51 -22.5h135q41 0 75 27zM389 1434h-225q-62 0 -62 -62v-1311q0 -29 16.5 -45t45.5 -16h225q62 0 62 61v1311q0 62 -62 62z" />
    <glyph glyph-name="Icircumflex" unicode="&#xce;" horiz-adv-x="552" 
d="M317 2005l293 -295q45 -42 0 -90l-57 -55q-43 -43 -86 0l-182 180q-13 13 -25 0l-176 -176q-19 -20 -41.5 -20t-42.5 20l-57 55q-44 46 0 90l288 291q23 23 41.5 23.5t44.5 -23.5zM389 1434h-225q-62 0 -62 -62v-1311q0 -29 16.5 -45t45.5 -16h225q62 0 62 61v1311
q0 62 -62 62z" />
    <glyph glyph-name="Idieresis" unicode="&#xcf;" horiz-adv-x="552" 
d="M61 1604q-47 0 -81.5 34.5t-34.5 81.5t34.5 82t81.5 35t82 -35t35 -82t-35 -81.5t-82 -34.5zM492 1604q-47 0 -82 34.5t-35 81.5t35 82t82 35t81.5 -35t34.5 -82t-34.5 -81.5t-81.5 -34.5zM389 1434h-225q-62 0 -62 -62v-1311q0 -29 16.5 -45t45.5 -16h225q62 0 62 61
v1311q0 62 -62 62z" />
    <glyph glyph-name="Ntilde" unicode="&#xd1;" horiz-adv-x="1294" 
d="M385 1800l-94 -31q-48 -15 -27 -59q32 -65 79.5 -98.5t99.5 -36.5t107.5 6.5t108.5 25t98.5 26t81 4t52.5 -37.5q7 -13 25 -18t34 0l94 31q47 17 27 59q-32 65 -79.5 98.5t-99.5 36.5t-107.5 -6.5t-108.5 -25t-98.5 -26t-81 -4t-52.5 37.5q-6 12 -25 18.5t-34 -0.5z
M465 1434h-301q-62 0 -62 -62v-1311q0 -29 16.5 -45t45.5 -16h229q62 0 62 61v662q0 15 9 17t15 -11l279 -682q20 -47 71 -47h301q62 0 62 61v1311q0 62 -62 62h-229q-61 0 -61 -62v-661q0 -15 -9.5 -17.5t-15.5 11.5l-278 681q-20 48 -72 48z" />
    <glyph glyph-name="Ograve" unicode="&#xd2;" horiz-adv-x="1191" 
d="M602 1968h-215q-44 0 -52.5 -24t25.5 -52l236 -188q34 -27 76 -27h135q41 0 51 22.5t-16 53.5l-164 182q-33 33 -76 33zM1110 973v-512q0 -37 -2.5 -71t-14.5 -86.5t-32 -96t-59 -90.5t-91.5 -79.5t-133.5 -53.5t-181 -21t-181 21t-133.5 53.5t-91.5 79.5t-59 90.5
t-32 96t-14.5 86.5t-2.5 71v512q0 37 2.5 71t14.5 86t32 95.5t59 90.5t91.5 79.5t133.5 53.5t181 21t181 -21t133.5 -53.5t91.5 -79.5t59 -90.5t32 -95.5t14.5 -86t2.5 -71zM758 569v295q0 55 -2 88t-11 68.5t-26 54.5t-47.5 31t-75.5 12t-75.5 -12t-47.5 -31t-26 -54.5
t-11 -68.5t-2 -88v-295q0 -55 2 -88t11 -68.5t26 -54.5t47.5 -31t75.5 -12t75.5 12t47.5 31t26 54.5t11 68.5t2 88z" />
    <glyph glyph-name="Oacute" unicode="&#xd3;" horiz-adv-x="1191" 
d="M596 1704l235 188q34 28 26 52t-52 24h-215q-43 0 -76 -33l-164 -182q-26 -31 -16 -53.5t51 -22.5h135q42 0 76 27zM1110 973v-512q0 -37 -2.5 -71t-14.5 -86.5t-32 -96t-59 -90.5t-91.5 -79.5t-133.5 -53.5t-181 -21t-181 21t-133.5 53.5t-91.5 79.5t-59 90.5t-32 96
t-14.5 86.5t-2.5 71v512q0 37 2.5 71t14.5 86t32 95.5t59 90.5t91.5 79.5t133.5 53.5t181 21t181 -21t133.5 -53.5t91.5 -79.5t59 -90.5t32 -95.5t14.5 -86t2.5 -71zM758 569v295q0 55 -2 88t-11 68.5t-26 54.5t-47.5 31t-75.5 12t-75.5 -12t-47.5 -31t-26 -54.5t-11 -68.5
t-2 -88v-295q0 -55 2 -88t11 -68.5t26 -54.5t47.5 -31t75.5 -12t75.5 12t47.5 31t26 54.5t11 68.5t2 88z" />
    <glyph glyph-name="Ocircumflex" unicode="&#xd4;" horiz-adv-x="1191" 
d="M637 2005l293 -295q45 -42 0 -90l-58 -55q-43 -43 -86 0l-182 180q-12 12 -24 0l-177 -176q-19 -20 -41.5 -20t-42.5 20l-57 55q-44 46 0 90l289 291q23 23 41.5 23.5t44.5 -23.5zM1110 973v-512q0 -37 -2.5 -71t-14.5 -86.5t-32 -96t-59 -90.5t-91.5 -79.5t-133.5 -53.5
t-181 -21t-181 21t-133.5 53.5t-91.5 79.5t-59 90.5t-32 96t-14.5 86.5t-2.5 71v512q0 37 2.5 71t14.5 86t32 95.5t59 90.5t91.5 79.5t133.5 53.5t181 21t181 -21t133.5 -53.5t91.5 -79.5t59 -90.5t32 -95.5t14.5 -86t2.5 -71zM758 569v295q0 55 -2 88t-11 68.5t-26 54.5
t-47.5 31t-75.5 12t-75.5 -12t-47.5 -31t-26 -54.5t-11 -68.5t-2 -88v-295q0 -55 2 -88t11 -68.5t26 -54.5t47.5 -31t75.5 -12t75.5 12t47.5 31t26 54.5t11 68.5t2 88z" />
    <glyph glyph-name="Otilde" unicode="&#xd5;" horiz-adv-x="1191" 
d="M313 1800l-94 -31q-47 -15 -26 -59q32 -65 79.5 -98.5t99 -36.5t107.5 6.5t108.5 25t98 26t81 4t52.5 -37.5q7 -13 25.5 -18t34.5 0l94 31q46 17 26 59q-32 65 -79.5 98.5t-99 36.5t-107.5 -6.5t-108.5 -25t-98 -26t-81 -4t-52.5 37.5q-6 12 -25.5 18.5t-34.5 -0.5z
M1110 973v-512q0 -37 -2.5 -71t-14.5 -86.5t-32 -96t-59 -90.5t-91.5 -79.5t-133.5 -53.5t-181 -21t-181 21t-133.5 53.5t-91.5 79.5t-59 90.5t-32 96t-14.5 86.5t-2.5 71v512q0 37 2.5 71t14.5 86t32 95.5t59 90.5t91.5 79.5t133.5 53.5t181 21t181 -21t133.5 -53.5
t91.5 -79.5t59 -90.5t32 -95.5t14.5 -86t2.5 -71zM758 569v295q0 55 -2 88t-11 68.5t-26 54.5t-47.5 31t-75.5 12t-75.5 -12t-47.5 -31t-26 -54.5t-11 -68.5t-2 -88v-295q0 -55 2 -88t11 -68.5t26 -54.5t47.5 -31t75.5 -12t75.5 12t47.5 31t26 54.5t11 68.5t2 88z" />
    <glyph glyph-name="Odieresis" unicode="&#xd6;" horiz-adv-x="1191" 
d="M381 1604q-47 0 -82 34.5t-35 81.5t35 82t82 35t82 -35t35 -82t-35 -81.5t-82 -34.5zM811 1604q-47 0 -82 34.5t-35 81.5t35 82t82 35t82 -35t35 -82t-35 -81.5t-82 -34.5zM1110 973v-512q0 -37 -2.5 -71t-14.5 -86.5t-32 -96t-59 -90.5t-91.5 -79.5t-133.5 -53.5
t-181 -21t-181 21t-133.5 53.5t-91.5 79.5t-59 90.5t-32 96t-14.5 86.5t-2.5 71v512q0 37 2.5 71t14.5 86t32 95.5t59 90.5t91.5 79.5t133.5 53.5t181 21t181 -21t133.5 -53.5t91.5 -79.5t59 -90.5t32 -95.5t14.5 -86t2.5 -71zM758 569v295q0 55 -2 88t-11 68.5t-26 54.5
t-47.5 31t-75.5 12t-75.5 -12t-47.5 -31t-26 -54.5t-11 -68.5t-2 -88v-295q0 -55 2 -88t11 -68.5t26 -54.5t47.5 -31t75.5 -12t75.5 12t47.5 31t26 54.5t11 68.5t2 88z" />
    <glyph glyph-name="multiply" unicode="&#xd7;" 
d="M629 938l235 236q44 44 88 0l162 -162q42 -46 0 -88l-235 -236q-16 -13 0 -29l235 -235q44 -44 0 -88l-162 -162q-46 -42 -88 0l-235 236q-15 14 -29 0l-235 -236q-45 -41 -89 0l-161 162q-42 42 0 88l235 235q16 16 0 29l-235 236q-41 44 0 88l161 162q43 43 89 0
l235 -236q6 -8 14.5 -8t14.5 8z" />
    <glyph glyph-name="Oslash" unicode="&#xd8;" horiz-adv-x="1232" 
d="M1016 1493l71 -39q53 -30 25 -82l-68 -117q66 -114 66 -282v-512q0 -37 -2.5 -71t-14.5 -86.5t-32 -96t-59 -90.5t-91.5 -79.5t-133.5 -53.5t-181 -21q-163 0 -268 51l-35 -59q-29 -48 -82 -12l-68 41q-56 24 -24 77l49 84q-86 122 -86 316v512q0 37 2.5 71t14.5 86
t32 95.5t59 90.5t91.5 79.5t133.5 53.5t181 21q183 0 297 -65l43 74q11 22 33 26.5t47 -12.5zM434 864v-256l275 477q-41 33 -113 33q-45 0 -75.5 -12t-47.5 -31t-26 -54.5t-11 -68.5t-2 -88zM758 569v191l-248 -428q39 -17 86 -17q45 0 75.5 12t47.5 31t26 54.5t11 68.5
t2 88z" />
    <glyph glyph-name="Ugrave" unicode="&#xd9;" horiz-adv-x="1208" 
d="M610 1968h-215q-44 0 -52 -24t26 -52l235 -188q34 -27 76 -27h135q41 0 51 22.5t-16 53.5l-164 182q-33 33 -76 33zM152 1434h229q61 0 61 -62v-803q0 -55 2 -88t11 -68.5t26 -54.5t47.5 -31t75.5 -12t75.5 12t47.5 31t26 54.5t11 68.5t2 88v803q0 62 61 62h230
q61 0 61 -62v-911q0 -37 -2.5 -71t-14.5 -86.5t-32 -96t-59 -90.5t-91.5 -79.5t-133.5 -53.5t-181 -21t-181 21t-133.5 53.5t-91.5 79.5t-59 90.5t-32 96t-14.5 86.5t-2.5 71v911q0 62 62 62z" />
    <glyph glyph-name="Uacute" unicode="&#xda;" horiz-adv-x="1208" 
d="M604 1704l236 188q34 28 25.5 52t-52.5 24h-215q-43 0 -76 -33l-164 -182q-26 -31 -16 -53.5t51 -22.5h135q42 0 76 27zM152 1434h229q61 0 61 -62v-803q0 -55 2 -88t11 -68.5t26 -54.5t47.5 -31t75.5 -12t75.5 12t47.5 31t26 54.5t11 68.5t2 88v803q0 62 61 62h230
q61 0 61 -62v-911q0 -37 -2.5 -71t-14.5 -86.5t-32 -96t-59 -90.5t-91.5 -79.5t-133.5 -53.5t-181 -21t-181 21t-133.5 53.5t-91.5 79.5t-59 90.5t-32 96t-14.5 86.5t-2.5 71v911q0 62 62 62z" />
    <glyph glyph-name="Ucircumflex" unicode="&#xdb;" horiz-adv-x="1208" 
d="M645 2005l293 -295q45 -42 0 -90l-57 -55q-43 -43 -86 0l-183 180q-12 12 -24 0l-176 -176q-19 -20 -41.5 -20t-42.5 20l-58 55q-44 46 0 90l289 291q23 23 41.5 23.5t44.5 -23.5zM152 1434h229q61 0 61 -62v-803q0 -55 2 -88t11 -68.5t26 -54.5t47.5 -31t75.5 -12
t75.5 12t47.5 31t26 54.5t11 68.5t2 88v803q0 62 61 62h230q61 0 61 -62v-911q0 -37 -2.5 -71t-14.5 -86.5t-32 -96t-59 -90.5t-91.5 -79.5t-133.5 -53.5t-181 -21t-181 21t-133.5 53.5t-91.5 79.5t-59 90.5t-32 96t-14.5 86.5t-2.5 71v911q0 62 62 62z" />
    <glyph glyph-name="Udieresis" unicode="&#xdc;" horiz-adv-x="1208" 
d="M389 1604q-47 0 -82 34.5t-35 81.5t35 82t82 35t82 -35t35 -82t-35 -81.5t-82 -34.5zM819 1604q-47 0 -82 34.5t-35 81.5t35 82t82 35t82 -35t35 -82t-35 -81.5t-82 -34.5zM152 1434h229q61 0 61 -62v-803q0 -55 2 -88t11 -68.5t26 -54.5t47.5 -31t75.5 -12t75.5 12
t47.5 31t26 54.5t11 68.5t2 88v803q0 62 61 62h230q61 0 61 -62v-911q0 -37 -2.5 -71t-14.5 -86.5t-32 -96t-59 -90.5t-91.5 -79.5t-133.5 -53.5t-181 -21t-181 21t-133.5 53.5t-91.5 79.5t-59 90.5t-32 96t-14.5 86.5t-2.5 71v911q0 62 62 62z" />
    <glyph glyph-name="agrave" unicode="&#xe0;" horiz-adv-x="1187" 
d="M606 1968h-215q-44 0 -52 -24t26 -52l235 -188q35 -27 76 -27h135q41 0 51 22.5t-16 53.5l-164 182q-33 33 -76 33zM1096 70v868q0 63 -3.5 111.5t-15.5 106.5t-33 100.5t-59 85t-90 69t-128.5 43t-172.5 16.5t-172.5 -16.5t-128.5 -43t-90 -69t-59 -85t-33 -100.5
t-15.5 -106.5t-3.5 -111.5v-868q0 -34 16.5 -52t45.5 -18h229q61 0 61 61v179q0 61 62 61h176q61 0 61 -61v-179q0 -61 62 -61h229q62 0 62 70zM743 938v-221q0 -61 -61 -64h-176q-29 0 -45.5 16.5t-16.5 45.5v223q0 41 4.5 65t19.5 44.5t45.5 29t80.5 8.5q95 0 122 -32.5
t27 -114.5z" />
    <glyph glyph-name="aacute" unicode="&#xe1;" horiz-adv-x="1187" 
d="M600 1704l236 188q34 28 25.5 52t-52.5 24h-215q-43 0 -76 -33l-164 -182q-26 -31 -16 -53.5t51 -22.5h135q42 0 76 27zM1096 70v868q0 63 -3.5 111.5t-15.5 106.5t-33 100.5t-59 85t-90 69t-128.5 43t-172.5 16.5t-172.5 -16.5t-128.5 -43t-90 -69t-59 -85t-33 -100.5
t-15.5 -106.5t-3.5 -111.5v-868q0 -34 16.5 -52t45.5 -18h229q61 0 61 61v179q0 61 62 61h176q61 0 61 -61v-179q0 -61 62 -61h229q62 0 62 70zM743 938v-221q0 -61 -61 -64h-176q-29 0 -45.5 16.5t-16.5 45.5v223q0 41 4.5 65t19.5 44.5t45.5 29t80.5 8.5q95 0 122 -32.5
t27 -114.5z" />
    <glyph glyph-name="acircumflex" unicode="&#xe2;" horiz-adv-x="1187" 
d="M641 2005l293 -295q45 -42 0 -90l-57 -55q-43 -43 -86 0l-183 180q-12 12 -24 0l-176 -176q-19 -20 -41.5 -20t-42.5 20l-58 55q-44 46 0 90l289 291q23 23 41.5 23.5t44.5 -23.5zM1096 70v868q0 63 -3.5 111.5t-15.5 106.5t-33 100.5t-59 85t-90 69t-128.5 43
t-172.5 16.5t-172.5 -16.5t-128.5 -43t-90 -69t-59 -85t-33 -100.5t-15.5 -106.5t-3.5 -111.5v-868q0 -34 16.5 -52t45.5 -18h229q61 0 61 61v179q0 61 62 61h176q61 0 61 -61v-179q0 -61 62 -61h229q62 0 62 70zM743 938v-221q0 -61 -61 -64h-176q-29 0 -45.5 16.5
t-16.5 45.5v223q0 41 4.5 65t19.5 44.5t45.5 29t80.5 8.5q95 0 122 -32.5t27 -114.5z" />
    <glyph glyph-name="atilde" unicode="&#xe3;" horiz-adv-x="1187" 
d="M317 1800l-94 -31q-47 -15 -26 -59q32 -65 79.5 -98.5t99 -36.5t107.5 6.5t108.5 25t98 26t81 4t52.5 -37.5q7 -13 25.5 -18t34.5 0l94 31q47 17 27 59q-32 65 -79.5 98.5t-99.5 36.5t-107.5 -6.5t-108.5 -25t-98.5 -26t-81 -4t-52.5 37.5q-6 12 -25.5 18.5t-34.5 -0.5z
M1096 70v868q0 63 -3.5 111.5t-15.5 106.5t-33 100.5t-59 85t-90 69t-128.5 43t-172.5 16.5t-172.5 -16.5t-128.5 -43t-90 -69t-59 -85t-33 -100.5t-15.5 -106.5t-3.5 -111.5v-868q0 -34 16.5 -52t45.5 -18h229q61 0 61 61v179q0 61 62 61h176q61 0 61 -61v-179
q0 -61 62 -61h229q62 0 62 70zM743 938v-221q0 -61 -61 -64h-176q-29 0 -45.5 16.5t-16.5 45.5v223q0 41 4.5 65t19.5 44.5t45.5 29t80.5 8.5q95 0 122 -32.5t27 -114.5z" />
    <glyph glyph-name="adieresis" unicode="&#xe4;" horiz-adv-x="1187" 
d="M385 1604q-47 0 -82 34.5t-35 81.5t35 82t82 35t82 -35t35 -82t-35 -81.5t-82 -34.5zM815 1604q-47 0 -82 34.5t-35 81.5t35 82t82 35t82 -35t35 -82t-35 -81.5t-82 -34.5zM1096 70v868q0 63 -3.5 111.5t-15.5 106.5t-33 100.5t-59 85t-90 69t-128.5 43t-172.5 16.5
t-172.5 -16.5t-128.5 -43t-90 -69t-59 -85t-33 -100.5t-15.5 -106.5t-3.5 -111.5v-868q0 -34 16.5 -52t45.5 -18h229q61 0 61 61v179q0 61 62 61h176q61 0 61 -61v-179q0 -61 62 -61h229q62 0 62 70zM743 938v-221q0 -61 -61 -64h-176q-29 0 -45.5 16.5t-16.5 45.5v223
q0 41 4.5 65t19.5 44.5t45.5 29t80.5 8.5q95 0 122 -32.5t27 -114.5z" />
    <glyph glyph-name="egrave" unicode="&#xe8;" horiz-adv-x="1140" 
d="M621 1968h-215q-44 0 -52.5 -24t25.5 -52l235 -188q35 -27 76 -27h135q41 0 51 22.5t-16 53.5l-164 182q-33 33 -75 33zM1024 1434h-860q-62 0 -62 -62v-1311q0 -29 16.5 -45t45.5 -16h860q61 0 61 61v230q0 61 -61 61h-496q-29 0 -45 16.5t-16 45.5v65q0 62 61 62h318
q61 0 61 61v229q0 62 -61 62h-318q-61 0 -61 61v66q0 61 61 61h496q61 0 61 62v229q0 62 -61 62z" />
    <glyph glyph-name="eacute" unicode="&#xe9;" horiz-adv-x="1140" 
d="M614 1704l236 188q34 28 25.5 52t-52.5 24h-215q-43 0 -76 -33l-163 -182q-27 -31 -17 -53.5t51 -22.5h136q41 0 75 27zM1024 1434h-860q-62 0 -62 -62v-1311q0 -29 16.5 -45t45.5 -16h860q61 0 61 61v230q0 61 -61 61h-496q-29 0 -45 16.5t-16 45.5v65q0 62 61 62h318
q61 0 61 61v229q0 62 -61 62h-318q-61 0 -61 61v66q0 61 61 61h496q61 0 61 62v229q0 62 -61 62z" />
    <glyph glyph-name="ecircumflex" unicode="&#xea;" horiz-adv-x="1140" 
d="M655 2005l293 -295q45 -42 0 -90l-57 -55q-43 -43 -86 0l-182 180q-13 13 -25 0l-176 -176q-19 -20 -41.5 -20t-42.5 20l-57 55q-44 46 0 90l288 291q23 23 41.5 23.5t44.5 -23.5zM1024 1434h-860q-62 0 -62 -62v-1311q0 -29 16.5 -45t45.5 -16h860q61 0 61 61v230
q0 61 -61 61h-496q-29 0 -45 16.5t-16 45.5v65q0 62 61 62h318q61 0 61 61v229q0 62 -61 62h-318q-61 0 -61 61v66q0 61 61 61h496q61 0 61 62v229q0 62 -61 62z" />
    <glyph glyph-name="edieresis" unicode="&#xeb;" horiz-adv-x="1140" 
d="M399 1604q-47 0 -81.5 34.5t-34.5 81.5t34.5 82t81.5 35t82 -35t35 -82t-35 -81.5t-82 -34.5zM829 1604q-47 0 -81.5 34.5t-34.5 81.5t34.5 82t81.5 35t82 -35t35 -82t-35 -81.5t-82 -34.5zM1024 1434h-860q-62 0 -62 -62v-1311q0 -29 16.5 -45t45.5 -16h860q61 0 61 61
v230q0 61 -61 61h-496q-29 0 -45 16.5t-16 45.5v65q0 62 61 62h318q61 0 61 61v229q0 62 -61 62h-318q-61 0 -61 61v66q0 61 61 61h496q61 0 61 62v229q0 62 -61 62z" />
    <glyph glyph-name="igrave" unicode="&#xec;" horiz-adv-x="552" 
d="M283 1968h-215q-44 0 -52.5 -24t25.5 -52l235 -188q34 -27 76 -27h135q41 0 51 22.5t-16 53.5l-164 182q-33 33 -75 33zM389 1434h-225q-62 0 -62 -62v-1311q0 -29 16.5 -45t45.5 -16h225q62 0 62 61v1311q0 62 -62 62z" />
    <glyph glyph-name="iacute" unicode="&#xed;" horiz-adv-x="552" 
d="M276 1704l236 188q34 28 25.5 52t-52.5 24h-215q-42 0 -75 -33l-164 -182q-26 -31 -16 -53.5t51 -22.5h135q41 0 75 27zM389 1434h-225q-62 0 -62 -62v-1311q0 -29 16.5 -45t45.5 -16h225q62 0 62 61v1311q0 62 -62 62z" />
    <glyph glyph-name="icircumflex" unicode="&#xee;" horiz-adv-x="552" 
d="M317 2005l293 -295q45 -42 0 -90l-57 -55q-43 -43 -86 0l-182 180q-13 13 -25 0l-176 -176q-19 -20 -41.5 -20t-42.5 20l-57 55q-44 46 0 90l288 291q23 23 41.5 23.5t44.5 -23.5zM389 1434h-225q-62 0 -62 -62v-1311q0 -29 16.5 -45t45.5 -16h225q62 0 62 61v1311
q0 62 -62 62z" />
    <glyph glyph-name="idieresis" unicode="&#xef;" horiz-adv-x="552" 
d="M61 1604q-47 0 -81.5 34.5t-34.5 81.5t34.5 82t81.5 35t82 -35t35 -82t-35 -81.5t-82 -34.5zM492 1604q-47 0 -82 34.5t-35 81.5t35 82t82 35t81.5 -35t34.5 -82t-34.5 -81.5t-81.5 -34.5zM389 1434h-225q-62 0 -62 -62v-1311q0 -29 16.5 -45t45.5 -16h225q62 0 62 61
v1311q0 62 -62 62z" />
    <glyph glyph-name="ntilde" unicode="&#xf1;" horiz-adv-x="1294" 
d="M385 1800l-94 -31q-48 -15 -27 -59q32 -65 79.5 -98.5t99.5 -36.5t107.5 6.5t108.5 25t98.5 26t81 4t52.5 -37.5q7 -13 25 -18t34 0l94 31q47 17 27 59q-32 65 -79.5 98.5t-99.5 36.5t-107.5 -6.5t-108.5 -25t-98.5 -26t-81 -4t-52.5 37.5q-6 12 -25 18.5t-34 -0.5z
M465 1434h-301q-62 0 -62 -62v-1311q0 -29 16.5 -45t45.5 -16h229q62 0 62 61v662q0 15 9 17t15 -11l279 -682q20 -47 71 -47h301q62 0 62 61v1311q0 62 -62 62h-229q-61 0 -61 -62v-661q0 -15 -9.5 -17.5t-15.5 11.5l-278 681q-20 48 -72 48z" />
    <glyph glyph-name="ograve" unicode="&#xf2;" horiz-adv-x="1191" 
d="M602 1968h-215q-44 0 -52.5 -24t25.5 -52l236 -188q34 -27 76 -27h135q41 0 51 22.5t-16 53.5l-164 182q-33 33 -76 33zM1110 973v-512q0 -37 -2.5 -71t-14.5 -86.5t-32 -96t-59 -90.5t-91.5 -79.5t-133.5 -53.5t-181 -21t-181 21t-133.5 53.5t-91.5 79.5t-59 90.5
t-32 96t-14.5 86.5t-2.5 71v512q0 37 2.5 71t14.5 86t32 95.5t59 90.5t91.5 79.5t133.5 53.5t181 21t181 -21t133.5 -53.5t91.5 -79.5t59 -90.5t32 -95.5t14.5 -86t2.5 -71zM758 569v295q0 55 -2 88t-11 68.5t-26 54.5t-47.5 31t-75.5 12t-75.5 -12t-47.5 -31t-26 -54.5
t-11 -68.5t-2 -88v-295q0 -55 2 -88t11 -68.5t26 -54.5t47.5 -31t75.5 -12t75.5 12t47.5 31t26 54.5t11 68.5t2 88z" />
    <glyph glyph-name="oacute" unicode="&#xf3;" horiz-adv-x="1191" 
d="M596 1704l235 188q34 28 26 52t-52 24h-215q-43 0 -76 -33l-164 -182q-26 -31 -16 -53.5t51 -22.5h135q42 0 76 27zM1110 973v-512q0 -37 -2.5 -71t-14.5 -86.5t-32 -96t-59 -90.5t-91.5 -79.5t-133.5 -53.5t-181 -21t-181 21t-133.5 53.5t-91.5 79.5t-59 90.5t-32 96
t-14.5 86.5t-2.5 71v512q0 37 2.5 71t14.5 86t32 95.5t59 90.5t91.5 79.5t133.5 53.5t181 21t181 -21t133.5 -53.5t91.5 -79.5t59 -90.5t32 -95.5t14.5 -86t2.5 -71zM758 569v295q0 55 -2 88t-11 68.5t-26 54.5t-47.5 31t-75.5 12t-75.5 -12t-47.5 -31t-26 -54.5t-11 -68.5
t-2 -88v-295q0 -55 2 -88t11 -68.5t26 -54.5t47.5 -31t75.5 -12t75.5 12t47.5 31t26 54.5t11 68.5t2 88z" />
    <glyph glyph-name="ocircumflex" unicode="&#xf4;" horiz-adv-x="1191" 
d="M637 2005l293 -295q45 -42 0 -90l-58 -55q-43 -43 -86 0l-182 180q-12 12 -24 0l-177 -176q-19 -20 -41.5 -20t-42.5 20l-57 55q-44 46 0 90l289 291q23 23 41.5 23.5t44.5 -23.5zM1110 973v-512q0 -37 -2.5 -71t-14.5 -86.5t-32 -96t-59 -90.5t-91.5 -79.5t-133.5 -53.5
t-181 -21t-181 21t-133.5 53.5t-91.5 79.5t-59 90.5t-32 96t-14.5 86.5t-2.5 71v512q0 37 2.5 71t14.5 86t32 95.5t59 90.5t91.5 79.5t133.5 53.5t181 21t181 -21t133.5 -53.5t91.5 -79.5t59 -90.5t32 -95.5t14.5 -86t2.5 -71zM758 569v295q0 55 -2 88t-11 68.5t-26 54.5
t-47.5 31t-75.5 12t-75.5 -12t-47.5 -31t-26 -54.5t-11 -68.5t-2 -88v-295q0 -55 2 -88t11 -68.5t26 -54.5t47.5 -31t75.5 -12t75.5 12t47.5 31t26 54.5t11 68.5t2 88z" />
    <glyph glyph-name="otilde" unicode="&#xf5;" horiz-adv-x="1191" 
d="M313 1800l-94 -31q-47 -15 -26 -59q32 -65 79.5 -98.5t99 -36.5t107.5 6.5t108.5 25t98 26t81 4t52.5 -37.5q7 -13 25.5 -18t34.5 0l94 31q46 17 26 59q-32 65 -79.5 98.5t-99 36.5t-107.5 -6.5t-108.5 -25t-98 -26t-81 -4t-52.5 37.5q-6 12 -25.5 18.5t-34.5 -0.5z
M1110 973v-512q0 -37 -2.5 -71t-14.5 -86.5t-32 -96t-59 -90.5t-91.5 -79.5t-133.5 -53.5t-181 -21t-181 21t-133.5 53.5t-91.5 79.5t-59 90.5t-32 96t-14.5 86.5t-2.5 71v512q0 37 2.5 71t14.5 86t32 95.5t59 90.5t91.5 79.5t133.5 53.5t181 21t181 -21t133.5 -53.5
t91.5 -79.5t59 -90.5t32 -95.5t14.5 -86t2.5 -71zM758 569v295q0 55 -2 88t-11 68.5t-26 54.5t-47.5 31t-75.5 12t-75.5 -12t-47.5 -31t-26 -54.5t-11 -68.5t-2 -88v-295q0 -55 2 -88t11 -68.5t26 -54.5t47.5 -31t75.5 -12t75.5 12t47.5 31t26 54.5t11 68.5t2 88z" />
    <glyph glyph-name="odieresis" unicode="&#xf6;" horiz-adv-x="1191" 
d="M381 1604q-47 0 -82 34.5t-35 81.5t35 82t82 35t82 -35t35 -82t-35 -81.5t-82 -34.5zM811 1604q-47 0 -82 34.5t-35 81.5t35 82t82 35t82 -35t35 -82t-35 -81.5t-82 -34.5zM1110 973v-512q0 -37 -2.5 -71t-14.5 -86.5t-32 -96t-59 -90.5t-91.5 -79.5t-133.5 -53.5
t-181 -21t-181 21t-133.5 53.5t-91.5 79.5t-59 90.5t-32 96t-14.5 86.5t-2.5 71v512q0 37 2.5 71t14.5 86t32 95.5t59 90.5t91.5 79.5t133.5 53.5t181 21t181 -21t133.5 -53.5t91.5 -79.5t59 -90.5t32 -95.5t14.5 -86t2.5 -71zM758 569v295q0 55 -2 88t-11 68.5t-26 54.5
t-47.5 31t-75.5 12t-75.5 -12t-47.5 -31t-26 -54.5t-11 -68.5t-2 -88v-295q0 -55 2 -88t11 -68.5t26 -54.5t47.5 -31t75.5 -12t75.5 12t47.5 31t26 54.5t11 68.5t2 88z" />
    <glyph glyph-name="divide" unicode="&#xf7;" 
d="M614 920q-77 0 -124.5 47t-47.5 125q0 68 49 120t123 52t123 -52t49 -120q0 -78 -47.5 -125t-124.5 -47zM84 846h1061q61 0 61 -62v-229q0 -61 -61 -61h-1061q-61 0 -61 61v229q0 62 61 62zM614 80q-74 0 -123 52t-49 120q0 78 47.5 125t124.5 47t124.5 -47t47.5 -125
q0 -68 -49 -120t-123 -52z" />
    <glyph glyph-name="oslash" unicode="&#xf8;" horiz-adv-x="1232" 
d="M1016 1493l71 -39q53 -30 25 -82l-68 -117q66 -114 66 -282v-512q0 -37 -2.5 -71t-14.5 -86.5t-32 -96t-59 -90.5t-91.5 -79.5t-133.5 -53.5t-181 -21q-163 0 -268 51l-35 -59q-29 -48 -82 -12l-68 41q-56 24 -24 77l49 84q-86 122 -86 316v512q0 37 2.5 71t14.5 86
t32 95.5t59 90.5t91.5 79.5t133.5 53.5t181 21q183 0 297 -65l43 74q11 22 33 26.5t47 -12.5zM434 864v-256l275 477q-41 33 -113 33q-45 0 -75.5 -12t-47.5 -31t-26 -54.5t-11 -68.5t-2 -88zM758 569v191l-248 -428q39 -17 86 -17q45 0 75.5 12t47.5 31t26 54.5t11 68.5
t2 88z" />
    <glyph glyph-name="ugrave" unicode="&#xf9;" horiz-adv-x="1208" 
d="M610 1968h-215q-44 0 -52 -24t26 -52l235 -188q34 -27 76 -27h135q41 0 51 22.5t-16 53.5l-164 182q-33 33 -76 33zM152 1434h229q61 0 61 -62v-803q0 -55 2 -88t11 -68.5t26 -54.5t47.5 -31t75.5 -12t75.5 12t47.5 31t26 54.5t11 68.5t2 88v803q0 62 61 62h230
q61 0 61 -62v-911q0 -37 -2.5 -71t-14.5 -86.5t-32 -96t-59 -90.5t-91.5 -79.5t-133.5 -53.5t-181 -21t-181 21t-133.5 53.5t-91.5 79.5t-59 90.5t-32 96t-14.5 86.5t-2.5 71v911q0 62 62 62z" />
    <glyph glyph-name="uacute" unicode="&#xfa;" horiz-adv-x="1208" 
d="M604 1704l236 188q34 28 25.5 52t-52.5 24h-215q-43 0 -76 -33l-164 -182q-26 -31 -16 -53.5t51 -22.5h135q42 0 76 27zM152 1434h229q61 0 61 -62v-803q0 -55 2 -88t11 -68.5t26 -54.5t47.5 -31t75.5 -12t75.5 12t47.5 31t26 54.5t11 68.5t2 88v803q0 62 61 62h230
q61 0 61 -62v-911q0 -37 -2.5 -71t-14.5 -86.5t-32 -96t-59 -90.5t-91.5 -79.5t-133.5 -53.5t-181 -21t-181 21t-133.5 53.5t-91.5 79.5t-59 90.5t-32 96t-14.5 86.5t-2.5 71v911q0 62 62 62z" />
    <glyph glyph-name="ucircumflex" unicode="&#xfb;" horiz-adv-x="1208" 
d="M645 2005l293 -295q45 -42 0 -90l-57 -55q-43 -43 -86 0l-183 180q-12 12 -24 0l-176 -176q-19 -20 -41.5 -20t-42.5 20l-58 55q-44 46 0 90l289 291q23 23 41.5 23.5t44.5 -23.5zM152 1434h229q61 0 61 -62v-803q0 -55 2 -88t11 -68.5t26 -54.5t47.5 -31t75.5 -12
t75.5 12t47.5 31t26 54.5t11 68.5t2 88v803q0 62 61 62h230q61 0 61 -62v-911q0 -37 -2.5 -71t-14.5 -86.5t-32 -96t-59 -90.5t-91.5 -79.5t-133.5 -53.5t-181 -21t-181 21t-133.5 53.5t-91.5 79.5t-59 90.5t-32 96t-14.5 86.5t-2.5 71v911q0 62 62 62z" />
    <glyph glyph-name="udieresis" unicode="&#xfc;" horiz-adv-x="1208" 
d="M389 1604q-47 0 -82 34.5t-35 81.5t35 82t82 35t82 -35t35 -82t-35 -81.5t-82 -34.5zM819 1604q-47 0 -82 34.5t-35 81.5t35 82t82 35t82 -35t35 -82t-35 -81.5t-82 -34.5zM152 1434h229q61 0 61 -62v-803q0 -55 2 -88t11 -68.5t26 -54.5t47.5 -31t75.5 -12t75.5 12
t47.5 31t26 54.5t11 68.5t2 88v803q0 62 61 62h230q61 0 61 -62v-911q0 -37 -2.5 -71t-14.5 -86.5t-32 -96t-59 -90.5t-91.5 -79.5t-133.5 -53.5t-181 -21t-181 21t-133.5 53.5t-91.5 79.5t-59 90.5t-32 96t-14.5 86.5t-2.5 71v911q0 62 62 62z" />
    <glyph glyph-name="circumflex" unicode="&#x2c6;" 
d="M651 2005l293 -295q45 -42 0 -90l-57 -55q-43 -43 -86 0l-183 180q-12 12 -24 0l-176 -176q-19 -20 -41.5 -20t-42.5 20l-58 55q-44 46 0 90l289 291q23 23 41.5 23.5t44.5 -23.5z" />
    <glyph glyph-name="tilde" unicode="&#x2dc;" horiz-adv-x="942" 
d="M188 1800l-94 -31q-47 -15 -26 -59q32 -65 79.5 -98.5t99 -36.5t107.5 6.5t108.5 25t98 26t81 4t52.5 -37.5q7 -13 25.5 -18t34.5 0l94 31q46 17 26 59q-32 65 -79.5 98.5t-99 36.5t-107.5 -6.5t-108.5 -25t-98 -26t-81 -4t-52.5 37.5q-6 12 -25.5 18.5t-34.5 -0.5z" />
    <glyph glyph-name="endash" unicode="&#x2013;" 
d="M186 571v230q0 61 62 61h733q61 0 61 -61v-230q0 -61 -61 -61h-733q-29 0 -45.5 16t-16.5 45z" />
    <glyph glyph-name="emdash" unicode="&#x2014;" horiz-adv-x="1880" 
d="M102 571v230q0 61 62 61h1552q62 0 62 -61v-230q0 -61 -62 -61h-1552q-29 0 -45.5 16t-16.5 45z" />
    <glyph glyph-name="quoteleft" unicode="&#x2018;" horiz-adv-x="475" 
d="M123 862h229q62 0 62 62v229q0 29 -16.5 45t-45.5 16h-94q-20 0 -20 21q4 85 65 158q14 17 8 31.5t-26 13.5q-113 -11 -168.5 -88.5t-55.5 -196.5v-229q0 -62 62 -62z" />
    <glyph glyph-name="quoteright" unicode="&#x2019;" horiz-adv-x="475" 
d="M352 1434h-229q-62 0 -62 -62v-229q0 -29 16.5 -45.5t45.5 -16.5h94q21 0 21 -20q-4 -84 -66 -158q-14 -17 -8 -31.5t26 -13.5q113 11 168.5 88.5t55.5 196.5v229q0 62 -62 62z" />
    <glyph glyph-name="quotesinglbase" unicode="&#x201a;" horiz-adv-x="485" 
d="M373 352h-230q-61 0 -61 -61v-230q0 -61 61 -61h95q20 0 20 -20q-4 -85 -65 -158q-14 -17 -8 -31.5t26 -13.5q113 11 168 88t55 196v230q0 61 -61 61z" />
    <glyph glyph-name="quotedblleft" unicode="&#x201c;" horiz-adv-x="884" 
d="M123 854h229q62 0 62 61v230q0 29 -16.5 45t-45.5 16h-94q-20 0 -20 21q4 84 65 157q14 17 8 32t-26 14q-113 -11 -168.5 -88.5t-55.5 -196.5v-230q0 -61 62 -61zM532 854h230q61 0 61 61v230q0 61 -61 61h-94q-9 0 -15 6t-6 15q4 83 66 157q14 17 7.5 32t-26.5 14
q-113 -11 -168 -88.5t-55 -196.5v-230q0 -61 61 -61z" />
    <glyph glyph-name="quotedblright" unicode="&#x201d;" horiz-adv-x="884" 
d="M352 1430h-229q-62 0 -62 -62v-229q0 -29 16.5 -45.5t45.5 -16.5h94q21 0 21 -20q-4 -84 -66 -158q-14 -17 -8 -31.5t26 -13.5q113 11 168.5 88.5t55.5 196.5v229q0 62 -62 62zM762 1430h-230q-61 0 -61 -62v-229q0 -29 16 -45.5t45 -16.5h95q20 0 20 -20
q-4 -85 -65 -158q-14 -17 -8 -31.5t26 -13.5q113 11 168 88.5t55 196.5v229q0 62 -61 62z" />
    <glyph glyph-name="quotedblbase" unicode="&#x201e;" horiz-adv-x="915" 
d="M373 352h-230q-61 0 -61 -61v-230q0 -61 61 -61h95q20 0 20 -20q-4 -85 -65 -158q-14 -17 -8 -31.5t26 -13.5q113 11 168 88t55 196v230q0 61 -61 61zM803 352h-230q-61 0 -61 -61v-230q0 -61 61 -61h95q20 0 20 -20q-4 -85 -65 -158q-14 -17 -8 -31.5t26 -13.5
q113 11 168 88t55 196v230q0 61 -61 61z" />
    <glyph glyph-name="bullet" unicode="&#x2022;" 
d="M614 510q-85 0 -145.5 61t-60.5 146t60.5 146t145.5 61t146 -61t61 -146t-61 -146t-146 -61z" />
    <glyph glyph-name="ellipsis" unicode="&#x2026;" horiz-adv-x="1474" 
d="M373 352h-230q-61 0 -61 -61v-230q0 -61 61 -61h230q61 0 61 61v230q0 61 -61 61zM881 352h-230q-61 0 -61 -61v-230q0 -61 61 -61h230q61 0 61 61v230q0 61 -61 61zM1372 352h-229q-62 0 -62 -61v-230q0 -29 16.5 -45t45.5 -16h229q62 0 62 61v230q0 61 -62 61z" />
    <glyph glyph-name="guilsinglleft" unicode="&#x2039;" horiz-adv-x="755" 
d="M653 254l-55 -57q-48 -45 -90 0l-404 403q-22 25 -22 44.5t22 41.5l404 404q44 44 90 0l55 -58q20 -20 20 -42.5t-20 -41.5l-288 -291q-15 -15 0 -24l288 -293q43 -43 0 -86z" />
    <glyph glyph-name="guilsinglright" unicode="&#x203a;" horiz-adv-x="755" 
d="M651 600l-403 -403q-42 -45 -90 0l-56 57q-43 43 0 86l289 293q15 9 0 24l-289 291q-20 19 -20 41.5t20 42.5l56 58q46 44 90 0l403 -404q22 -22 22 -41.5t-22 -44.5z" />
    <glyph glyph-name="minus" unicode="&#x2212;" 
d="M145 551v123q0 61 62 61h815q61 0 61 -61v-123q0 -62 -61 -62h-815q-29 0 -45.5 16.5t-16.5 45.5z" />
    <glyph glyph-name="notequal" unicode="&#x2260;" horiz-adv-x="1347" 
d="M1143 737h-293l-80 -162h373q61 0 61 -61v-229q0 -62 -61 -62h-549l-92 -186q-18 -37 -72 -37h-100q-34 0 -47.5 14t-1.5 39l84 170h-160q-29 0 -45.5 16.5t-16.5 45.5v229q0 61 62 61h336l80 162h-416q-29 0 -45.5 16.5t-16.5 45.5v229q0 62 62 62h592l94 188
q18 37 72 37h100q34 0 47.5 -15t1.5 -38l-86 -172h117q61 0 61 -62v-229q0 -62 -61 -62z" />
    </font>
</defs>
</svg>
