<?xml version="1.0" standalone="no"?>
<!DOCTYPE svg PUBLIC "-//W3C//DTD SVG 1.1//EN" "http://www.w3.org/Graphics/SVG/1.1/DTD/svg11.dtd" >
<svg xmlns="http://www.w3.org/2000/svg" xmlns:xlink="http://www.w3.org/1999/xlink" version="1.1">
<metadata>
Created by FontForge 20170731 at Wed Nov  9 12:00:40 2022
 By Aleksey,,,
Copyright 2017 IBM Corp. All rights reserved.
</metadata>
<defs>
<font id="IBMPlexMono-BoldItalic" horiz-adv-x="600" >
  <font-face 
    font-family="IBM Plex Mono"
    font-weight="700"
    font-style="italic"
    font-stretch="normal"
    units-per-em="1000"
    panose-1="2 11 8 9 5 2 3 0 2 3"
    ascent="800"
    descent="-200"
    x-height="516"
    cap-height="698"
    bbox="-256 -350 713 1149"
    underline-thickness="100"
    underline-position="-250"
    slope="-9"
    unicode-range="U+000D-FB02"
  />
<missing-glyph 
d="M32 0v780h536v-780h-536zM132 100h336v580h-336v-580z" />
    <glyph glyph-name=".notdef" 
d="M32 0v780h536v-780h-536zM132 100h336v580h-336v-580z" />
    <glyph glyph-name=".null" horiz-adv-x="0" 
 />
    <glyph glyph-name=".null" horiz-adv-x="0" 
 />
    <glyph glyph-name="uni000D" unicode="&#xd;" 
 />
    <glyph glyph-name="space" unicode=" " 
 />
    <glyph glyph-name="exclam" unicode="!" 
d="M269 243l-12 252l33 203h161l-34 -203l-96 -252h-52zM256 -12q-47 0 -67.5 18.5t-20.5 44.5q0 6 1 15.5t5 32.5q5 32 30 53.5t75 21.5q47 0 67.5 -18.5t20.5 -44.5q0 -6 -1 -15.5t-5 -32.5q-5 -32 -30 -53.5t-75 -21.5z" />
    <glyph glyph-name="quotedbl" unicode="&#x22;" 
d="M151 415l54 325h130l-54 -325h-130zM374 415l54 325h130l-54 -325h-130z" />
    <glyph glyph-name="numbersign" unicode="#" 
d="M109 195h-110l18 108h129l31 92h-107l18 108h126l67 195h115l-239 -698h-115zM475 698h115l-67 -195h110l-18 -108h-129l-31 -92h107l-18 -108h-126l-67 -195h-115z" />
    <glyph glyph-name="dollar" unicode="$" 
d="M210 -7q-66 9 -116 36t-76 69l90 92q23 -33 58 -52t73 -27l32 190l-20 6q-161 47 -161 178q0 94 63.5 154t175.5 69l17 103h112l-18 -109q50 -11 89 -34.5t62 -56.5l-92 -90q-17 23 -38.5 38t-50.5 23l-29 -174l14 -4q75 -23 121 -64.5t46 -112.5q0 -49 -16 -90
t-47 -71.5t-75.5 -50t-102.5 -25.5l-17 -103h-112zM232 501q0 -27 15 -40.5t47 -24.5l24 148q-45 -8 -65.5 -31t-20.5 -52zM419 211q0 24 -15 38.5t-46 25.5l-26 -162q87 19 87 98z" />
    <glyph glyph-name="percent" unicode="%" 
d="M187 339q-66 0 -101.5 39t-35.5 107q0 50 13 91.5t37 71t58.5 46t76.5 16.5q66 0 101.5 -39t35.5 -107q0 -50 -13 -91.5t-37 -71t-58.5 -46t-76.5 -16.5zM196 425q31 0 44.5 19.5t18.5 51.5q1 7 3 17.5t4 21.5t3.5 21.5t1.5 16.5q0 51 -45 51q-31 0 -44.5 -19.5
t-18.5 -51.5q-1 -7 -3 -17.5t-4 -22t-3.5 -21.5t-1.5 -16q0 -51 45 -51zM561 698h111l-201 -300h-111zM162 300h111l-201 -300h-111zM398 -12q-66 0 -101.5 39t-35.5 107q0 50 13 91.5t37 71t58.5 46t76.5 16.5q66 0 101.5 -39t35.5 -107q0 -50 -13 -91.5t-37 -71t-58.5 -46
t-76.5 -16.5zM407 74q31 0 44.5 19.5t18.5 51.5q1 7 3 17.5t4 21.5t3.5 21.5t1.5 16.5q0 51 -45 51q-31 0 -44.5 -19.5t-18.5 -51.5q-1 -7 -3 -17.5t-4 -22t-3.5 -21.5t-1.5 -16q0 -51 45 -51z" />
    <glyph glyph-name="ampersand" unicode="&#x26;" 
d="M153 -12q-63 0 -103 46t-40 137q0 45 10.5 85.5t33.5 71t59 49.5t87 22q-11 32 -18 66t-7 66q0 37 13.5 70t39.5 57t64 38t87 14q40 0 72.5 -12.5t55.5 -35.5t36 -55.5t13 -71.5q0 -83 -51 -138.5t-145 -72.5l72 -201l17 -4l68 95l82 -59l-48 -81q-29 -49 -58 -67.5
t-69 -18.5q-20 0 -38 8t-34.5 25.5t-30 46t-23.5 69.5h-6q-8 -64 -42 -106.5t-97 -42.5zM207 115q9 0 18.5 1.5t18.5 7t17.5 16t15.5 29.5l-57 169q-20 -6 -32 -16t-19 -22.5t-10 -27.5t-4 -30q-2 -24 -2.5 -37t-0.5 -22q0 -32 15 -50t40 -18zM368 606q-34 0 -48.5 -22.5
t-14.5 -53.5q0 -32 7.5 -63.5t21.5 -70.5l3 -9q41 15 60.5 37.5t25.5 58.5q3 18 4 31.5t1 27.5q0 27 -16.5 45.5t-43.5 18.5z" />
    <glyph glyph-name="quotesingle" unicode="'" 
d="M262 415l54 325h130l-54 -325h-130z" />
    <glyph glyph-name="parenleft" unicode="(" 
d="M170 239q0 83 23 160.5t61.5 145t90 122.5t108.5 93h143q-54 -38 -101.5 -82.5t-85 -94t-63 -103.5t-34.5 -110l-16 -95q-3 -18 -4 -32t-1 -30q0 -49 13 -98.5t35 -95.5t50 -86t58 -70h-131q-30 30 -57 70t-46.5 88.5t-31 103.5t-11.5 114z" />
    <glyph glyph-name="parenright" unicode=")" 
d="M452 384q0 -83 -23 -160.5t-61.5 -145t-90 -122.5t-108.5 -93h-143q54 38 101.5 82.5t85 94t63 103.5t34.5 110l16 95q3 18 4 32t1 30q0 49 -13 98.5t-35 95.5t-50 86t-58 70h131q30 -30 57 -70t46.5 -88.5t31 -103.5t11.5 -114z" />
    <glyph glyph-name="asterisk" unicode="*" 
d="M157 40l-96 69l137 150l-158 61l55 111l158 -61l30 178h126l-30 -178l178 61l21 -114l-181 -65l88 -143l-109 -69l-88 150z" />
    <glyph glyph-name="plus" unicode="+" 
d="M205 62l31 185h-175l20 116h174l31 185h126l-31 -185h176l-20 -116h-175l-31 -185h-126z" />
    <glyph glyph-name="comma" unicode="," 
d="M211 173h187l-183 -324h-113z" />
    <glyph glyph-name="hyphen" unicode="-" 
d="M139 235l23 140h317l-23 -140h-317z" />
    <glyph glyph-name="period" unicode="." 
d="M255 -12q-50 0 -71 19.5t-21 47.5q0 15 6 51q5 32 32.5 56t82.5 24q50 0 71 -19.5t21 -47.5q0 -15 -6 -51q-5 -32 -32.5 -56t-82.5 -24z" />
    <glyph glyph-name="slash" unicode="/" 
d="M1 -138l464 898h134l-464 -898h-134z" />
    <glyph glyph-name="zero" unicode="0" 
d="M278 -12q-125 0 -183.5 71.5t-58.5 196.5q0 86 17.5 168t55.5 145.5t97.5 102t143.5 38.5q63 0 108.5 -18.5t75.5 -53t44 -84t14 -112.5q0 -86 -17.5 -168t-55.5 -145.5t-97.5 -102t-143.5 -38.5zM278 103q34 0 57.5 12t40 35t26.5 56t17 76l21 127q4 23 5.5 40t1.5 34
q0 53 -23.5 82.5t-73.5 29.5q-34 0 -57.5 -12t-40 -35t-26.5 -56t-17 -76l-21 -127q-4 -23 -5.5 -40t-1.5 -34q0 -53 23.5 -82.5t73.5 -29.5zM307 290q-31 0 -44.5 12t-13.5 30q0 10 3 28q4 23 20 35.5t49 12.5q31 0 44.5 -12t13.5 -30q0 -10 -3 -28q-4 -23 -20 -35.5
t-49 -12.5z" />
    <glyph glyph-name="one" unicode="1" 
d="M47 0l20 120h187l78 469h-9l-169 -186l-88 75l200 220h232l-96 -578h149l-20 -120h-484z" />
    <glyph glyph-name="two" unicode="2" 
d="M512 0h-500l22 136l253 187q33 24 56.5 45t39.5 40t25 38t12 39q1 5 1.5 11.5t0.5 14.5q0 31 -21.5 51t-62.5 20q-25 0 -44.5 -8t-35 -22t-27 -32t-19.5 -37l-128 50q18 37 42.5 69.5t57.5 56.5t74 37.5t92 13.5q109 0 169.5 -53.5t60.5 -141.5q0 -45 -15.5 -81
t-44 -68.5t-69.5 -64.5t-92 -69l-150 -108h324z" />
    <glyph glyph-name="three" unicode="3" 
d="M294 422q61 0 89.5 21t33.5 48q2 9 2.5 14.5t0.5 12.5q0 33 -25 52t-67 19t-79.5 -18.5t-70.5 -63.5l-82 92q23 25 49 45.5t57 35t68.5 22.5t83.5 8q52 0 93.5 -11.5t71 -33.5t45.5 -52.5t16 -68.5q0 -69 -43.5 -114.5t-120.5 -62.5l-1 -5q56 -10 90 -47t34 -100
q0 -49 -18.5 -90.5t-54.5 -72t-89 -47.5t-122 -17q-53 0 -93 11t-69.5 29.5t-49 42.5t-31.5 51l106 77q19 -40 51.5 -65t91.5 -25q53 0 83 22.5t37 63.5q1 5 1.5 12t0.5 14q0 36 -27.5 56.5t-74.5 20.5h-75l21 124h67z" />
    <glyph glyph-name="four" unicode="4" 
d="M298 0l22 134h-314l22 130l351 434h179l-75 -449h89l-19 -115h-89l-22 -134h-144zM151 249h188l47 281h-8z" />
    <glyph glyph-name="five" unicode="5" 
d="M571 569h-323l-52 -223h8q15 26 31 46.5t35.5 34.5t44.5 21.5t58 7.5q41 0 75.5 -13t60 -38t40 -61t14.5 -82q0 -51 -18.5 -100t-55.5 -88t-92.5 -62.5t-128.5 -23.5q-57 0 -98.5 11.5t-71 30t-49 43t-31.5 51.5l117 75q16 -38 49 -64t87 -26q56 0 87.5 29t39.5 74
q3 18 3 40q0 40 -25 62t-70 22q-42 0 -71 -16.5t-47 -32.5l-118 16l92 395h431z" />
    <glyph glyph-name="six" unicode="6" 
d="M274 -12q-116 0 -177 64t-61 172q0 76 27 146.5t72 131.5t102.5 111t119.5 85h211q-71 -44 -128.5 -85t-102 -83t-77 -86.5t-51.5 -95.5l8 -3q13 20 29 39t36.5 33.5t47 23.5t59.5 9q40 0 73 -14t55.5 -39t35 -60.5t12.5 -78.5q0 -53 -19 -102t-56 -86.5t-91.5 -59.5
t-124.5 -22zM285 104q51 0 82.5 26.5t39.5 76.5q3 18 3 33q0 48 -25.5 72t-73.5 24q-51 0 -82.5 -26.5t-39.5 -76.5q-3 -18 -3 -33q0 -48 25.5 -72t73.5 -24z" />
    <glyph glyph-name="seven" unicode="7" 
d="M110 0l336 577h-225l-21 -127h-126l41 248h502l-22 -129l-325 -569h-160z" />
    <glyph glyph-name="eight" unicode="8" 
d="M269 -12q-121 0 -183 49.5t-62 128.5q0 73 45 125t124 70l1 7q-44 17 -69 51.5t-25 86.5q0 37 15.5 73.5t48.5 65.5t83.5 47t119.5 18q110 0 165.5 -46t55.5 -121q0 -63 -38.5 -107.5t-106.5 -68.5l-1 -7q53 -15 83.5 -52.5t30.5 -94.5q0 -41 -18 -81.5t-54 -72.5
t-89.5 -51.5t-125.5 -19.5zM275 102q54 0 84.5 24.5t37.5 65.5q2 14 2.5 20.5t0.5 14.5q0 35 -24.5 55t-72.5 20q-54 0 -84.5 -24.5t-37.5 -65.5q-2 -14 -2.5 -20.5t-0.5 -14.5q0 -35 24.5 -55t72.5 -20zM329 411q49 0 77 22t35 63q3 18 3 31q0 32 -23.5 50.5t-68.5 18.5
q-49 0 -77 -22t-35 -63q-3 -18 -3 -31q0 -32 23.5 -50.5t68.5 -18.5z" />
    <glyph glyph-name="nine" unicode="9" 
d="M592 474q0 -76 -27 -146.5t-72 -131.5t-103 -111t-119 -85h-211q70 43 128 84.5t102.5 83.5t76.5 86.5t52 95.5l-8 3q-13 -20 -29 -39t-36.5 -33.5t-47 -23.5t-59.5 -9q-41 0 -73.5 14t-55 39t-35 60.5t-12.5 78.5q0 53 19 102t56 86.5t91 59.5t125 22q58 0 102.5 -16.5
t74.5 -47.5t45.5 -74.5t15.5 -97.5zM317 362q51 0 82.5 26.5t39.5 76.5q3 18 3 33q0 48 -25.5 72t-73.5 24q-51 0 -82.5 -26.5t-39.5 -76.5q-3 -18 -3 -33q0 -48 25.5 -72t73.5 -24z" />
    <glyph glyph-name="colon" unicode=":" 
d="M255 -12q-50 0 -71 19.5t-21 47.5q0 15 6 51q5 32 32.5 56t82.5 24q50 0 71 -19.5t21 -47.5q0 -15 -6 -51q-5 -32 -32.5 -56t-82.5 -24zM310 329q-50 0 -71 19.5t-21 47.5q0 15 6 51q5 32 32.5 56t82.5 24q50 0 71 -19.5t21 -47.5q0 -15 -6 -51q-5 -32 -32.5 -56
t-82.5 -24z" />
    <glyph glyph-name="semicolon" unicode=";" 
d="M211 173h187l-183 -324h-113zM310 329q-50 0 -71 19.5t-21 47.5q0 15 6 51q5 32 32.5 56t82.5 24q50 0 71 -19.5t21 -47.5q0 -15 -6 -51q-5 -32 -32.5 -56t-82.5 -24z" />
    <glyph glyph-name="less" unicode="&#x3c;" 
d="M81 237l23 138l468 229l-24 -143l-323 -157l-1 -8l271 -158l-22 -131z" />
    <glyph glyph-name="equal" unicode="=" 
d="M80 362l20 116h476l-20 -116h-476zM42 132l20 116h476l-20 -116h-476z" />
    <glyph glyph-name="greater" unicode="&#x3e;" 
d="M69 151l324 157l1 8l-272 157l22 131l393 -229l-23 -138l-469 -231z" />
    <glyph glyph-name="question" unicode="?" 
d="M198 234l25 152q85 4 130 27t54 77q2 9 2 17.5v10.5q0 34 -23.5 51t-57.5 17q-38 0 -65 -23t-43 -61l-114 53q13 32 34.5 60t51.5 49t69 33.5t89 12.5q101 0 158.5 -50t57.5 -136q0 -46 -16.5 -83.5t-45 -65.5t-67 -46t-81.5 -24l-12 -71h-146zM237 -12q-47 0 -67.5 18.5
t-20.5 44.5q0 6 1 15.5t5 32.5q5 32 30 53.5t75 21.5q47 0 67.5 -18.5t20.5 -44.5q0 -6 -1 -15.5t-5 -32.5q-5 -32 -30 -53.5t-75 -21.5z" />
    <glyph glyph-name="at" unicode="@" 
d="M404 -113h-119q-134 0 -192 71.5t-58 211.5q0 47 5.5 98.5t13.5 97.5q13 72 37 134.5t62 109t91.5 73.5t127.5 27q54 0 95 -15t68 -42t40.5 -65t13.5 -83q0 -11 -1 -23.5t-3 -26.5l-61 -364h-113l14 82h-4q-19 -41 -43.5 -67t-63.5 -26q-57 0 -80.5 40t-23.5 114
q0 59 11.5 109t33 87t52 57.5t67.5 20.5q38 0 61 -21.5t28 -58.5h4l6 35q2 13 3 25t1 21q0 59 -29.5 83t-81.5 24q-35 0 -64.5 -11.5t-54 -40.5t-43.5 -79t-32 -127l-21 -126q-4 -23 -5 -45.5t-1 -39.5q0 -80 35 -122.5t117 -42.5h122zM361 172q16 0 28 8.5t21 19.5
q8 11 18 31t15 49l14 85q4 24 -8 41t-39 17q-32 0 -49 -25t-25 -70l-8 -48q-1 -6 -1.5 -14t-1 -16.5t-0.5 -15.5v-11q0 -51 36 -51z" />
    <glyph glyph-name="A" unicode="A" 
d="M400 0l-17 169h-196l-69 -169h-155l307 698h206l76 -698h-152zM356 553h-9l-110 -264h140z" />
    <glyph glyph-name="B" unicode="B" 
d="M152 698h237q91 0 139 -44t48 -117q0 -146 -145 -182l-1 -5q55 -11 84.5 -44t29.5 -89q0 -49 -16.5 -89t-47.5 -68.5t-75.5 -44t-99.5 -15.5h-270zM273 104q50 0 79 17t36 58l4 24q2 9 3.5 19t1.5 16q0 35 -20 50t-65 15h-82l-33 -199h76zM304 402q53 0 80 15.5t35 60.5
l4 24q1 5 2 14.5t1 16.5q0 34 -21.5 47.5t-61.5 13.5h-64l-32 -192h57z" />
    <glyph glyph-name="C" unicode="C" 
d="M290 -12q-123 0 -181.5 70.5t-58.5 195.5q0 102 23 186t65 144t101.5 93t133.5 33q58 0 100.5 -15t70.5 -42t42.5 -65t17.5 -83l-143 -29q-2 25 -6.5 46t-15 36t-28 23.5t-44.5 8.5q-62 0 -95 -49t-47 -133l-18 -109q-3 -18 -5.5 -36t-2.5 -42q0 -53 23 -83t78 -30
q24 0 44 9.5t36 25.5t29 37.5t23 46.5l127 -38q-41 -98 -104.5 -149.5t-164.5 -51.5z" />
    <glyph glyph-name="D" unicode="D" 
d="M142 698h205q118 0 179.5 -66t61.5 -191q0 -103 -22 -185t-64.5 -139t-105.5 -87t-144 -30h-227zM255 117q67 0 105 38.5t52 119.5l21 126q3 18 4.5 36t1.5 32q0 112 -105 112h-65l-77 -464h63z" />
    <glyph glyph-name="E" unicode="E" 
d="M38 0l117 698h446l-20 -122h-300l-27 -162h286l-20 -122h-287l-28 -170h299l-20 -122h-446z" />
    <glyph glyph-name="F" unicode="F" 
d="M38 0l117 698h462l-20 -122h-316l-27 -162h282l-20 -122h-282l-49 -292h-147z" />
    <glyph glyph-name="G" unicode="G" 
d="M390 101h-9q-13 -23 -27 -43.5t-31.5 -36t-40 -24.5t-52.5 -9q-86 0 -135.5 65t-49.5 192q0 99 20.5 184.5t61 147.5t101 97.5t140.5 35.5q54 0 94 -15t67 -42.5t42 -65.5t18 -83l-143 -28q-2 22 -6.5 43t-15 36.5t-27 25t-42.5 9.5q-57 0 -88.5 -48t-45.5 -129l-17 -102
q-3 -18 -5.5 -42.5t-2.5 -44.5q0 -53 22.5 -84.5t70.5 -31.5q53 0 83 33t38 78l8 48h-123l17 105h254l-62 -372h-131z" />
    <glyph glyph-name="H" unicode="H" 
d="M397 293h-180l-49 -293h-148l116 698h148l-47 -284h180l47 284h148l-116 -698h-148z" />
    <glyph glyph-name="I" unicode="I" 
d="M32 0l18 110h151l80 478h-151l18 110h450l-18 -110h-151l-80 -478h151l-18 -110h-450z" />
    <glyph glyph-name="J" unicode="J" 
d="M583 698l-83 -496q-36 -214 -257 -214q-105 0 -158.5 54.5t-55.5 142.5l139 26q2 -44 20 -73.5t66 -29.5q40 0 65.5 24t33.5 74l62 370h-234l20 122h382z" />
    <glyph glyph-name="K" unicode="K" 
d="M289 282l-82 -91l-32 -191h-148l116 698h148l-50 -299h8l112 137l132 162h174l-260 -310l155 -388h-164z" />
    <glyph glyph-name="L" unicode="L" 
d="M51 0l116 698h148l-96 -576h302l-20 -122h-450z" />
    <glyph glyph-name="M" unicode="M" 
d="M442 311l40 197h-9l-191 -359l-70 359h-9l-25 -197l-52 -311h-128l117 698h169l48 -237h9l126 237h168l-117 -698h-128z" />
    <glyph glyph-name="N" unicode="N" 
d="M237 468h-10l-78 -468h-129l116 698h178l81 -468h10l78 468h129l-116 -698h-178z" />
    <glyph glyph-name="O" unicode="O" 
d="M279 -12q-63 0 -109 18t-76 52t-44 83t-14 110q0 89 17.5 172t55.5 146.5t97.5 102t142.5 38.5q63 0 109 -18t76 -52t44 -83t14 -110q0 -89 -17.5 -172t-55.5 -146.5t-97.5 -102t-142.5 -38.5zM279 108q63 0 92.5 47t43.5 133l20 120q6 36 6 72q0 52 -22 81t-70 29
q-63 0 -92.5 -47t-43.5 -133l-20 -120q-6 -36 -6 -72q0 -52 22 -81t70 -29z" />
    <glyph glyph-name="P" unicode="P" 
d="M37 0l117 698h252q46 0 81.5 -13.5t59.5 -38.5t36.5 -59t12.5 -74q0 -60 -17.5 -107.5t-50 -80.5t-78.5 -51t-103 -18h-119l-43 -256h-148zM248 376h78q51 0 76 19t33 64l5 30q1 5 1.5 12t0.5 15q0 34 -18.5 48.5t-63.5 14.5h-78z" />
    <glyph glyph-name="Q" unicode="Q" 
d="M406 -205q-38 0 -59.5 17.5t-38.5 41.5l-93 140q-93 17 -136 84t-43 173q0 89 17.5 172t55.5 146.5t97.5 102t142.5 38.5q63 0 109 -18t76 -52t44 -83t14 -110q0 -78 -13.5 -151t-42 -133.5t-73 -104t-106.5 -60.5l54 -82l16 -4l85 84l76 -69l-48 -53
q-22 -24 -39.5 -39.5t-33 -24.5t-30 -12t-31.5 -3zM279 108q63 0 92.5 47t43.5 133l20 120q6 36 6 72q0 52 -22 81t-70 29q-63 0 -92.5 -47t-43.5 -133l-20 -120q-6 -36 -6 -72q0 -52 22 -81t70 -29z" />
    <glyph glyph-name="R" unicode="R" 
d="M181 0h-146l117 698h252q46 0 81.5 -13.5t59.5 -38t36.5 -58.5t12.5 -76q0 -93 -44.5 -154t-122.5 -83l95 -275h-156l-77 260h-64zM324 376q54 0 78 18t31 62l4 24q3 18 3 33q0 35 -21 50.5t-58 15.5h-83l-34 -203h80z" />
    <glyph glyph-name="S" unicode="S" 
d="M268 -12q-87 0 -155.5 28t-100.5 79l93 94q31 -40 78 -59.5t94 -19.5q57 0 86.5 27.5t29.5 75.5q0 35 -19.5 51.5t-61.5 26.5l-69 16q-76 17 -110.5 63.5t-34.5 111.5q0 52 18.5 94t53.5 72t85 46t112 16q75 0 136 -26t91 -72l-97 -89q-23 32 -57.5 49.5t-79.5 17.5
q-55 0 -82 -25t-27 -67q0 -30 18.5 -46t65.5 -28l66 -17q146 -37 146 -177q0 -54 -18.5 -98.5t-54.5 -76.5t-88 -49.5t-118 -17.5z" />
    <glyph glyph-name="T" unicode="T" 
d="M427 576l-96 -576h-148l96 576h-202l20 122h552l-20 -122h-202z" />
    <glyph glyph-name="U" unicode="U" 
d="M275 698l-73 -438q-5 -27 -6.5 -45t-1.5 -29q0 -38 18.5 -58t64.5 -20q33 0 54 10.5t33.5 29.5t19.5 46t13 61l74 443h147l-71 -426q-12 -70 -28.5 -123t-47 -89t-79 -54t-123.5 -18q-62 0 -104.5 13.5t-68 38t-36.5 59t-11 77.5q0 26 3 54.5t8 60.5l68 407h147z" />
    <glyph glyph-name="V" unicode="V" 
d="M152 0l-67 698h158l24 -351l9 -205h9l78 205l136 351h162l-298 -698h-211z" />
    <glyph glyph-name="W" unicode="W" 
d="M10 0l74 698h127l-48 -418l-17 -144h9l127 410h135l-6 -410h9l27 138l93 424h121l-159 -698h-190l15 386h-10l-117 -386h-190z" />
    <glyph glyph-name="X" unicode="X" 
d="M550 0h-165l-49 139l-34 110h-9l-66 -110l-97 -139h-163l256 361l-129 337h166l39 -111l33 -112h8l70 112l78 111h162l-237 -339z" />
    <glyph glyph-name="Y" unicode="Y" 
d="M184 0l41 246l-147 452h158l49 -164l31 -137h9l78 137l100 164h165l-295 -449l-41 -249h-148z" />
    <glyph glyph-name="Z" unicode="Z" 
d="M507 0h-499l22 130l387 446h-304l20 122h479l-21 -130l-387 -446h323z" />
    <glyph glyph-name="bracketleft" unicode="[" 
d="M118 -138l150 898h320l-16 -98h-203l-117 -702h203l-17 -98h-320z" />
    <glyph glyph-name="backslash" unicode="\" 
d="M330 -138l-169 898h119l169 -898h-119z" />
    <glyph glyph-name="bracketright" unicode="]" 
d="M501 760l-150 -898h-320l16 98h203l117 702h-203l17 98h320z" />
    <glyph glyph-name="asciicircum" unicode="^" 
d="M459 256l-106 306h-11l-198 -310l-110 52l255 394h156l133 -394z" />
    <glyph glyph-name="underscore" unicode="_" 
d="M-12 -191l20 119h475l-20 -119h-475z" />
    <glyph glyph-name="grave" unicode="`" 
d="M179 747l124 59l77 -196l-87 -39z" />
    <glyph glyph-name="a" unicode="a" 
d="M181 -12q-41 0 -68 14.5t-44 41t-24 64.5t-7 85q0 75 16 136.5t46 105.5t73.5 68.5t97.5 24.5q59 0 87.5 -28.5t39.5 -79.5h7l16 96h146l-68 -409h53l-18 -107h-75q-57 0 -85.5 28t-20.5 82l2 13h-5q-15 -30 -30.5 -54.5t-35 -42.5t-44.5 -28t-59 -10zM247 101
q26 0 47 13t38 35q11 14 25 40t19 58l14 83q7 41 -9.5 63t-63.5 22q-55 0 -81 -31.5t-36 -90.5l-10 -60q-2 -9 -3 -20.5t-1 -25.5q0 -36 13 -61t48 -25z" />
    <glyph glyph-name="b" unicode="b" 
d="M144 740h146l-57 -347h5q15 30 31.5 54.5t37 42.5t46 28t58.5 10q41 0 69.5 -14t46.5 -40.5t26.5 -63.5t8.5 -82q0 -77 -17 -139.5t-48 -107t-74.5 -69t-97.5 -24.5q-61 0 -92.5 28.5t-42.5 79.5h-7l-16 -96h-146zM278 101q54 0 83 31.5t39 90.5l10 60q2 9 3 20.5t1 24.5
q-1 37 -15.5 62t-52.5 25q-27 0 -48 -13t-39 -36q-12 -14 -27 -39.5t-20 -57.5l-14 -83q-7 -41 12.5 -63t67.5 -22z" />
    <glyph glyph-name="c" unicode="c" 
d="M273 -12q-106 0 -161 57t-55 161q0 66 19 124.5t55 102.5t89.5 69.5t122.5 25.5q89 0 136 -36t64 -95l-119 -56q-11 32 -30 51t-63 19q-43 0 -72.5 -28t-38.5 -82l-10 -60q-2 -9 -3 -22t-1 -25q0 -40 20.5 -64.5t70.5 -24.5q16 0 30 3.5t30.5 15.5t37 33.5t47.5 57.5
l91 -59q-26 -41 -52 -72t-57 -52.5t-68 -32.5t-83 -11z" />
    <glyph glyph-name="d" unicode="d" 
d="M367 123h-5q-15 -30 -31.5 -54.5t-37 -42.5t-46 -28t-58.5 -10q-41 0 -69.5 14t-46.5 40.5t-26.5 63.5t-8.5 82q0 77 17 139.5t48 107t74.5 69t97.5 24.5q61 0 92.5 -28.5t42.5 -79.5h7l53 320h146l-123 -740h-146zM254 101q27 0 48 13t39 36q12 14 27 39.5t20 57.5
l14 83q7 41 -12.5 63t-67.5 22q-54 0 -83 -31.5t-39 -90.5l-10 -60q-2 -9 -3 -20.5t-1 -24.5q1 -37 15.5 -62t52.5 -25z" />
    <glyph glyph-name="e" unicode="e" 
d="M281 -12q-115 0 -170 58.5t-55 161.5q0 72 22 131t61.5 101t95.5 65t125 23q39 0 73.5 -9t60.5 -26.5t41 -44t15 -62.5q0 -31 -13 -62t-50.5 -56.5t-106 -43t-178.5 -21.5q-1 -6 -1 -9.5v-7.5q0 -42 23 -64t76 -22q21 0 38.5 4t34 14.5t33 27t36.5 42.5l91 -59
q-20 -29 -43.5 -54.5t-53.5 -45t-68 -30.5t-87 -11zM345 425q-48 0 -82 -28.5t-48 -95.5l-3 -14q69 4 108.5 13t59 21t24.5 26t5 26q0 52 -64 52z" />
    <glyph glyph-name="f" unicode="f" 
d="M173 -212q-27 0 -49 9t-41 25t-37 38.5t-37 50.5l-41 59l100 69l103 -136l12 5l82 494h-163l19 114h163l13 78q11 65 54 105.5t124 40.5h178l-19 -114h-186l-18 -110h186l-19 -114h-187l-76 -455q-14 -84 -56 -121.5t-105 -37.5z" />
    <glyph glyph-name="g" unicode="g" 
d="M224 -212q-72 0 -122 15t-89 61l87 90q24 -29 54.5 -41t65.5 -12q28 0 50 6t39.5 23t29.5 47t20 77l15 89h-6q-14 -30 -30.5 -54.5t-36.5 -42.5t-46 -28t-59 -10q-42 0 -71 15t-48 42t-27.5 63.5t-8.5 79.5q0 70 16 129t46.5 101.5t74 66t97.5 23.5q63 0 94 -28.5
t42 -79.5h8l16 96h146l-80 -480q-21 -126 -91.5 -187t-185.5 -61zM260 122q27 0 47 12.5t38 33.5q12 14 27.5 38t21.5 60l11 67q6 36 -12.5 59t-67.5 23q-56 0 -85 -34t-38 -88l-7 -42q-2 -9 -3 -21t-1 -28q0 -33 15.5 -56.5t53.5 -23.5z" />
    <glyph glyph-name="h" unicode="h" 
d="M148 740h146l-57 -347h5q29 63 67.5 99t100.5 36q38 0 64.5 -12t43.5 -32.5t25 -47.5t8 -57q0 -22 -2.5 -45t-8.5 -59l-46 -275h-146l49 293q2 14 4.5 28.5t2.5 33.5q0 10 -3 21t-10 20t-18.5 14.5t-28.5 5.5q-26 0 -45 -12t-36 -35q-11 -15 -26.5 -41.5t-20.5 -58.5
l-45 -269h-146z" />
    <glyph glyph-name="i" unicode="i" 
d="M339 584q-45 0 -63.5 17.5t-18.5 43.5q0 5 1 13.5t4 26.5q5 32 27 49t67 17t63.5 -17.5t18.5 -43.5q0 -5 -1 -13.5t-4 -26.5q-5 -32 -27 -49t-67 -17zM298 -12q-62 0 -93 32.5t-31 87.5q0 17 2 33t8 47l40 214h-156l19 114h304l-77 -410l17 -5l140 143l80 -71l-61 -70
q-51 -57 -95.5 -86t-96.5 -29z" />
    <glyph glyph-name="j" unicode="j" 
d="M216 -212q-30 0 -53 9.5t-43.5 28.5t-40.5 46t-43 63l-32 50l100 69l113 -155l13 5l83 498h-189l19 114h335l-92 -553q-16 -94 -57 -134.5t-113 -40.5zM422 584q-45 0 -63.5 17.5t-18.5 43.5q0 5 1 13.5t4 26.5q5 32 27 49t67 17t63.5 -17.5t18.5 -43.5q0 -5 -1 -13.5
t-4 -26.5q-5 -32 -27 -49t-67 -17z" />
    <glyph glyph-name="k" unicode="k" 
d="M147 740h146l-57 -347h6q26 58 69 96.5t109 38.5q64 0 99 -35.5t35 -86.5q0 -72 -45 -117t-132 -71l42 -110l15 -3l82 80l70 -69l-52 -56q-32 -35 -66 -53.5t-74 -18.5q-48 0 -75 27t-44 75l-50 137q90 26 136.5 56t46.5 78q0 26 -17.5 42t-49.5 16q-19 0 -38 -9.5
t-42 -38.5q-15 -19 -27.5 -42.5t-18.5 -59.5l-45 -269h-146z" />
    <glyph glyph-name="l" unicode="l" 
d="M270 -12q-62 0 -92 32.5t-30 87.5q0 17 2 33t8 47l81 438h-152l19 114h299l-117 -634l15 -5l140 143l80 -71l-61 -70q-51 -57 -95.5 -86t-96.5 -29z" />
    <glyph glyph-name="m" unicode="m" 
d="M-12 0l86 516h118l-15 -90h6q17 45 45 73.5t69 28.5q40 0 61.5 -25.5t16.5 -76.5h5q9 22 21 40.5t27 32t33.5 21.5t42.5 8q88 0 88 -96q0 -17 -2 -37.5t-5 -38.5l-59 -356h-118l57 341q2 9 3 20t1 21q0 18 -7.5 28.5t-21.5 10.5q-13 0 -24.5 -6.5t-22.5 -25.5
q-9 -15 -14.5 -32.5t-10.5 -44.5l-52 -312h-118l57 341q2 9 3 20t1 22q0 38 -29 38q-11 0 -22.5 -6t-23.5 -26q-11 -17 -16.5 -34t-7.5 -31l-54 -324h-118z" />
    <glyph glyph-name="n" unicode="n" 
d="M25 0l86 516h146l-20 -123h5q29 63 67.5 99t100.5 36q38 0 64.5 -12t43.5 -32.5t25 -47.5t8 -57q0 -22 -2.5 -45t-8.5 -59l-46 -275h-146l49 293q2 14 4.5 28.5t2.5 33.5q0 10 -3 21t-10 20t-18.5 14.5t-28.5 5.5q-26 0 -45 -12t-36 -35q-11 -15 -26.5 -41.5t-20.5 -58.5
l-45 -269h-146z" />
    <glyph glyph-name="o" unicode="o" 
d="M265 -12q-106 0 -164 59.5t-58 162.5q0 74 21.5 133t60 100t92 63t118.5 22q106 0 164 -59.5t58 -162.5q0 -74 -21.5 -133t-60 -100t-92 -63t-118.5 -22zM276 97q48 0 78.5 29t39.5 83l13 78q2 9 3.5 20.5t1.5 20.5q0 46 -23.5 68.5t-64.5 22.5q-48 0 -78.5 -29
t-39.5 -83l-13 -78q-2 -9 -3.5 -20.5t-1.5 -20.5q0 -46 23.5 -68.5t64.5 -22.5z" />
    <glyph glyph-name="p" unicode="p" 
d="M107 516h146l-20 -123h5q15 30 31.5 54.5t37 42.5t46 28t58.5 10q41 0 69.5 -14t46.5 -40.5t26.5 -63.5t8.5 -82q0 -77 -17 -139.5t-48 -107t-74.5 -69t-97.5 -24.5q-61 0 -92.5 28.5t-42.5 79.5h-7l-50 -296h-146zM278 101q54 0 83 31.5t39 90.5l10 60q2 9 3 20.5
t1 24.5q-1 37 -15.5 62t-52.5 25q-27 0 -48 -13t-39 -36q-12 -14 -27 -39.5t-20 -57.5l-14 -83q-7 -41 12.5 -63t67.5 -22z" />
    <glyph glyph-name="q" unicode="q" 
d="M367 123h-5q-15 -30 -31.5 -54.5t-37 -42.5t-46 -28t-58.5 -10q-41 0 -69.5 14t-46.5 40.5t-26.5 63.5t-8.5 82q0 77 17 139.5t48 107t74.5 69t97.5 24.5q61 0 92.5 -28.5t42.5 -79.5h7l16 96h146l-119 -716h-146zM254 101q27 0 48 13t39 36q12 14 27 39.5t20 57.5l14 83
q7 41 -12.5 63t-67.5 22q-54 0 -83 -31.5t-39 -90.5l-10 -60q-2 -9 -3 -20.5t-1 -24.5q1 -37 15.5 -62t52.5 -25z" />
    <glyph glyph-name="r" unicode="r" 
d="M146 0l67 402h-118l19 114h264l-27 -156h6q32 74 81 115t125 41h34l-26 -146h-91q-41 0 -65.5 -11t-42.5 -34q-10 -12 -23 -37t-18 -52l-39 -236h-146z" />
    <glyph glyph-name="s" unicode="s" 
d="M258 -12q-78 0 -134.5 21.5t-82.5 62.5l82 81q22 -31 60.5 -46.5t84.5 -15.5q45 0 71.5 14.5t26.5 42.5q0 21 -15 30.5t-38 14.5l-74 16q-29 6 -54.5 16t-44.5 26.5t-29.5 40.5t-10.5 58q0 43 17.5 76.5t49 56t74.5 34t93 11.5q69 0 124 -19.5t81 -53.5l-80 -82
q-17 22 -51 37t-78 15q-39 0 -62.5 -14t-23.5 -42q0 -21 13.5 -29.5t37.5 -13.5l77 -17q65 -14 102 -45t37 -94q0 -43 -18 -76.5t-51 -57t-79.5 -36t-104.5 -12.5z" />
    <glyph glyph-name="t" unicode="t" 
d="M278 -12q-66 0 -96.5 35t-30.5 93q0 14 1.5 28.5t5.5 37.5l37 220h-132l19 114h83q32 0 48.5 13t21.5 47l20 122h136l-30 -182h202l-19 -114h-202l-48 -288l20 -7l156 123l72 -82l-60 -52q-32 -27 -58 -47.5t-49.5 -34t-46.5 -20t-50 -6.5z" />
    <glyph glyph-name="u" unicode="u" 
d="M362 123h-5q-29 -63 -67.5 -99t-100.5 -36q-38 0 -64.5 12t-43.5 32.5t-25 47.5t-8 57q0 22 2.5 45t8.5 59l46 275h146l-49 -292q-2 -14 -4.5 -29t-2.5 -34q0 -10 3 -21t10 -20t18.5 -14.5t28.5 -5.5q26 0 45 12t36 35q11 15 26.5 41.5t20.5 58.5l45 269h146l-86 -516
h-146z" />
    <glyph glyph-name="v" unicode="v" 
d="M286 516l-65 -420l12 -8q48 17 81 45t53.5 62.5t29.5 74t9 80.5q0 34 -9 67.5t-25 62.5l130 48q26 -32 38.5 -77.5t12.5 -100.5q0 -77 -29 -143t-77 -114.5t-109.5 -76.5t-126.5 -28q-64 0 -95.5 33t-31.5 90q0 17 1.5 29.5t4.5 31.5l35 230h-89l19 114h231z" />
    <glyph glyph-name="w" unicode="w" 
d="M108 -12q-50 0 -72.5 30t-22.5 79q0 14 2.5 42.5t6.5 52.5l54 324h118l-61 -329q-2 -8 -3 -22t-1 -23q0 -16 7 -25.5t24 -9.5q15 0 27.5 10.5t23.5 28.5q7 11 12.5 27t7.5 33l48 310h113l-54 -334q-2 -8 -3.5 -22t-1.5 -21q0 -14 6.5 -25t23.5 -11q18 0 36 22t31.5 58.5
t22 84t8.5 98.5q0 35 -4.5 69t-13.5 59l102 30q15 -28 24.5 -68t9.5 -91q0 -90 -23.5 -166t-64.5 -127q-32 -41 -72 -62.5t-82 -21.5q-27 0 -45.5 9t-30 24t-16 35t-3.5 42h-7q-36 -110 -127 -110z" />
    <glyph glyph-name="x" unicode="x" 
d="M106 -12q-51 0 -80.5 36t-29.5 105q0 18 0.5 26.5t1.5 17.5l116 14v-11q0 -43 7.5 -62.5t28.5 -19.5q17 0 30 14.5t23 38t17 53t11 60.5t6 60.5t2 52.5q0 12 -0.5 22.5t-1.5 21.5l-12 5l-131 -91l-61 81l71 53q38 29 72 46t71 17q54 0 80 -36t26 -102v-15h7q22 83 55 118
t82 35t78.5 -38t29.5 -100v-27t-1 -20l-116 -14v16q0 38 -8.5 57.5t-28.5 19.5q-26 0 -42.5 -28.5t-26.5 -70t-14 -89t-4 -85.5q0 -14 0.5 -26t1.5 -23l12 -6l134 93l61 -77l-51 -45q-46 -41 -86 -59t-77 -18q-48 0 -77 35.5t-29 115.5h-7q-21 -82 -55.5 -116.5t-84.5 -34.5
z" />
    <glyph glyph-name="y" unicode="y" 
d="M217 -212q-72 0 -122 15t-89 61l87 90q24 -29 54.5 -41t65.5 -12q28 0 50 6.5t39 23.5t29 46.5t20 76.5l14 86h-5q-29 -63 -67.5 -99t-100.5 -36q-38 0 -64.5 12t-43.5 32.5t-25 47.5t-8 57q0 22 2.5 45t8.5 59l43 258h146l-46 -275q-2 -14 -4.5 -29t-2.5 -34
q0 -10 3 -21t10 -20t18.5 -14.5t28.5 -5.5q26 0 45 12t36 35q11 15 26.5 41.5t20.5 58.5l42 252h146l-80 -480q-21 -126 -91.5 -187t-185.5 -61z" />
    <glyph glyph-name="z" unicode="z" 
d="M414 -12q-36 0 -74.5 7.5t-79.5 28.5l-101 52l-4 -3l-12 -73h-125l20 120l320 254q-29 23 -54 32t-57 9q-26 0 -45 -16.5t-19 -59.5h-108v9q0 87 44 133.5t119 46.5q47 0 96.5 -18t101.5 -70l2 -2l6 5l12 73h125l-20 -120l-324 -258l196 -37l11 13l-30 88l85 37l15 -27
q17 -29 23.5 -52t6.5 -46q0 -24 -9 -47t-25.5 -40.5t-41 -28t-54.5 -10.5z" />
    <glyph glyph-name="braceleft" unicode="{" 
d="M115 360h89q57 0 87.5 16.5t30.5 48.5q0 25 -20 55q-14 21 -25.5 43t-11.5 56q0 5 1.5 15.5t3 22t3 21.5t2.5 15q8 48 41.5 77.5t100.5 29.5h177l-17 -98h-183q-6 -36 -8 -50.5t-2 -22.5q0 -25 6.5 -39.5t18.5 -34.5q11 -18 21 -39t10 -47q0 -47 -32.5 -76.5
t-101.5 -37.5l-2 -8q102 -12 102 -85q0 -18 -6 -34t-15 -29.5t-20.5 -26.5t-23.5 -25q-19 -20 -34.5 -40t-21.5 -58l-8 -49h183l-16 -98h-176q-59 0 -84 23t-25 60q0 6 1.5 20.5t8.5 49.5q5 25 13.5 44t19 34t21.5 26.5t22 22.5q26 26 34 41t8 30q0 49 -99 49h-89z" />
    <glyph glyph-name="bar" unicode="|" 
d="M173 -138l150 898h124l-150 -898h-124z" />
    <glyph glyph-name="braceright" unicode="}" 
d="M414 262q-57 0 -87.5 -16.5t-30.5 -48.5q0 -25 20 -55q14 -21 25.5 -43t11.5 -56q0 -5 -1.5 -15.5t-3 -22t-3 -22t-2.5 -14.5q-8 -48 -41.5 -77.5t-100.5 -29.5h-177l17 98h183q6 36 8 50.5t2 22.5q0 25 -6.5 39.5t-18.5 34.5q-11 18 -21 39t-10 47q0 47 32.5 76.5
t101.5 37.5l2 8q-102 12 -102 85q0 18 6 34t15 29.5t20.5 26.5t23.5 25q19 20 34.5 40t21.5 58l8 49h-183l16 98h176q59 0 84 -23t25 -60q0 -6 -1.5 -20.5t-8.5 -49.5q-5 -25 -13.5 -44t-19 -34t-22 -27t-21.5 -22q-26 -26 -34 -41t-8 -30q0 -49 99 -49h89l-16 -98h-89z" />
    <glyph glyph-name="asciitilde" unicode="~" 
d="M394 173q-40 0 -71.5 17t-54.5 55q-21 35 -33 51.5t-32 16.5q-45 0 -81 -128l-103 21q11 50 28.5 91.5t42 72.5t56 48.5t67.5 17.5q40 0 71.5 -17t54.5 -55q21 -35 33 -51.5t32 -16.5q45 0 81 128l103 -21q-11 -50 -28.5 -91.5t-42 -72.5t-56 -48.5t-67.5 -17.5z" />
    <glyph glyph-name="uni00A0" unicode="&#xa0;" 
 />
    <glyph glyph-name="exclamdown" unicode="&#xa1;" 
d="M143 -182l34 203l96 253h53l12 -253l-34 -203h-161zM315 342q-47 0 -67.5 18.5t-20.5 44.5q0 6 1 15.5t5 32.5q5 32 30 53.5t75 21.5q47 0 67.5 -18.5t20.5 -44.5q0 -6 -1 -15.5t-5 -32.5q-5 -32 -30 -53.5t-75 -21.5z" />
    <glyph glyph-name="cent" unicode="&#xa2;" 
d="M216 -6q-78 17 -118.5 70.5t-40.5 141.5q0 61 16.5 116t48 98t77.5 71t106 35l17 104h112l-18 -109q57 -13 91.5 -45t47.5 -77l-111 -46q-8 22 -20 37.5t-35 23.5l-52 -314q21 7 45.5 27.5t60.5 68.5l86 -52q-41 -66 -87.5 -104.5t-114.5 -48.5l-17 -105h-112zM197 194
q0 -32 11 -55t36 -34l52 311q-34 -11 -56 -40t-29 -74l-10 -62q-2 -12 -3 -23t-1 -23z" />
    <glyph glyph-name="sterling" unicode="&#xa3;" 
d="M472 -12q-35 0 -73.5 9.5t-81.5 26.5l-152 58l-12 -82h-125l22 141q50 20 79 52.5t29 84.5v9t-1 9h-107l17 101h74q-3 17 -5.5 36.5t-2.5 39.5q0 52 20.5 96t55.5 75t83 48.5t102 17.5q77 0 130.5 -33t85.5 -94l-114 -71q-17 34 -42.5 52.5t-63.5 18.5q-50 0 -82 -29.5
t-32 -88.5q0 -18 2.5 -34.5t6.5 -33.5h177l-17 -101h-141v-8q0 -39 -25.5 -61.5t-57.5 -31.5l-4 -7l237 -74l11 13l-17 89l99 26l10 -30q11 -35 16 -57t5 -46q0 -23 -7 -45t-20.5 -39t-33.5 -27t-45 -10z" />
    <glyph glyph-name="currency" unicode="&#xa4;" 
d="M286 107q-53 0 -93 15l-81 -106l-94 61l87 115q-15 23 -23 51t-8 63q0 11 1 23.5t3 26.5q8 53 27.5 93t47.5 69l-46 107l104 57l44 -103q40 12 90 12q52 0 93 -15l81 106l94 -61l-87 -115q15 -23 23 -51t8 -63q0 -11 -1 -23.5t-3 -26.5q-8 -53 -27.5 -93t-47.5 -69
l46 -107l-104 -57l-44 103q-41 -12 -90 -12zM293 212q42 0 71.5 29t37.5 80l9 54q3 16 3 31q0 38 -20 59t-56 21q-42 0 -71.5 -29t-37.5 -80l-9 -54q-3 -17 -3 -31q0 -38 20 -59t56 -21z" />
    <glyph glyph-name="yen" unicode="&#xa5;" 
d="M38 112h169l16 100h-168l19 112h127l-126 374h150l89 -307h8l192 307h159l-250 -374h128l-19 -112h-169l-16 -100h169l-19 -112h-478z" />
    <glyph glyph-name="brokenbar" unicode="&#xa6;" 
d="M263 400l60 360h124l-60 -360h-124zM173 -138l60 359h124l-60 -359h-124z" />
    <glyph glyph-name="section" unicode="&#xa7;" 
d="M464 14q0 -42 -14.5 -76.5t-43 -60t-70.5 -39.5t-97 -14q-58 0 -114.5 17t-93.5 55l78 88q22 -26 57.5 -40.5t73.5 -14.5q39 0 68 18t29 48q0 22 -15 37.5t-63 32.5l-72 25q-68 23 -100 56.5t-32 74.5q0 60 34 98t108 57l2 13q-36 27 -52.5 61t-16.5 70q0 42 14.5 76.5
t43 60t70.5 39.5t97 14q58 0 114.5 -17t93.5 -55l-78 -88q-22 26 -57.5 40.5t-73.5 14.5q-39 0 -68 -18t-29 -48q0 -22 15 -37.5t63 -32.5l72 -25q68 -23 100 -56.5t32 -74.5q0 -60 -34 -98t-108 -57l-2 -13q36 -27 52.5 -61t16.5 -70zM410 255q0 22 -15 44t-56 35l-73 23
q-10 3 -22 8q-35 -23 -47.5 -42t-12.5 -44q0 -22 15 -44t56 -35l73 -23q10 -3 22 -8q35 23 47.5 42t12.5 44z" />
    <glyph glyph-name="dieresis" unicode="&#xa8;" 
d="M208 592q-41 0 -57.5 15.5t-16.5 38.5q0 5 1.5 13t3.5 22q5 27 23 43.5t62 16.5q41 0 57.5 -15.5t16.5 -38.5q0 -5 -1.5 -13t-3.5 -22q-5 -27 -23 -43.5t-62 -16.5zM426 592q-41 0 -57.5 15.5t-16.5 38.5q0 5 1.5 13t3.5 22q5 27 23 43.5t62 16.5q41 0 57.5 -15.5
t16.5 -38.5q0 -5 -1.5 -13t-3.5 -22q-5 -27 -23 -43.5t-62 -16.5z" />
    <glyph glyph-name="copyright" unicode="&#xa9;" 
d="M271 18q-57 0 -105 19.5t-82.5 56t-53.5 88.5t-19 118q0 84 26 154t71.5 120t109 78t138.5 28q57 0 104.5 -19.5t82 -56t54 -88.5t19.5 -118q0 -84 -26 -154t-71.5 -120t-109 -78t-138.5 -28zM276 72q52 0 97 17t80 48.5t59 75t33 96.5q7 41 9 59.5t2 29.5
q0 44 -11.5 85.5t-36 73t-63.5 50.5t-94 19q-52 0 -97 -17t-80 -48.5t-59 -75t-33 -96.5q-8 -41 -9.5 -59.5t-1.5 -29.5q0 -44 11.5 -85.5t36 -73t63.5 -50.5t94 -19zM296 153q-75 0 -120 45.5t-45 120.5q0 45 15.5 85.5t43 72t65 50t82.5 18.5q67 0 100.5 -29.5t48.5 -74.5
l-90 -41q-5 23 -19.5 37.5t-40.5 14.5q-29 0 -48.5 -18.5t-24.5 -47.5l-11 -65q-1 -6 -1.5 -11t-0.5 -11q0 -23 14 -38t41 -15q26 0 44.5 15t32.5 37l81 -43q-12 -20 -27.5 -38.5t-36 -32.5t-46 -22.5t-57.5 -8.5z" />
    <glyph glyph-name="ordfeminine" unicode="&#xaa;" 
d="M366 341l10 63h-8q-32 -71 -105 -71q-48 0 -78 24t-30 68q0 63 46.5 94.5t135.5 31.5h57l3 18q1 5 1.5 9.5t0.5 9.5q0 23 -16 35t-44 12q-32 0 -52.5 -12.5t-38.5 -32.5l-48 55q21 27 58 46t98 19q66 0 106 -27.5t40 -82.5v-14.5t-2 -16.5l-38 -228h-96zM331 495
q-32 0 -51 -11t-22 -32q-2 -8 -2 -12v-6q0 -17 13.5 -25.5t36.5 -8.5q27 0 47 13t25 39l7 43h-54z" />
    <glyph glyph-name="guillemotleft" unicode="&#xab;" 
d="M221 43l-170 168l22 130l214 160l39 -92l-152 -141l106 -138zM464 43l-170 168l22 130l214 160l39 -92l-152 -141l106 -138z" />
    <glyph glyph-name="logicalnot" unicode="&#xac;" 
d="M370 55l32 192h-341l20 116h460l-52 -308h-119z" />
    <glyph glyph-name="uni00AD" unicode="&#xad;" 
d="M139 235l23 140h317l-23 -140h-317z" />
    <glyph glyph-name="registered" unicode="&#xae;" 
d="M310 346q-35 0 -65 11.5t-52 32.5t-34.5 50.5t-12.5 66.5q0 41 15.5 78t42.5 64.5t64.5 44t81.5 16.5q35 0 65 -11.5t52 -32.5t34.5 -50.5t12.5 -66.5q0 -41 -15.5 -78t-42.5 -65t-64.5 -44t-81.5 -16zM311 386q60 0 100.5 33t50.5 92q2 14 3.5 23t1.5 16q0 52 -28 86
t-90 34q-60 0 -100.5 -33t-50.5 -92q-2 -14 -3.5 -23t-1.5 -16q0 -52 28 -86t90 -34zM293 438h-56l31 185h92q32 0 47 -14.5t15 -37.5q0 -26 -12.5 -43t-32.5 -25l29 -65h-61l-21 55h-22zM333 533q26 0 29 20q1 6 1 8v3q0 16 -22 16h-24l-8 -47h24z" />
    <glyph glyph-name="macron" unicode="&#xaf;" 
d="M181 718h305l-17 -102h-305z" />
    <glyph glyph-name="degree" unicode="&#xb0;" 
d="M326 335q-38 0 -69.5 13t-54 35.5t-34.5 54t-12 67.5q0 44 16.5 81.5t45 65t67 43t82.5 15.5q38 0 69.5 -13t54 -35.5t34.5 -54t12 -67.5q0 -44 -16.5 -81.5t-45 -65t-67 -43t-82.5 -15.5zM334 428q23 0 42 9t32 24t20 35t7 43q0 32 -20.5 55t-55.5 23q-23 0 -42 -9
t-32 -24t-20 -35.5t-7 -42.5q0 -32 20.5 -55t55.5 -23z" />
    <glyph glyph-name="plusminus" unicode="&#xb1;" 
d="M226 183l28 167h-176l20 116h175l28 167h126l-28 -167h175l-20 -116h-174l-28 -167h-126zM20 0l20 116h476l-20 -116h-476z" />
    <glyph glyph-name="twosuperior" unicode="&#xb2;" 
d="M453 329h-281l14 84l138 92q8 5 18.5 12t20 15.5t17 18.5t9.5 22q1 5 1.5 8.5t0.5 7.5q0 17 -12 25.5t-29 8.5q-25 0 -39 -15t-20 -32l-83 31q18 40 53.5 68.5t95.5 28.5q58 0 97 -29t39 -82q0 -47 -32.5 -79t-89.5 -66l-68 -40h163z" />
    <glyph glyph-name="threesuperior" unicode="&#xb3;" 
d="M327 556q32 0 45.5 9.5t15.5 18.5q1 5 1.5 8t0.5 6q0 14 -12.5 22t-32.5 8t-38.5 -10t-37.5 -33l-54 60q27 28 60 43.5t82 15.5q63 0 98 -25.5t35 -68.5q0 -31 -20.5 -55.5t-66.5 -32.5v-2q67 -15 67 -79q0 -50 -41.5 -84t-117.5 -34q-60 0 -93 21t-47 52l68 49
q9 -20 25.5 -33t45.5 -13q21 0 37 9t19 27q1 5 1.5 8t0.5 6q0 30 -49 30h-40l13 77h35z" />
    <glyph glyph-name="acute" unicode="&#xb4;" 
d="M323 570l-86 46l115 190l114 -60z" />
    <glyph glyph-name="mu" unicode="&#xb5;" 
d="M-9 -200l120 716h146l-51 -304q-3 -20 -3 -37q0 -74 64 -74q21 0 42 11.5t38 31.5q14 17 23.5 38t13.5 46l48 288h146l-86 -516h-146l20 116h-6q-22 -59 -56 -93.5t-85 -34.5q-20 0 -37 8.5t-29 33.5h-6l6 -131l-16 -99h-146z" />
    <glyph glyph-name="paragraph" unicode="&#xb6;" 
d="M257 246q-40 0 -74 13.5t-59.5 38t-40 60t-14.5 80.5q0 57 22 105t58.5 82.5t84 54t98.5 19.5h303l-141 -847h-116l122 733h-71l-122 -733h-116z" />
    <glyph glyph-name="periodcentered" unicode="&#xb7;" 
d="M295 207q-50 0 -71 19.5t-21 47.5q0 15 6 51q5 32 32.5 56t82.5 24q50 0 71 -19.5t21 -47.5q0 -15 -6 -51q-5 -32 -32.5 -56t-82.5 -24z" />
    <glyph glyph-name="cedilla" unicode="&#xb8;" 
d="M285 -212q-45 0 -74.5 13.5t-43.5 32.5l51 53q8 -9 23 -18.5t41 -9.5q19 0 33 7t14 22q0 11 -13.5 21.5t-54.5 14.5l-23 2l40 104h67l-31 -85l3 -4q21 7 41 7q27 0 47 -14.5t20 -47.5q0 -23 -11 -41t-29.5 -31t-44 -19.5t-55.5 -6.5z" />
    <glyph glyph-name="onesuperior" unicode="&#xb9;" 
d="M204 329l13 76h81l34 203l-79 -38l-30 71l120 57h101l-49 -293h72l-13 -76h-250z" />
    <glyph glyph-name="ordmasculine" unicode="&#xba;" 
d="M320 333q-77 0 -117.5 41t-40.5 112q0 51 14.5 92t41.5 70.5t65.5 45.5t86.5 16q77 0 117.5 -41t40.5 -112q0 -51 -14.5 -92t-41.5 -70.5t-65.5 -45.5t-86.5 -16zM330 409q33 0 55.5 23t28.5 59l10 60q1 5 1.5 10.5t0.5 10.5q0 30 -17 46t-49 16q-33 0 -55.5 -23
t-28.5 -59l-10 -60q-1 -5 -1.5 -10.5t-0.5 -10.5q0 -30 17 -46t49 -16z" />
    <glyph glyph-name="guillemotright" unicode="&#xbb;" 
d="M31 135l152 141l-106 138l59 87l170 -168l-22 -130l-214 -160zM274 135l152 141l-106 138l59 87l170 -168l-22 -130l-214 -160z" />
    <glyph glyph-name="onequarter" unicode="&#xbc;" 
d="M65 432h86l32 192l-83 -39l-22 60l111 53h94l-44 -266h75l-11 -69h-249zM568 698h106l-223 -300h-106zM181 300h106l-223 -300h-106zM429 63h-153l12 74l164 198h106l-35 -211h44l-10 -61h-44l-10 -63h-84zM439 124l21 126h-5l-104 -126h88z" />
    <glyph glyph-name="onehalf" unicode="&#xbd;" 
d="M65 432h86l32 192l-83 -39l-22 60l111 53h94l-44 -266h75l-11 -69h-249zM568 698h106l-223 -300h-106zM181 300h106l-223 -300h-106zM291 75l120 80q41 27 56 44t17 31q1 5 1 7.5v4.5q0 14 -12 22.5t-28 8.5q-22 0 -38 -14.5t-27 -34.5l-68 30q17 36 50 61.5t92 25.5
q60 0 91 -27t31 -66q0 -26 -12 -46.5t-31 -37.5t-41 -31t-43 -27l-63 -39h166l-11 -67h-262z" />
    <glyph glyph-name="threequarters" unicode="&#xbe;" 
d="M174 357q-54 0 -84.5 19t-46.5 50l62 36q7 -18 24 -28.5t46 -10.5q26 0 38.5 8.5t14.5 22.5q1 5 1.5 9.5t0.5 7.5q0 15 -15 23.5t-39 8.5h-27l11 63h31q29 0 42 8.5t15 22.5q1 5 1.5 8t0.5 6q0 12 -11 19.5t-31 7.5q-23 0 -43.5 -11t-37.5 -30l-44 50q29 27 60 42t76 15
q58 0 91.5 -23.5t33.5 -61.5q0 -32 -23.5 -54.5t-61.5 -27.5l-1 -4q35 -3 50.5 -22.5t15.5 -46.5q0 -47 -40.5 -77t-109.5 -30zM568 698h106l-223 -300h-106zM181 300h106l-223 -300h-106zM429 63h-153l12 74l164 198h106l-35 -211h44l-10 -61h-44l-10 -63h-84zM439 124
l21 126h-5l-104 -126h88z" />
    <glyph glyph-name="questiondown" unicode="&#xbf;" 
d="M244 -194q-101 0 -158.5 50t-57.5 136q0 46 16.5 83.5t45 65.5t67 46t81.5 24l12 71h146l-25 -152q-85 -4 -130 -27t-54 -77q-2 -9 -2 -17.5v-10.5q0 -34 23.5 -51t57.5 -17q38 0 65 23t43 61l114 -53q-13 -32 -34.5 -60t-51.5 -49t-69.5 -33.5t-88.5 -12.5zM334 342
q-47 0 -67.5 18.5t-20.5 44.5q0 6 1 15.5t5 32.5q5 32 30 53.5t75 21.5q47 0 67.5 -18.5t20.5 -44.5q0 -6 -1 -15.5t-5 -32.5q-5 -32 -30 -53.5t-75 -21.5z" />
    <glyph glyph-name="Agrave" unicode="&#xc0;" 
d="M400 0l-17 169h-196l-69 -169h-155l307 698h206l76 -698h-152zM356 553h-9l-110 -264h140zM247 917l124 59l77 -196l-87 -39z" />
    <glyph glyph-name="Aacute" unicode="&#xc1;" 
d="M400 0l-17 169h-196l-69 -169h-155l307 698h206l76 -698h-152zM356 553h-9l-110 -264h140zM391 740l-86 46l115 190l114 -60z" />
    <glyph glyph-name="Acircumflex" unicode="&#xc2;" 
d="M400 0l-17 169h-196l-69 -169h-155l307 698h206l76 -698h-152zM356 553h-9l-110 -264h140zM471 955l108 -158l-76 -57l-106 115l-134 -115l-70 57l154 158h124z" />
    <glyph glyph-name="Atilde" unicode="&#xc3;" 
d="M400 0l-17 169h-196l-69 -169h-155l307 698h206l76 -698h-152zM356 553h-9l-110 -264h140zM457 762q-23 0 -39.5 6.5t-33.5 14.5q-20 9 -37.5 15.5t-37.5 6.5q-17 0 -31 -6t-32 -19l-40 67q22 27 53 45.5t71 18.5q23 0 39.5 -6.5t33.5 -14.5q20 -9 37.5 -15.5t37.5 -6.5
q17 0 31 6t32 19l40 -67q-22 -27 -53 -45.5t-71 -18.5z" />
    <glyph glyph-name="Adieresis" unicode="&#xc4;" 
d="M400 0l-17 169h-196l-69 -169h-155l307 698h206l76 -698h-152zM356 553h-9l-110 -264h140zM276 762q-41 0 -57.5 15.5t-16.5 38.5q0 5 1 12.5t4 23.5q5 26 23 42.5t62 16.5q41 0 57.5 -15.5t16.5 -38.5q0 -5 -1 -12.5t-4 -23.5q-5 -26 -23 -42.5t-62 -16.5zM494 762
q-41 0 -57.5 15.5t-16.5 38.5q0 5 1 12.5t4 23.5q5 26 23 42.5t62 16.5q41 0 57.5 -15.5t16.5 -38.5q0 -5 -1 -12.5t-4 -23.5q-5 -26 -23 -42.5t-62 -16.5z" />
    <glyph glyph-name="Aring" unicode="&#xc5;" 
d="M400 0l-17 169h-196l-69 -169h-155l307 698h206l76 -698h-152zM356 553h-9l-110 -264h140zM377 720q-27 0 -51 9.5t-41.5 26t-27.5 39.5t-10 49q0 35 13.5 64.5t36 50.5t53 33t65.5 12q27 0 51 -9.5t41.5 -26t27.5 -39.5t10 -49q0 -35 -13.5 -64.5t-36 -50.5t-53.5 -33
t-65 -12zM385 794q26 0 40.5 14t18.5 37q3 18 4.5 27.5t1.5 17.5q0 40 -43 40q-26 0 -40.5 -14t-18.5 -37q-3 -18 -4.5 -27.5t-1.5 -17.5q0 -40 43 -40z" />
    <glyph glyph-name="AE" unicode="&#xc6;" 
d="M308 169h-104l-63 -169h-144l276 698h415l-18 -110h-156l-30 -180h145l-18 -110h-145l-32 -188h155l-18 -110h-291zM357 595l-114 -316h84l53 316h-23z" />
    <glyph glyph-name="Ccedilla" unicode="&#xc7;" 
d="M367 590q-62 0 -95 -49t-47 -133l-18 -109q-3 -18 -5.5 -36t-2.5 -42q0 -53 23 -83t78 -30q24 0 44 9.5t36 25.5t29 37.5t23 46.5l127 -38q-38 -90 -94 -141t-142 -59l-16 -44l3 -4q21 7 42 7q28 0 47 -15.5t19 -42.5q0 -51 -41 -76.5t-102 -25.5q-42 0 -71.5 13.5
t-43.5 32.5l51 53q8 -9 23 -18.5t38 -9.5q22 0 36 7t14 22q0 13 -14.5 22.5t-53.5 13.5l-23 2l24 63q-105 11 -155 80t-50 185q0 102 23 186t65 144t101.5 93t133.5 33q58 0 100.5 -15t70.5 -42t42.5 -65t17.5 -83l-143 -29q-2 25 -6.5 46t-15 36t-28 23.5t-44.5 8.5z" />
    <glyph glyph-name="Egrave" unicode="&#xc8;" 
d="M38 0l117 698h446l-20 -122h-300l-27 -162h286l-20 -122h-287l-28 -170h299l-20 -122h-446zM250 917l124 59l77 -196l-87 -39z" />
    <glyph glyph-name="Eacute" unicode="&#xc9;" 
d="M38 0l117 698h446l-20 -122h-300l-27 -162h286l-20 -122h-287l-28 -170h299l-20 -122h-446zM394 740l-86 46l115 190l114 -60z" />
    <glyph glyph-name="Ecircumflex" unicode="&#xca;" 
d="M38 0l117 698h446l-20 -122h-300l-27 -162h286l-20 -122h-287l-28 -170h299l-20 -122h-446zM474 955l108 -158l-76 -57l-106 115l-134 -115l-70 57l154 158h124z" />
    <glyph glyph-name="Edieresis" unicode="&#xcb;" 
d="M38 0l117 698h446l-20 -122h-300l-27 -162h286l-20 -122h-287l-28 -170h299l-20 -122h-446zM279 762q-41 0 -57.5 15.5t-16.5 38.5q0 5 1 12.5t4 23.5q5 26 23 42.5t62 16.5q41 0 57.5 -15.5t16.5 -38.5q0 -5 -1 -12.5t-4 -23.5q-5 -26 -23 -42.5t-62 -16.5zM497 762
q-41 0 -57.5 15.5t-16.5 38.5q0 5 1 12.5t4 23.5q5 26 23 42.5t62 16.5q41 0 57.5 -15.5t16.5 -38.5q0 -5 -1 -12.5t-4 -23.5q-5 -26 -23 -42.5t-62 -16.5z" />
    <glyph glyph-name="Igrave" unicode="&#xcc;" 
d="M32 0l18 110h151l80 478h-151l18 110h450l-18 -110h-151l-80 -478h151l-18 -110h-450zM251 917l124 59l77 -196l-87 -39z" />
    <glyph glyph-name="Iacute" unicode="&#xcd;" 
d="M32 0l18 110h151l80 478h-151l18 110h450l-18 -110h-151l-80 -478h151l-18 -110h-450zM395 740l-86 46l115 190l114 -60z" />
    <glyph glyph-name="Icircumflex" unicode="&#xce;" 
d="M32 0l18 110h151l80 478h-151l18 110h450l-18 -110h-151l-80 -478h151l-18 -110h-450zM475 955l108 -158l-76 -57l-106 115l-134 -115l-70 57l154 158h124z" />
    <glyph glyph-name="Idieresis" unicode="&#xcf;" 
d="M32 0l18 110h151l80 478h-151l18 110h450l-18 -110h-151l-80 -478h151l-18 -110h-450zM280 762q-41 0 -57.5 15.5t-16.5 38.5q0 5 1 12.5t4 23.5q5 26 23 42.5t62 16.5q41 0 57.5 -15.5t16.5 -38.5q0 -5 -1 -12.5t-4 -23.5q-5 -26 -23 -42.5t-62 -16.5zM498 762
q-41 0 -57.5 15.5t-16.5 38.5q0 5 1 12.5t4 23.5q5 26 23 42.5t62 16.5q41 0 57.5 -15.5t16.5 -38.5q0 -5 -1 -12.5t-4 -23.5q-5 -26 -23 -42.5t-62 -16.5z" />
    <glyph glyph-name="Eth" unicode="&#xd0;" 
d="M77 312h-57l19 112h58l45 274h205q118 0 179.5 -66t61.5 -191q0 -103 -22 -185t-64.5 -139t-105.5 -87t-144 -30h-227zM255 117q67 0 105 38.5t52 119.5l21 126q3 18 4.5 36t1.5 32q0 112 -105 112h-65l-27 -162h110l-17 -102h-110l-33 -200h63z" />
    <glyph glyph-name="Ntilde" unicode="&#xd1;" 
d="M237 468h-10l-78 -468h-129l116 698h178l81 -468h10l78 468h129l-116 -698h-178zM461 762q-23 0 -39.5 6.5t-33.5 14.5q-20 9 -37.5 15.5t-37.5 6.5q-17 0 -31 -6t-32 -19l-40 67q22 27 53 45.5t71 18.5q23 0 39.5 -6.5t33.5 -14.5q20 -9 37.5 -15.5t37.5 -6.5q17 0 31 6
t32 19l40 -67q-22 -27 -53 -45.5t-71 -18.5z" />
    <glyph glyph-name="Ograve" unicode="&#xd2;" 
d="M279 -12q-63 0 -109 18t-76 52t-44 83t-14 110q0 89 17.5 172t55.5 146.5t97.5 102t142.5 38.5q63 0 109 -18t76 -52t44 -83t14 -110q0 -89 -17.5 -172t-55.5 -146.5t-97.5 -102t-142.5 -38.5zM279 108q63 0 92.5 47t43.5 133l20 120q6 36 6 72q0 52 -22 81t-70 29
q-63 0 -92.5 -47t-43.5 -133l-20 -120q-6 -36 -6 -72q0 -52 22 -81t70 -29zM235 917l124 59l77 -196l-87 -39z" />
    <glyph glyph-name="Oacute" unicode="&#xd3;" 
d="M279 -12q-63 0 -109 18t-76 52t-44 83t-14 110q0 89 17.5 172t55.5 146.5t97.5 102t142.5 38.5q63 0 109 -18t76 -52t44 -83t14 -110q0 -89 -17.5 -172t-55.5 -146.5t-97.5 -102t-142.5 -38.5zM279 108q63 0 92.5 47t43.5 133l20 120q6 36 6 72q0 52 -22 81t-70 29
q-63 0 -92.5 -47t-43.5 -133l-20 -120q-6 -36 -6 -72q0 -52 22 -81t70 -29zM379 740l-86 46l115 190l114 -60z" />
    <glyph glyph-name="Ocircumflex" unicode="&#xd4;" 
d="M279 -12q-63 0 -109 18t-76 52t-44 83t-14 110q0 89 17.5 172t55.5 146.5t97.5 102t142.5 38.5q63 0 109 -18t76 -52t44 -83t14 -110q0 -89 -17.5 -172t-55.5 -146.5t-97.5 -102t-142.5 -38.5zM279 108q63 0 92.5 47t43.5 133l20 120q6 36 6 72q0 52 -22 81t-70 29
q-63 0 -92.5 -47t-43.5 -133l-20 -120q-6 -36 -6 -72q0 -52 22 -81t70 -29zM459 955l108 -158l-76 -57l-106 115l-134 -115l-70 57l154 158h124z" />
    <glyph glyph-name="Otilde" unicode="&#xd5;" 
d="M279 -12q-63 0 -109 18t-76 52t-44 83t-14 110q0 89 17.5 172t55.5 146.5t97.5 102t142.5 38.5q63 0 109 -18t76 -52t44 -83t14 -110q0 -89 -17.5 -172t-55.5 -146.5t-97.5 -102t-142.5 -38.5zM279 108q63 0 92.5 47t43.5 133l20 120q6 36 6 72q0 52 -22 81t-70 29
q-63 0 -92.5 -47t-43.5 -133l-20 -120q-6 -36 -6 -72q0 -52 22 -81t70 -29zM445 762q-23 0 -39.5 6.5t-33.5 14.5q-20 9 -37.5 15.5t-37.5 6.5q-17 0 -31 -6t-32 -19l-40 67q22 27 53 45.5t71 18.5q23 0 39.5 -6.5t33.5 -14.5q20 -9 37.5 -15.5t37.5 -6.5q17 0 31 6t32 19
l40 -67q-22 -27 -53 -45.5t-71 -18.5z" />
    <glyph glyph-name="Odieresis" unicode="&#xd6;" 
d="M279 -12q-63 0 -109 18t-76 52t-44 83t-14 110q0 89 17.5 172t55.5 146.5t97.5 102t142.5 38.5q63 0 109 -18t76 -52t44 -83t14 -110q0 -89 -17.5 -172t-55.5 -146.5t-97.5 -102t-142.5 -38.5zM279 108q63 0 92.5 47t43.5 133l20 120q6 36 6 72q0 52 -22 81t-70 29
q-63 0 -92.5 -47t-43.5 -133l-20 -120q-6 -36 -6 -72q0 -52 22 -81t70 -29zM264 762q-41 0 -57.5 15.5t-16.5 38.5q0 5 1 12.5t4 23.5q5 26 23 42.5t62 16.5q41 0 57.5 -15.5t16.5 -38.5q0 -5 -1 -12.5t-4 -23.5q-5 -26 -23 -42.5t-62 -16.5zM482 762q-41 0 -57.5 15.5
t-16.5 38.5q0 5 1 12.5t4 23.5q5 26 23 42.5t62 16.5q41 0 57.5 -15.5t16.5 -38.5q0 -5 -1 -12.5t-4 -23.5q-5 -26 -23 -42.5t-62 -16.5z" />
    <glyph glyph-name="multiply" unicode="&#xd7;" 
d="M298 220l-169 -144l-76 88l172 146l-119 143l95 81l119 -144l169 144l75 -87l-171 -146l119 -144l-95 -81z" />
    <glyph glyph-name="Oslash" unicode="&#xd8;" 
d="M279 -12q-91 0 -147 38l-71 -93l-88 57l90 117q-14 29 -20.5 65.5t-6.5 78.5q0 89 17.5 172t55.5 146.5t97.5 102t142.5 38.5q91 0 147 -38l71 93l88 -57l-90 -117q14 -29 20.5 -65.5t6.5 -78.5q0 -89 -17.5 -172t-55.5 -146.5t-97.5 -102t-142.5 -38.5zM191 302
q-3 -17 -4.5 -27.5t-1.5 -19.5v-1l236 308q-26 29 -72 29q-63 0 -94.5 -47.5t-45.5 -133.5zM279 107q63 0 94.5 47.5t45.5 133.5l18 108q3 17 4.5 27.5t1.5 19.5v1l-236 -308q26 -29 72 -29z" />
    <glyph glyph-name="Ugrave" unicode="&#xd9;" 
d="M275 698l-73 -438q-5 -27 -6.5 -45t-1.5 -29q0 -38 18.5 -58t64.5 -20q33 0 54 10.5t33.5 29.5t19.5 46t13 61l74 443h147l-71 -426q-12 -70 -28.5 -123t-47 -89t-79 -54t-123.5 -18q-62 0 -104.5 13.5t-68 38t-36.5 59t-11 77.5q0 26 3 54.5t8 60.5l68 407h147zM248 917
l124 59l77 -196l-87 -39z" />
    <glyph glyph-name="Uacute" unicode="&#xda;" 
d="M275 698l-73 -438q-5 -27 -6.5 -45t-1.5 -29q0 -38 18.5 -58t64.5 -20q33 0 54 10.5t33.5 29.5t19.5 46t13 61l74 443h147l-71 -426q-12 -70 -28.5 -123t-47 -89t-79 -54t-123.5 -18q-62 0 -104.5 13.5t-68 38t-36.5 59t-11 77.5q0 26 3 54.5t8 60.5l68 407h147zM392 740
l-86 46l115 190l114 -60z" />
    <glyph glyph-name="Ucircumflex" unicode="&#xdb;" 
d="M275 698l-73 -438q-5 -27 -6.5 -45t-1.5 -29q0 -38 18.5 -58t64.5 -20q33 0 54 10.5t33.5 29.5t19.5 46t13 61l74 443h147l-71 -426q-12 -70 -28.5 -123t-47 -89t-79 -54t-123.5 -18q-62 0 -104.5 13.5t-68 38t-36.5 59t-11 77.5q0 26 3 54.5t8 60.5l68 407h147zM472 955
l108 -158l-76 -57l-106 115l-134 -115l-70 57l154 158h124z" />
    <glyph glyph-name="Udieresis" unicode="&#xdc;" 
d="M275 698l-73 -438q-5 -27 -6.5 -45t-1.5 -29q0 -38 18.5 -58t64.5 -20q33 0 54 10.5t33.5 29.5t19.5 46t13 61l74 443h147l-71 -426q-12 -70 -28.5 -123t-47 -89t-79 -54t-123.5 -18q-62 0 -104.5 13.5t-68 38t-36.5 59t-11 77.5q0 26 3 54.5t8 60.5l68 407h147zM277 762
q-41 0 -57.5 15.5t-16.5 38.5q0 5 1 12.5t4 23.5q5 26 23 42.5t62 16.5q41 0 57.5 -15.5t16.5 -38.5q0 -5 -1 -12.5t-4 -23.5q-5 -26 -23 -42.5t-62 -16.5zM495 762q-41 0 -57.5 15.5t-16.5 38.5q0 5 1 12.5t4 23.5q5 26 23 42.5t62 16.5q41 0 57.5 -15.5t16.5 -38.5
q0 -5 -1 -12.5t-4 -23.5q-5 -26 -23 -42.5t-62 -16.5z" />
    <glyph glyph-name="Yacute" unicode="&#xdd;" 
d="M184 0l41 246l-147 452h158l49 -164l31 -137h9l78 137l100 164h165l-295 -449l-41 -249h-148zM388 740l-86 46l115 190l114 -60z" />
    <glyph glyph-name="Thorn" unicode="&#xde;" 
d="M33 0l117 698h148l-20 -122h103q46 0 81.5 -13.5t59.5 -38.5t36.5 -59t12.5 -74q0 -60 -17.5 -107.5t-50 -80.5t-78.5 -51t-103 -18h-119l-22 -134h-148zM223 254h78q51 0 76 19t33 64l5 30q1 5 1.5 12t0.5 15q0 34 -18.5 48.5t-63.5 14.5h-78z" />
    <glyph glyph-name="germandbls" unicode="&#xdf;" 
d="M17 0l96 595q11 63 54 104t122 41h140l-19 -112h-147l-19 -112h330l-18 -105l-170 -203q67 -14 104.5 -55.5t37.5 -111.5q0 -59 -21 -104t-60 -75.5t-93.5 -46t-120.5 -15.5h-70l19 112h57q63 0 96 21.5t41 71.5q4 23 4.5 29.5t0.5 11.5q0 38 -28.5 55t-85.5 17h-24
l19 112l145 174h-181l-67 -404h-142z" />
    <glyph glyph-name="agrave" unicode="&#xe0;" 
d="M181 -12q-41 0 -68 14.5t-44 41t-24 64.5t-7 85q0 75 16 136.5t46 105.5t73.5 68.5t97.5 24.5q59 0 87.5 -28.5t39.5 -79.5h7l16 96h146l-68 -409h53l-18 -107h-75q-57 0 -85.5 28t-20.5 82l2 13h-5q-15 -30 -30.5 -54.5t-35 -42.5t-44.5 -28t-59 -10zM247 101
q26 0 47 13t38 35q11 14 25 40t19 58l14 83q7 41 -9.5 63t-63.5 22q-55 0 -81 -31.5t-36 -90.5l-10 -60q-2 -9 -3 -20.5t-1 -25.5q0 -36 13 -61t48 -25zM205 747l124 59l77 -196l-87 -39z" />
    <glyph glyph-name="aacute" unicode="&#xe1;" 
d="M181 -12q-41 0 -68 14.5t-44 41t-24 64.5t-7 85q0 75 16 136.5t46 105.5t73.5 68.5t97.5 24.5q59 0 87.5 -28.5t39.5 -79.5h7l16 96h146l-68 -409h53l-18 -107h-75q-57 0 -85.5 28t-20.5 82l2 13h-5q-15 -30 -30.5 -54.5t-35 -42.5t-44.5 -28t-59 -10zM247 101
q26 0 47 13t38 35q11 14 25 40t19 58l14 83q7 41 -9.5 63t-63.5 22q-55 0 -81 -31.5t-36 -90.5l-10 -60q-2 -9 -3 -20.5t-1 -25.5q0 -36 13 -61t48 -25zM349 570l-86 46l115 190l114 -60z" />
    <glyph glyph-name="acircumflex" unicode="&#xe2;" 
d="M181 -12q-41 0 -68 14.5t-44 41t-24 64.5t-7 85q0 75 16 136.5t46 105.5t73.5 68.5t97.5 24.5q59 0 87.5 -28.5t39.5 -79.5h7l16 96h146l-68 -409h53l-18 -107h-75q-57 0 -85.5 28t-20.5 82l2 13h-5q-15 -30 -30.5 -54.5t-35 -42.5t-44.5 -28t-59 -10zM247 101
q26 0 47 13t38 35q11 14 25 40t19 58l14 83q7 41 -9.5 63t-63.5 22q-55 0 -81 -31.5t-36 -90.5l-10 -60q-2 -9 -3 -20.5t-1 -25.5q0 -36 13 -61t48 -25zM429 785l108 -158l-76 -57l-106 115l-134 -115l-70 57l154 158h124z" />
    <glyph glyph-name="atilde" unicode="&#xe3;" 
d="M181 -12q-41 0 -68 14.5t-44 41t-24 64.5t-7 85q0 75 16 136.5t46 105.5t73.5 68.5t97.5 24.5q59 0 87.5 -28.5t39.5 -79.5h7l16 96h146l-68 -409h53l-18 -107h-75q-57 0 -85.5 28t-20.5 82l2 13h-5q-15 -30 -30.5 -54.5t-35 -42.5t-44.5 -28t-59 -10zM247 101
q26 0 47 13t38 35q11 14 25 40t19 58l14 83q7 41 -9.5 63t-63.5 22q-55 0 -81 -31.5t-36 -90.5l-10 -60q-2 -9 -3 -20.5t-1 -25.5q0 -36 13 -61t48 -25zM415 592q-23 0 -39.5 6.5t-33.5 14.5q-20 9 -37.5 15.5t-37.5 6.5q-17 0 -31 -6t-32 -19l-40 67q22 27 53 45.5t71 18.5
q23 0 39.5 -6.5t33.5 -14.5q20 -9 37.5 -15.5t37.5 -6.5q17 0 31 6t32 19l40 -67q-22 -27 -53 -45.5t-71 -18.5z" />
    <glyph glyph-name="adieresis" unicode="&#xe4;" 
d="M181 -12q-41 0 -68 14.5t-44 41t-24 64.5t-7 85q0 75 16 136.5t46 105.5t73.5 68.5t97.5 24.5q59 0 87.5 -28.5t39.5 -79.5h7l16 96h146l-68 -409h53l-18 -107h-75q-57 0 -85.5 28t-20.5 82l2 13h-5q-15 -30 -30.5 -54.5t-35 -42.5t-44.5 -28t-59 -10zM247 101
q26 0 47 13t38 35q11 14 25 40t19 58l14 83q7 41 -9.5 63t-63.5 22q-55 0 -81 -31.5t-36 -90.5l-10 -60q-2 -9 -3 -20.5t-1 -25.5q0 -36 13 -61t48 -25zM234 592q-41 0 -57.5 15.5t-16.5 38.5q0 5 1.5 13t3.5 22q5 27 23 43.5t62 16.5q41 0 57.5 -15.5t16.5 -38.5
q0 -5 -1.5 -13t-3.5 -22q-5 -27 -23 -43.5t-62 -16.5zM452 592q-41 0 -57.5 15.5t-16.5 38.5q0 5 1.5 13t3.5 22q5 27 23 43.5t62 16.5q41 0 57.5 -15.5t16.5 -38.5q0 -5 -1.5 -13t-3.5 -22q-5 -27 -23 -43.5t-62 -16.5z" />
    <glyph glyph-name="aring" unicode="&#xe5;" 
d="M181 -12q-41 0 -68 14.5t-44 41t-24 64.5t-7 85q0 75 16 136.5t46 105.5t73.5 68.5t97.5 24.5q59 0 87.5 -28.5t39.5 -79.5h7l16 96h146l-68 -409h53l-18 -107h-75q-57 0 -85.5 28t-20.5 82l2 13h-5q-15 -30 -30.5 -54.5t-35 -42.5t-44.5 -28t-59 -10zM247 101
q26 0 47 13t38 35q11 14 25 40t19 58l14 83q7 41 -9.5 63t-63.5 22q-55 0 -81 -31.5t-36 -90.5l-10 -60q-2 -9 -3 -20.5t-1 -25.5q0 -36 13 -61t48 -25zM335 550q-27 0 -51 9.5t-41.5 26t-27.5 39.5t-10 49q0 35 13.5 64.5t36 50.5t53 33t65.5 12q27 0 51 -9.5t41.5 -26
t27.5 -39.5t10 -49q0 -35 -13.5 -64.5t-36 -50.5t-53.5 -33t-65 -12zM343 624q26 0 40.5 14t18.5 37q3 18 4.5 27.5t1.5 17.5q0 40 -43 40q-26 0 -40.5 -14t-18.5 -37q-3 -18 -4.5 -27.5t-1.5 -17.5q0 -40 43 -40z" />
    <glyph glyph-name="ae" unicode="&#xe6;" 
d="M110 -12q-52 0 -85 32t-33 101q0 85 55 134.5t156 49.5h40l7 42q3 18 3 31q0 29 -13.5 44t-36.5 15q-27 0 -46 -18.5t-33 -53.5l-80 46q29 65 68.5 91t95.5 26q44 0 77 -17.5t39 -61.5h3q20 35 55 57t84 22q63 0 99 -37.5t36 -96.5q0 -27 -10 -56t-37.5 -53.5t-77.5 -41
t-129 -17.5l-2 -11q-2 -14 -3 -26.5t-1 -21.5q0 -39 14 -61.5t42 -22.5q27 0 43.5 21t29.5 53l91 -39q-28 -66 -69 -98t-104 -32q-27 0 -51.5 6.5t-43.5 20.5t-31.5 36t-16.5 54h-4q-14 -59 -47.5 -88t-83.5 -29zM146 77q59 0 76 102l8 49h-29q-40 0 -65 -17t-32 -54
q-2 -14 -2.5 -22t-0.5 -10q0 -26 12.5 -37t32.5 -11zM450 439q-32 0 -55 -31t-34 -97l-1 -8q38 1 64 9t42 19.5t23 26.5t7 32q0 24 -12.5 36.5t-33.5 12.5z" />
    <glyph glyph-name="ccedilla" unicode="&#xe7;" 
d="M343 528q89 0 136 -36t64 -95l-119 -56q-11 32 -30 51t-63 19t-73 -28t-38 -82l-10 -60q-2 -9 -3 -22t-1 -25q0 -40 20.5 -64.5t70.5 -24.5q16 0 30 3.5t30.5 15.5t37 33.5t47.5 57.5l91 -59q-23 -37 -47 -66t-51 -50.5t-58.5 -34t-70.5 -16.5l-16 -44l3 -4q21 7 42 7
q28 0 47 -15.5t19 -42.5q0 -51 -41 -76.5t-102 -25.5q-42 0 -71.5 13.5t-43.5 32.5l51 53q8 -9 23 -18.5t38 -9.5q22 0 36 7t14 22q0 13 -14.5 22.5t-53.5 13.5l-23 2l25 64q-89 9 -135.5 65t-46.5 151q0 66 19 124.5t55 102.5t89.5 69.5t122.5 25.5z" />
    <glyph glyph-name="egrave" unicode="&#xe8;" 
d="M281 -12q-115 0 -170 58.5t-55 161.5q0 72 22 131t61.5 101t95.5 65t125 23q39 0 73.5 -9t60.5 -26.5t41 -44t15 -62.5q0 -31 -13 -62t-50.5 -56.5t-106 -43t-178.5 -21.5q-1 -6 -1 -9.5v-7.5q0 -42 23 -64t76 -22q21 0 38.5 4t34 14.5t33 27t36.5 42.5l91 -59
q-20 -29 -43.5 -54.5t-53.5 -45t-68 -30.5t-87 -11zM345 425q-48 0 -82 -28.5t-48 -95.5l-3 -14q69 4 108.5 13t59 21t24.5 26t5 26q0 52 -64 52zM222 747l124 59l77 -196l-87 -39z" />
    <glyph glyph-name="eacute" unicode="&#xe9;" 
d="M281 -12q-115 0 -170 58.5t-55 161.5q0 72 22 131t61.5 101t95.5 65t125 23q39 0 73.5 -9t60.5 -26.5t41 -44t15 -62.5q0 -31 -13 -62t-50.5 -56.5t-106 -43t-178.5 -21.5q-1 -6 -1 -9.5v-7.5q0 -42 23 -64t76 -22q21 0 38.5 4t34 14.5t33 27t36.5 42.5l91 -59
q-20 -29 -43.5 -54.5t-53.5 -45t-68 -30.5t-87 -11zM345 425q-48 0 -82 -28.5t-48 -95.5l-3 -14q69 4 108.5 13t59 21t24.5 26t5 26q0 52 -64 52zM366 570l-86 46l115 190l114 -60z" />
    <glyph glyph-name="ecircumflex" unicode="&#xea;" 
d="M281 -12q-115 0 -170 58.5t-55 161.5q0 72 22 131t61.5 101t95.5 65t125 23q39 0 73.5 -9t60.5 -26.5t41 -44t15 -62.5q0 -31 -13 -62t-50.5 -56.5t-106 -43t-178.5 -21.5q-1 -6 -1 -9.5v-7.5q0 -42 23 -64t76 -22q21 0 38.5 4t34 14.5t33 27t36.5 42.5l91 -59
q-20 -29 -43.5 -54.5t-53.5 -45t-68 -30.5t-87 -11zM345 425q-48 0 -82 -28.5t-48 -95.5l-3 -14q69 4 108.5 13t59 21t24.5 26t5 26q0 52 -64 52zM446 785l108 -158l-76 -57l-106 115l-134 -115l-70 57l154 158h124z" />
    <glyph glyph-name="edieresis" unicode="&#xeb;" 
d="M281 -12q-115 0 -170 58.5t-55 161.5q0 72 22 131t61.5 101t95.5 65t125 23q39 0 73.5 -9t60.5 -26.5t41 -44t15 -62.5q0 -31 -13 -62t-50.5 -56.5t-106 -43t-178.5 -21.5q-1 -6 -1 -9.5v-7.5q0 -42 23 -64t76 -22q21 0 38.5 4t34 14.5t33 27t36.5 42.5l91 -59
q-20 -29 -43.5 -54.5t-53.5 -45t-68 -30.5t-87 -11zM345 425q-48 0 -82 -28.5t-48 -95.5l-3 -14q69 4 108.5 13t59 21t24.5 26t5 26q0 52 -64 52zM251 592q-41 0 -57.5 15.5t-16.5 38.5q0 5 1.5 13t3.5 22q5 27 23 43.5t62 16.5q41 0 57.5 -15.5t16.5 -38.5q0 -5 -1.5 -13
t-3.5 -22q-5 -27 -23 -43.5t-62 -16.5zM469 592q-41 0 -57.5 15.5t-16.5 38.5q0 5 1.5 13t3.5 22q5 27 23 43.5t62 16.5q41 0 57.5 -15.5t16.5 -38.5q0 -5 -1.5 -13t-3.5 -22q-5 -27 -23 -43.5t-62 -16.5z" />
    <glyph glyph-name="igrave" unicode="&#xec;" 
d="M298 -12q-62 0 -93 32.5t-31 87.5q0 17 2 33t8 47l40 214h-156l19 114h304l-77 -410l17 -5l140 143l80 -71l-61 -70q-51 -57 -95.5 -86t-96.5 -29zM197 747l124 59l77 -196l-87 -39z" />
    <glyph glyph-name="iacute" unicode="&#xed;" 
d="M298 -12q-62 0 -93 32.5t-31 87.5q0 17 2 33t8 47l40 214h-156l19 114h304l-77 -410l17 -5l140 143l80 -71l-61 -70q-51 -57 -95.5 -86t-96.5 -29zM341 570l-86 46l115 190l114 -60z" />
    <glyph glyph-name="icircumflex" unicode="&#xee;" 
d="M298 -12q-62 0 -93 32.5t-31 87.5q0 17 2 33t8 47l40 214h-156l19 114h304l-77 -410l17 -5l140 143l80 -71l-61 -70q-51 -57 -95.5 -86t-96.5 -29zM421 785l108 -158l-76 -57l-106 115l-134 -115l-70 57l154 158h124z" />
    <glyph glyph-name="idieresis" unicode="&#xef;" 
d="M298 -12q-62 0 -93 32.5t-31 87.5q0 17 2 33t8 47l40 214h-156l19 114h304l-77 -410l17 -5l140 143l80 -71l-61 -70q-51 -57 -95.5 -86t-96.5 -29zM226 592q-41 0 -57.5 15.5t-16.5 38.5q0 5 1.5 13t3.5 22q5 27 23 43.5t62 16.5q41 0 57.5 -15.5t16.5 -38.5
q0 -5 -1.5 -13t-3.5 -22q-5 -27 -23 -43.5t-62 -16.5zM444 592q-41 0 -57.5 15.5t-16.5 38.5q0 5 1.5 13t3.5 22q5 27 23 43.5t62 16.5q41 0 57.5 -15.5t16.5 -38.5q0 -5 -1.5 -13t-3.5 -22q-5 -27 -23 -43.5t-62 -16.5z" />
    <glyph glyph-name="eth" unicode="&#xf0;" 
d="M468 648q45 -56 72.5 -129t27.5 -166q0 -94 -23 -163t-64.5 -114t-99 -66.5t-126.5 -21.5q-108 0 -165.5 58t-57.5 158q0 64 19 118.5t52 94t78.5 61.5t98.5 22q57 0 91.5 -25.5t51.5 -70.5l8 4q-6 46 -28 90t-56 85l-102 -55l-41 60l91 48q-31 29 -67.5 55t-77.5 49h223
q11 -9 22.5 -18t22.5 -20l95 51l39 -60zM271 97q51 0 84.5 31t43.5 90l9 54q3 18 3 31q0 43 -24.5 64.5t-67.5 21.5q-51 0 -84.5 -31t-43.5 -90l-9 -54q-3 -18 -3 -31q0 -43 24.5 -64.5t67.5 -21.5z" />
    <glyph glyph-name="ntilde" unicode="&#xf1;" 
d="M25 0l86 516h146l-20 -123h5q29 63 67.5 99t100.5 36q38 0 64.5 -12t43.5 -32.5t25 -47.5t8 -57q0 -22 -2.5 -45t-8.5 -59l-46 -275h-146l49 293q2 14 4.5 28.5t2.5 33.5q0 10 -3 21t-10 20t-18.5 14.5t-28.5 5.5q-26 0 -45 -12t-36 -35q-11 -15 -26.5 -41.5t-20.5 -58.5
l-45 -269h-146zM421 592q-23 0 -39.5 6.5t-33.5 14.5q-20 9 -37.5 15.5t-37.5 6.5q-17 0 -31 -6t-32 -19l-40 67q22 27 53 45.5t71 18.5q23 0 39.5 -6.5t33.5 -14.5q20 -9 37.5 -15.5t37.5 -6.5q17 0 31 6t32 19l40 -67q-22 -27 -53 -45.5t-71 -18.5z" />
    <glyph glyph-name="ograve" unicode="&#xf2;" 
d="M265 -12q-106 0 -164 59.5t-58 162.5q0 74 21.5 133t60 100t92 63t118.5 22q106 0 164 -59.5t58 -162.5q0 -74 -21.5 -133t-60 -100t-92 -63t-118.5 -22zM276 97q48 0 78.5 29t39.5 83l13 78q2 9 3.5 20.5t1.5 20.5q0 46 -23.5 68.5t-64.5 22.5q-48 0 -78.5 -29
t-39.5 -83l-13 -78q-2 -9 -3.5 -20.5t-1.5 -20.5q0 -46 23.5 -68.5t64.5 -22.5zM222 747l124 59l77 -196l-87 -39z" />
    <glyph glyph-name="oacute" unicode="&#xf3;" 
d="M265 -12q-106 0 -164 59.5t-58 162.5q0 74 21.5 133t60 100t92 63t118.5 22q106 0 164 -59.5t58 -162.5q0 -74 -21.5 -133t-60 -100t-92 -63t-118.5 -22zM276 97q48 0 78.5 29t39.5 83l13 78q2 9 3.5 20.5t1.5 20.5q0 46 -23.5 68.5t-64.5 22.5q-48 0 -78.5 -29
t-39.5 -83l-13 -78q-2 -9 -3.5 -20.5t-1.5 -20.5q0 -46 23.5 -68.5t64.5 -22.5zM366 570l-86 46l115 190l114 -60z" />
    <glyph glyph-name="ocircumflex" unicode="&#xf4;" 
d="M265 -12q-106 0 -164 59.5t-58 162.5q0 74 21.5 133t60 100t92 63t118.5 22q106 0 164 -59.5t58 -162.5q0 -74 -21.5 -133t-60 -100t-92 -63t-118.5 -22zM276 97q48 0 78.5 29t39.5 83l13 78q2 9 3.5 20.5t1.5 20.5q0 46 -23.5 68.5t-64.5 22.5q-48 0 -78.5 -29
t-39.5 -83l-13 -78q-2 -9 -3.5 -20.5t-1.5 -20.5q0 -46 23.5 -68.5t64.5 -22.5zM446 785l108 -158l-76 -57l-106 115l-134 -115l-70 57l154 158h124z" />
    <glyph glyph-name="otilde" unicode="&#xf5;" 
d="M265 -12q-106 0 -164 59.5t-58 162.5q0 74 21.5 133t60 100t92 63t118.5 22q106 0 164 -59.5t58 -162.5q0 -74 -21.5 -133t-60 -100t-92 -63t-118.5 -22zM276 97q48 0 78.5 29t39.5 83l13 78q2 9 3.5 20.5t1.5 20.5q0 46 -23.5 68.5t-64.5 22.5q-48 0 -78.5 -29
t-39.5 -83l-13 -78q-2 -9 -3.5 -20.5t-1.5 -20.5q0 -46 23.5 -68.5t64.5 -22.5zM432 592q-23 0 -39.5 6.5t-33.5 14.5q-20 9 -37.5 15.5t-37.5 6.5q-17 0 -31 -6t-32 -19l-40 67q22 27 53 45.5t71 18.5q23 0 39.5 -6.5t33.5 -14.5q20 -9 37.5 -15.5t37.5 -6.5q17 0 31 6
t32 19l40 -67q-22 -27 -53 -45.5t-71 -18.5z" />
    <glyph glyph-name="odieresis" unicode="&#xf6;" 
d="M265 -12q-106 0 -164 59.5t-58 162.5q0 74 21.5 133t60 100t92 63t118.5 22q106 0 164 -59.5t58 -162.5q0 -74 -21.5 -133t-60 -100t-92 -63t-118.5 -22zM276 97q48 0 78.5 29t39.5 83l13 78q2 9 3.5 20.5t1.5 20.5q0 46 -23.5 68.5t-64.5 22.5q-48 0 -78.5 -29
t-39.5 -83l-13 -78q-2 -9 -3.5 -20.5t-1.5 -20.5q0 -46 23.5 -68.5t64.5 -22.5zM251 592q-41 0 -57.5 15.5t-16.5 38.5q0 5 1.5 13t3.5 22q5 27 23 43.5t62 16.5q41 0 57.5 -15.5t16.5 -38.5q0 -5 -1.5 -13t-3.5 -22q-5 -27 -23 -43.5t-62 -16.5zM469 592q-41 0 -57.5 15.5
t-16.5 38.5q0 5 1.5 13t3.5 22q5 27 23 43.5t62 16.5q41 0 57.5 -15.5t16.5 -38.5q0 -5 -1.5 -13t-3.5 -22q-5 -27 -23 -43.5t-62 -16.5z" />
    <glyph glyph-name="divide" unicode="&#xf7;" 
d="M61 247l20 116h476l-20 -116h-476zM266 30q-42 0 -60 15.5t-18 38.5q0 6 1.5 16.5l3.5 24.5q5 27 27 46t67 19q42 0 60 -15.5t18 -38.5q0 -6 -1.5 -16.5l-3.5 -24.5q-5 -27 -27 -46t-67 -19zM330 420q-42 0 -60 15.5t-18 38.5q0 6 1.5 16.5l3.5 24.5q5 27 27 46t67 19
q42 0 60 -15.5t18 -38.5q0 -6 -1.5 -16.5l-3.5 -24.5q-5 -27 -27 -46t-67 -19z" />
    <glyph glyph-name="oslash" unicode="&#xf8;" 
d="M-18 3l87 89q-26 50 -26 118q0 74 21.5 133t60 100t92 63t118.5 22q80 0 134 -36l81 82l68 -61l-87 -89q26 -50 26 -118q0 -74 -21.5 -133t-60 -100t-92 -63t-118.5 -22q-80 0 -134 36l-81 -82zM324 419q-48 0 -78.5 -29t-39.5 -83l-13 -78q-1 -5 -2.5 -14t-1.5 -11
l192 199q-22 16 -57 16zM276 97q49 0 79 29t39 83l13 78q1 5 2.5 14t1.5 11l-192 -199q22 -16 57 -16z" />
    <glyph glyph-name="ugrave" unicode="&#xf9;" 
d="M362 123h-5q-29 -63 -67.5 -99t-100.5 -36q-38 0 -64.5 12t-43.5 32.5t-25 47.5t-8 57q0 22 2.5 45t8.5 59l46 275h146l-49 -292q-2 -14 -4.5 -29t-2.5 -34q0 -10 3 -21t10 -20t18.5 -14.5t28.5 -5.5q26 0 45 12t36 35q11 15 26.5 41.5t20.5 58.5l45 269h146l-86 -516
h-146zM217 747l124 59l77 -196l-87 -39z" />
    <glyph glyph-name="uacute" unicode="&#xfa;" 
d="M362 123h-5q-29 -63 -67.5 -99t-100.5 -36q-38 0 -64.5 12t-43.5 32.5t-25 47.5t-8 57q0 22 2.5 45t8.5 59l46 275h146l-49 -292q-2 -14 -4.5 -29t-2.5 -34q0 -10 3 -21t10 -20t18.5 -14.5t28.5 -5.5q26 0 45 12t36 35q11 15 26.5 41.5t20.5 58.5l45 269h146l-86 -516
h-146zM361 570l-86 46l115 190l114 -60z" />
    <glyph glyph-name="ucircumflex" unicode="&#xfb;" 
d="M362 123h-5q-29 -63 -67.5 -99t-100.5 -36q-38 0 -64.5 12t-43.5 32.5t-25 47.5t-8 57q0 22 2.5 45t8.5 59l46 275h146l-49 -292q-2 -14 -4.5 -29t-2.5 -34q0 -10 3 -21t10 -20t18.5 -14.5t28.5 -5.5q26 0 45 12t36 35q11 15 26.5 41.5t20.5 58.5l45 269h146l-86 -516
h-146zM441 785l108 -158l-76 -57l-106 115l-134 -115l-70 57l154 158h124z" />
    <glyph glyph-name="udieresis" unicode="&#xfc;" 
d="M362 123h-5q-29 -63 -67.5 -99t-100.5 -36q-38 0 -64.5 12t-43.5 32.5t-25 47.5t-8 57q0 22 2.5 45t8.5 59l46 275h146l-49 -292q-2 -14 -4.5 -29t-2.5 -34q0 -10 3 -21t10 -20t18.5 -14.5t28.5 -5.5q26 0 45 12t36 35q11 15 26.5 41.5t20.5 58.5l45 269h146l-86 -516
h-146zM246 592q-41 0 -57.5 15.5t-16.5 38.5q0 5 1.5 13t3.5 22q5 27 23 43.5t62 16.5q41 0 57.5 -15.5t16.5 -38.5q0 -5 -1.5 -13t-3.5 -22q-5 -27 -23 -43.5t-62 -16.5zM464 592q-41 0 -57.5 15.5t-16.5 38.5q0 5 1.5 13t3.5 22q5 27 23 43.5t62 16.5q41 0 57.5 -15.5
t16.5 -38.5q0 -5 -1.5 -13t-3.5 -22q-5 -27 -23 -43.5t-62 -16.5z" />
    <glyph glyph-name="yacute" unicode="&#xfd;" 
d="M217 -212q-72 0 -122 15t-89 61l87 90q24 -29 54.5 -41t65.5 -12q28 0 50 6.5t39 23.5t29 46.5t20 76.5l14 86h-5q-29 -63 -67.5 -99t-100.5 -36q-38 0 -64.5 12t-43.5 32.5t-25 47.5t-8 57q0 22 2.5 45t8.5 59l43 258h146l-46 -275q-2 -14 -4.5 -29t-2.5 -34
q0 -10 3 -21t10 -20t18.5 -14.5t28.5 -5.5q26 0 45 12t36 35q11 15 26.5 41.5t20.5 58.5l42 252h146l-80 -480q-21 -126 -91.5 -187t-185.5 -61zM372 570l-86 46l115 190l114 -60z" />
    <glyph glyph-name="thorn" unicode="&#xfe;" 
d="M144 740h146l-57 -347h5q15 30 31.5 54.5t37 42.5t46 28t58.5 10q41 0 69.5 -14t46.5 -40.5t26.5 -63.5t8.5 -82q0 -77 -17 -139.5t-48 -107t-74.5 -69t-97.5 -24.5q-61 0 -92.5 28.5t-42.5 79.5h-7l-50 -296h-146zM278 101q54 0 83 31.5t39 90.5l10 60q2 9 3 20.5
t1 24.5q-1 37 -15.5 62t-52.5 25q-27 0 -48 -13t-39 -36q-12 -14 -27 -39.5t-20 -57.5l-14 -83q-7 -41 12.5 -63t67.5 -22z" />
    <glyph glyph-name="ydieresis" unicode="&#xff;" 
d="M217 -212q-72 0 -122 15t-89 61l87 90q24 -29 54.5 -41t65.5 -12q28 0 50 6.5t39 23.5t29 46.5t20 76.5l14 86h-5q-29 -63 -67.5 -99t-100.5 -36q-38 0 -64.5 12t-43.5 32.5t-25 47.5t-8 57q0 22 2.5 45t8.5 59l43 258h146l-46 -275q-2 -14 -4.5 -29t-2.5 -34
q0 -10 3 -21t10 -20t18.5 -14.5t28.5 -5.5q26 0 45 12t36 35q11 15 26.5 41.5t20.5 58.5l42 252h146l-80 -480q-21 -126 -91.5 -187t-185.5 -61zM257 592q-41 0 -57.5 15.5t-16.5 38.5q0 5 1.5 13t3.5 22q5 27 23 43.5t62 16.5q41 0 57.5 -15.5t16.5 -38.5q0 -5 -1.5 -13
t-3.5 -22q-5 -27 -23 -43.5t-62 -16.5zM475 592q-41 0 -57.5 15.5t-16.5 38.5q0 5 1.5 13t3.5 22q5 27 23 43.5t62 16.5q41 0 57.5 -15.5t16.5 -38.5q0 -5 -1.5 -13t-3.5 -22q-5 -27 -23 -43.5t-62 -16.5z" />
    <glyph glyph-name="Amacron" unicode="&#x100;" 
d="M400 0l-17 169h-196l-69 -169h-155l307 698h206l76 -698h-152zM356 553h-9l-110 -264h140zM249 888h305l-17 -102h-305z" />
    <glyph glyph-name="amacron" unicode="&#x101;" 
d="M181 -12q-41 0 -68 14.5t-44 41t-24 64.5t-7 85q0 75 16 136.5t46 105.5t73.5 68.5t97.5 24.5q59 0 87.5 -28.5t39.5 -79.5h7l16 96h146l-68 -409h53l-18 -107h-75q-57 0 -85.5 28t-20.5 82l2 13h-5q-15 -30 -30.5 -54.5t-35 -42.5t-44.5 -28t-59 -10zM247 101
q26 0 47 13t38 35q11 14 25 40t19 58l14 83q7 41 -9.5 63t-63.5 22q-55 0 -81 -31.5t-36 -90.5l-10 -60q-2 -9 -3 -20.5t-1 -25.5q0 -36 13 -61t48 -25zM207 718h305l-17 -102h-305z" />
    <glyph glyph-name="Abreve" unicode="&#x102;" 
d="M400 0l-17 169h-196l-69 -169h-155l307 698h206l76 -698h-152zM356 553h-9l-110 -264h140zM391 740q-42 0 -72.5 15t-51.5 39t-34 54.5t-21 61.5l81 42l20 -37q18 -34 35 -53t49 -19q27 0 47 18.5t47 55.5l26 35l83 -42q-16 -32 -35.5 -62.5t-44.5 -54.5t-56.5 -38.5
t-72.5 -14.5z" />
    <glyph glyph-name="abreve" unicode="&#x103;" 
d="M181 -12q-41 0 -68 14.5t-44 41t-24 64.5t-7 85q0 75 16 136.5t46 105.5t73.5 68.5t97.5 24.5q59 0 87.5 -28.5t39.5 -79.5h7l16 96h146l-68 -409h53l-18 -107h-75q-57 0 -85.5 28t-20.5 82l2 13h-5q-15 -30 -30.5 -54.5t-35 -42.5t-44.5 -28t-59 -10zM247 101
q26 0 47 13t38 35q11 14 25 40t19 58l14 83q7 41 -9.5 63t-63.5 22q-55 0 -81 -31.5t-36 -90.5l-10 -60q-2 -9 -3 -20.5t-1 -25.5q0 -36 13 -61t48 -25zM349 570q-42 0 -72.5 15t-51.5 39t-34 54.5t-21 61.5l81 42l20 -37q18 -34 35 -53t49 -19q27 0 47 18.5t47 55.5l26 35
l83 -42q-16 -32 -35.5 -62.5t-44.5 -54.5t-56.5 -38.5t-72.5 -14.5z" />
    <glyph glyph-name="Aogonek" unicode="&#x104;" 
d="M270 698h206l76 -698q-39 -24 -62 -41t-35 -30t-15.5 -22.5t-3.5 -16.5q0 -13 8.5 -21.5t28.5 -8.5q15 0 28.5 5.5t24.5 21.5l54 -45q-19 -24 -48.5 -39t-72.5 -15q-54 0 -88 21.5t-34 63.5q0 37 32.5 70t107.5 53l-1 4h-76l-17 169h-196l-69 -169h-155zM356 553h-9
l-110 -264h140z" />
    <glyph glyph-name="aogonek" unicode="&#x105;" 
d="M441 -212q-54 0 -88 21.5t-34 63.5q0 37 32.5 70t107.5 53l-1 4q-57 0 -85 28t-20 82l2 13h-5q-15 -30 -30.5 -54.5t-35 -42.5t-44.5 -28t-59 -10q-41 0 -68 14.5t-44 41t-24 64.5t-7 85q0 75 16 136.5t46 105.5t73.5 68.5t97.5 24.5q59 0 87.5 -28.5t39.5 -79.5h7l16 96
h146l-68 -409h53l-18 -107q-39 -24 -62 -41t-35 -30t-15.5 -22.5t-3.5 -16.5q0 -13 8.5 -21.5t28.5 -8.5q15 0 28.5 5.5t24.5 21.5l54 -45q-19 -24 -48.5 -39t-72.5 -15zM247 101q26 0 47 13t38 35q11 14 25 40t19 58l14 83q7 41 -9.5 63t-63.5 22q-55 0 -81 -31.5
t-36 -90.5l-10 -60q-2 -9 -3 -20.5t-1 -25.5q0 -36 13 -61t48 -25z" />
    <glyph glyph-name="Cacute" unicode="&#x106;" 
d="M290 -12q-123 0 -181.5 70.5t-58.5 195.5q0 102 23 186t65 144t101.5 93t133.5 33q58 0 100.5 -15t70.5 -42t42.5 -65t17.5 -83l-143 -29q-2 25 -6.5 46t-15 36t-28 23.5t-44.5 8.5q-62 0 -95 -49t-47 -133l-18 -109q-3 -18 -5.5 -36t-2.5 -42q0 -53 23 -83t78 -30
q24 0 44 9.5t36 25.5t29 37.5t23 46.5l127 -38q-41 -98 -104.5 -149.5t-164.5 -51.5zM394 740l-86 46l115 190l114 -60z" />
    <glyph glyph-name="cacute" unicode="&#x107;" 
d="M273 -12q-106 0 -161 57t-55 161q0 66 19 124.5t55 102.5t89.5 69.5t122.5 25.5q89 0 136 -36t64 -95l-119 -56q-11 32 -30 51t-63 19q-43 0 -72.5 -28t-38.5 -82l-10 -60q-2 -9 -3 -22t-1 -25q0 -40 20.5 -64.5t70.5 -24.5q16 0 30 3.5t30.5 15.5t37 33.5t47.5 57.5
l91 -59q-26 -41 -52 -72t-57 -52.5t-68 -32.5t-83 -11zM362 570l-86 46l115 190l114 -60z" />
    <glyph glyph-name="Ccircumflex" unicode="&#x108;" 
d="M290 -12q-123 0 -181.5 70.5t-58.5 195.5q0 102 23 186t65 144t101.5 93t133.5 33q58 0 100.5 -15t70.5 -42t42.5 -65t17.5 -83l-143 -29q-2 25 -6.5 46t-15 36t-28 23.5t-44.5 8.5q-62 0 -95 -49t-47 -133l-18 -109q-3 -18 -5.5 -36t-2.5 -42q0 -53 23 -83t78 -30
q24 0 44 9.5t36 25.5t29 37.5t23 46.5l127 -38q-41 -98 -104.5 -149.5t-164.5 -51.5zM474 955l108 -158l-76 -57l-106 115l-134 -115l-70 57l154 158h124z" />
    <glyph glyph-name="ccircumflex" unicode="&#x109;" 
d="M273 -12q-106 0 -161 57t-55 161q0 66 19 124.5t55 102.5t89.5 69.5t122.5 25.5q89 0 136 -36t64 -95l-119 -56q-11 32 -30 51t-63 19q-43 0 -72.5 -28t-38.5 -82l-10 -60q-2 -9 -3 -22t-1 -25q0 -40 20.5 -64.5t70.5 -24.5q16 0 30 3.5t30.5 15.5t37 33.5t47.5 57.5
l91 -59q-26 -41 -52 -72t-57 -52.5t-68 -32.5t-83 -11zM442 785l108 -158l-76 -57l-106 115l-134 -115l-70 57l154 158h124z" />
    <glyph glyph-name="Cdotaccent" unicode="&#x10a;" 
d="M290 -12q-123 0 -181.5 70.5t-58.5 195.5q0 102 23 186t65 144t101.5 93t133.5 33q58 0 100.5 -15t70.5 -42t42.5 -65t17.5 -83l-143 -29q-2 25 -6.5 46t-15 36t-28 23.5t-44.5 8.5q-62 0 -95 -49t-47 -133l-18 -109q-3 -18 -5.5 -36t-2.5 -42q0 -53 23 -83t78 -30
q24 0 44 9.5t36 25.5t29 37.5t23 46.5l127 -38q-41 -98 -104.5 -149.5t-164.5 -51.5zM388 754q-45 0 -63.5 17.5t-18.5 43.5q0 5 1 13.5t4 26.5q5 32 27 49t67 17t63.5 -17.5t18.5 -43.5q0 -5 -1 -13.5t-4 -26.5q-5 -32 -27 -49t-67 -17z" />
    <glyph glyph-name="cdotaccent" unicode="&#x10b;" 
d="M273 -12q-106 0 -161 57t-55 161q0 66 19 124.5t55 102.5t89.5 69.5t122.5 25.5q89 0 136 -36t64 -95l-119 -56q-11 32 -30 51t-63 19q-43 0 -72.5 -28t-38.5 -82l-10 -60q-2 -9 -3 -22t-1 -25q0 -40 20.5 -64.5t70.5 -24.5q16 0 30 3.5t30.5 15.5t37 33.5t47.5 57.5
l91 -59q-26 -41 -52 -72t-57 -52.5t-68 -32.5t-83 -11zM356 584q-45 0 -63.5 17.5t-18.5 43.5q0 5 1 13.5t4 26.5q5 32 27 49t67 17t63.5 -17.5t18.5 -43.5q0 -5 -1 -13.5t-4 -26.5q-5 -32 -27 -49t-67 -17z" />
    <glyph glyph-name="Ccaron" unicode="&#x10c;" 
d="M290 -12q-123 0 -181.5 70.5t-58.5 195.5q0 102 23 186t65 144t101.5 93t133.5 33q58 0 100.5 -15t70.5 -42t42.5 -65t17.5 -83l-143 -29q-2 25 -6.5 46t-15 36t-28 23.5t-44.5 8.5q-62 0 -95 -49t-47 -133l-18 -109q-3 -18 -5.5 -36t-2.5 -42q0 -53 23 -83t78 -30
q24 0 44 9.5t36 25.5t29 37.5t23 46.5l127 -38q-41 -98 -104.5 -149.5t-164.5 -51.5zM324 749l-108 158l76 57l106 -115l134 115l70 -57l-154 -158h-124z" />
    <glyph glyph-name="ccaron" unicode="&#x10d;" 
d="M273 -12q-106 0 -161 57t-55 161q0 66 19 124.5t55 102.5t89.5 69.5t122.5 25.5q89 0 136 -36t64 -95l-119 -56q-11 32 -30 51t-63 19q-43 0 -72.5 -28t-38.5 -82l-10 -60q-2 -9 -3 -22t-1 -25q0 -40 20.5 -64.5t70.5 -24.5q16 0 30 3.5t30.5 15.5t37 33.5t47.5 57.5
l91 -59q-26 -41 -52 -72t-57 -52.5t-68 -32.5t-83 -11zM292 579l-108 158l76 57l106 -115l134 115l70 -57l-154 -158h-124z" />
    <glyph glyph-name="Dcaron" unicode="&#x10e;" 
d="M142 698h205q118 0 179.5 -66t61.5 -191q0 -103 -22 -185t-64.5 -139t-105.5 -87t-144 -30h-227zM255 117q67 0 105 38.5t52 119.5l21 126q3 18 4.5 36t1.5 32q0 112 -105 112h-65l-77 -464h63zM274 749l-108 158l76 57l106 -115l134 115l70 -57l-154 -158h-124z" />
    <glyph glyph-name="dcaron" unicode="&#x10f;" 
d="M150 -12q-71 0 -101.5 54.5t-30.5 145.5q0 77 14.5 139.5t41 107t63.5 69t82 24.5q52 0 77 -28.5t36 -79.5h6l54 320h139l-124 -740h-139l16 95h-7q-12 -23 -24 -43t-27 -34t-33.5 -22t-42.5 -8zM213 101q17 0 26 5t19 13q13 12 26.5 35.5t18.5 55.5l21 124q7 38 -8 59.5
t-49 21.5q-38 0 -57.5 -31t-28.5 -85l-11 -66q-2 -14 -3.5 -28.5t-1.5 -32.5q0 -30 12.5 -50.5t35.5 -20.5zM582 740h129l-89 -210h-76z" />
    <glyph glyph-name="Dcroat" unicode="&#x110;" 
d="M77 312h-57l19 112h58l45 274h205q118 0 179.5 -66t61.5 -191q0 -103 -22 -185t-64.5 -139t-105.5 -87t-144 -30h-227zM255 117q67 0 105 38.5t52 119.5l21 126q3 18 4.5 36t1.5 32q0 112 -105 112h-65l-27 -162h110l-17 -102h-110l-33 -200h63z" />
    <glyph glyph-name="dcroat" unicode="&#x111;" 
d="M367 123h-5q-15 -30 -31.5 -54.5t-37 -42.5t-46 -28t-58.5 -10q-41 0 -69.5 14t-46.5 40.5t-26.5 63.5t-8.5 82q0 77 17 139.5t48 107t74.5 69t97.5 24.5q61 0 92.5 -28.5t42.5 -79.5h7l27 161h-140l18 108h140l9 51h146l-9 -51h54l-18 -108h-54l-97 -581h-146zM254 101
q27 0 48 13t39 36q12 14 27 39.5t20 57.5l14 83q7 41 -12.5 63t-67.5 22q-54 0 -83 -31.5t-39 -90.5l-10 -60q-2 -9 -3 -20.5t-1 -24.5q1 -37 15.5 -62t52.5 -25z" />
    <glyph glyph-name="Emacron" unicode="&#x112;" 
d="M38 0l117 698h446l-20 -122h-300l-27 -162h286l-20 -122h-287l-28 -170h299l-20 -122h-446zM252 888h305l-17 -102h-305z" />
    <glyph glyph-name="emacron" unicode="&#x113;" 
d="M281 -12q-115 0 -170 58.5t-55 161.5q0 72 22 131t61.5 101t95.5 65t125 23q39 0 73.5 -9t60.5 -26.5t41 -44t15 -62.5q0 -31 -13 -62t-50.5 -56.5t-106 -43t-178.5 -21.5q-1 -6 -1 -9.5v-7.5q0 -42 23 -64t76 -22q21 0 38.5 4t34 14.5t33 27t36.5 42.5l91 -59
q-20 -29 -43.5 -54.5t-53.5 -45t-68 -30.5t-87 -11zM345 425q-48 0 -82 -28.5t-48 -95.5l-3 -14q69 4 108.5 13t59 21t24.5 26t5 26q0 52 -64 52zM224 718h305l-17 -102h-305z" />
    <glyph glyph-name="Ebreve" unicode="&#x114;" 
d="M38 0l117 698h446l-20 -122h-300l-27 -162h286l-20 -122h-287l-28 -170h299l-20 -122h-446zM394 740q-42 0 -72.5 15t-51.5 39t-34 54.5t-21 61.5l81 42l20 -37q18 -34 35 -53t49 -19q27 0 47 18.5t47 55.5l26 35l83 -42q-16 -32 -35.5 -62.5t-44.5 -54.5t-56.5 -38.5
t-72.5 -14.5z" />
    <glyph glyph-name="ebreve" unicode="&#x115;" 
d="M281 -12q-115 0 -170 58.5t-55 161.5q0 72 22 131t61.5 101t95.5 65t125 23q39 0 73.5 -9t60.5 -26.5t41 -44t15 -62.5q0 -31 -13 -62t-50.5 -56.5t-106 -43t-178.5 -21.5q-1 -6 -1 -9.5v-7.5q0 -42 23 -64t76 -22q21 0 38.5 4t34 14.5t33 27t36.5 42.5l91 -59
q-20 -29 -43.5 -54.5t-53.5 -45t-68 -30.5t-87 -11zM345 425q-48 0 -82 -28.5t-48 -95.5l-3 -14q69 4 108.5 13t59 21t24.5 26t5 26q0 52 -64 52zM366 570q-42 0 -72.5 15t-51.5 39t-34 54.5t-21 61.5l81 42l20 -37q18 -34 35 -53t49 -19q27 0 47 18.5t47 55.5l26 35l83 -42
q-16 -32 -35.5 -62.5t-44.5 -54.5t-56.5 -38.5t-72.5 -14.5z" />
    <glyph glyph-name="Edotaccent" unicode="&#x116;" 
d="M38 0l117 698h446l-20 -122h-300l-27 -162h286l-20 -122h-287l-28 -170h299l-20 -122h-446zM388 754q-45 0 -63.5 17.5t-18.5 43.5q0 5 1 13.5t4 26.5q5 32 27 49t67 17t63.5 -17.5t18.5 -43.5q0 -5 -1 -13.5t-4 -26.5q-5 -32 -27 -49t-67 -17z" />
    <glyph glyph-name="edotaccent" unicode="&#x117;" 
d="M281 -12q-115 0 -170 58.5t-55 161.5q0 72 22 131t61.5 101t95.5 65t125 23q39 0 73.5 -9t60.5 -26.5t41 -44t15 -62.5q0 -31 -13 -62t-50.5 -56.5t-106 -43t-178.5 -21.5q-1 -6 -1 -9.5v-7.5q0 -42 23 -64t76 -22q21 0 38.5 4t34 14.5t33 27t36.5 42.5l91 -59
q-20 -29 -43.5 -54.5t-53.5 -45t-68 -30.5t-87 -11zM345 425q-48 0 -82 -28.5t-48 -95.5l-3 -14q69 4 108.5 13t59 21t24.5 26t5 26q0 52 -64 52zM360 584q-45 0 -63.5 17.5t-18.5 43.5q0 5 1 13.5t4 26.5q5 32 27 49t67 17t63.5 -17.5t18.5 -43.5q0 -5 -1 -13.5t-4 -26.5
q-5 -32 -27 -49t-67 -17z" />
    <glyph glyph-name="Eogonek" unicode="&#x118;" 
d="M155 698h446l-20 -122h-300l-27 -162h286l-20 -122h-286l-29 -170h299l-20 -122q-39 -24 -62 -41t-35 -30t-15.5 -22.5t-3.5 -16.5q0 -13 8.5 -21.5t28.5 -8.5q15 0 28.5 5.5t24.5 21.5l54 -45q-19 -24 -48.5 -39t-72.5 -15q-54 0 -88 21.5t-34 63.5q0 37 32.5 70
t107.5 53l-1 4h-370z" />
    <glyph glyph-name="eogonek" unicode="&#x119;" 
d="M326 -212q-54 0 -88 21.5t-34 63.5q0 38 31 67t82 46l-1 4q-5 -1 -16 -1.5t-19 -0.5q-115 0 -170 58.5t-55 161.5q0 72 22 131t61.5 101t95.5 65t125 23q39 0 73.5 -9t60.5 -26.5t41 -44t15 -62.5q0 -31 -13 -62t-50.5 -56.5t-106 -43t-178.5 -21.5q-1 -5 -1 -9v-9
q0 -41 23.5 -63t75.5 -22q21 0 38.5 4t34 14.5t33 27t36.5 42.5l91 -59q-11 -16 -23 -30.5t-26 -29t-32 -28.5t-42 -29q-63 -40 -85 -68t-22 -50q0 -19 10 -26.5t27 -7.5q15 0 28.5 5.5t24.5 21.5l54 -45q-19 -24 -48.5 -39t-72.5 -15zM345 425q-48 0 -82 -28.5t-48 -95.5
l-3 -14q69 4 108.5 13t59 21t24.5 26t5 26q0 52 -64 52z" />
    <glyph glyph-name="Ecaron" unicode="&#x11a;" 
d="M38 0l117 698h446l-20 -122h-300l-27 -162h286l-20 -122h-287l-28 -170h299l-20 -122h-446zM324 749l-108 158l76 57l106 -115l134 115l70 -57l-154 -158h-124z" />
    <glyph glyph-name="ecaron" unicode="&#x11b;" 
d="M281 -12q-115 0 -170 58.5t-55 161.5q0 72 22 131t61.5 101t95.5 65t125 23q39 0 73.5 -9t60.5 -26.5t41 -44t15 -62.5q0 -31 -13 -62t-50.5 -56.5t-106 -43t-178.5 -21.5q-1 -6 -1 -9.5v-7.5q0 -42 23 -64t76 -22q21 0 38.5 4t34 14.5t33 27t36.5 42.5l91 -59
q-20 -29 -43.5 -54.5t-53.5 -45t-68 -30.5t-87 -11zM345 425q-48 0 -82 -28.5t-48 -95.5l-3 -14q69 4 108.5 13t59 21t24.5 26t5 26q0 52 -64 52zM296 579l-108 158l76 57l106 -115l134 115l70 -57l-154 -158h-124z" />
    <glyph glyph-name="Gcircumflex" unicode="&#x11c;" 
d="M390 101h-9q-13 -23 -27 -43.5t-31.5 -36t-40 -24.5t-52.5 -9q-86 0 -135.5 65t-49.5 192q0 99 20.5 184.5t61 147.5t101 97.5t140.5 35.5q54 0 94 -15t67 -42.5t42 -65.5t18 -83l-143 -28q-2 22 -6.5 43t-15 36.5t-27 25t-42.5 9.5q-57 0 -88.5 -48t-45.5 -129l-17 -102
q-3 -18 -5.5 -42.5t-2.5 -44.5q0 -53 22.5 -84.5t70.5 -31.5q53 0 83 33t38 78l8 48h-123l17 105h254l-62 -372h-131zM467 955l108 -158l-76 -57l-106 115l-134 -115l-70 57l154 158h124z" />
    <glyph glyph-name="gcircumflex" unicode="&#x11d;" 
d="M224 -212q-72 0 -122 15t-89 61l87 90q24 -29 54.5 -41t65.5 -12q28 0 50 6t39.5 23t29.5 47t20 77l15 89h-6q-14 -30 -30.5 -54.5t-36.5 -42.5t-46 -28t-59 -10q-42 0 -71 15t-48 42t-27.5 63.5t-8.5 79.5q0 70 16 129t46.5 101.5t74 66t97.5 23.5q63 0 94 -28.5
t42 -79.5h8l16 96h146l-80 -480q-21 -126 -91.5 -187t-185.5 -61zM260 122q27 0 47 12.5t38 33.5q12 14 27.5 38t21.5 60l11 67q6 36 -12.5 59t-67.5 23q-56 0 -85 -34t-38 -88l-7 -42q-2 -9 -3 -21t-1 -28q0 -33 15.5 -56.5t53.5 -23.5zM434 785l108 -158l-76 -57l-106 115
l-134 -115l-70 57l154 158h124z" />
    <glyph glyph-name="Gbreve" unicode="&#x11e;" 
d="M390 101h-9q-13 -23 -27 -43.5t-31.5 -36t-40 -24.5t-52.5 -9q-86 0 -135.5 65t-49.5 192q0 99 20.5 184.5t61 147.5t101 97.5t140.5 35.5q54 0 94 -15t67 -42.5t42 -65.5t18 -83l-143 -28q-2 22 -6.5 43t-15 36.5t-27 25t-42.5 9.5q-57 0 -88.5 -48t-45.5 -129l-17 -102
q-3 -18 -5.5 -42.5t-2.5 -44.5q0 -53 22.5 -84.5t70.5 -31.5q53 0 83 33t38 78l8 48h-123l17 105h254l-62 -372h-131zM387 740q-42 0 -72.5 15t-51.5 39t-34 54.5t-21 61.5l81 42l20 -37q18 -34 35 -53t49 -19q27 0 47 18.5t47 55.5l26 35l83 -42q-16 -32 -35.5 -62.5
t-44.5 -54.5t-56.5 -38.5t-72.5 -14.5z" />
    <glyph glyph-name="gbreve" unicode="&#x11f;" 
d="M224 -212q-72 0 -122 15t-89 61l87 90q24 -29 54.5 -41t65.5 -12q28 0 50 6t39.5 23t29.5 47t20 77l15 89h-6q-14 -30 -30.5 -54.5t-36.5 -42.5t-46 -28t-59 -10q-42 0 -71 15t-48 42t-27.5 63.5t-8.5 79.5q0 70 16 129t46.5 101.5t74 66t97.5 23.5q63 0 94 -28.5
t42 -79.5h8l16 96h146l-80 -480q-21 -126 -91.5 -187t-185.5 -61zM260 122q27 0 47 12.5t38 33.5q12 14 27.5 38t21.5 60l11 67q6 36 -12.5 59t-67.5 23q-56 0 -85 -34t-38 -88l-7 -42q-2 -9 -3 -21t-1 -28q0 -33 15.5 -56.5t53.5 -23.5zM354 570q-42 0 -72.5 15t-51.5 39
t-34 54.5t-21 61.5l81 42l20 -37q18 -34 35 -53t49 -19q27 0 47 18.5t47 55.5l26 35l83 -42q-16 -32 -35.5 -62.5t-44.5 -54.5t-56.5 -38.5t-72.5 -14.5z" />
    <glyph glyph-name="Gdotaccent" unicode="&#x120;" 
d="M390 101h-9q-13 -23 -27 -43.5t-31.5 -36t-40 -24.5t-52.5 -9q-86 0 -135.5 65t-49.5 192q0 99 20.5 184.5t61 147.5t101 97.5t140.5 35.5q54 0 94 -15t67 -42.5t42 -65.5t18 -83l-143 -28q-2 22 -6.5 43t-15 36.5t-27 25t-42.5 9.5q-57 0 -88.5 -48t-45.5 -129l-17 -102
q-3 -18 -5.5 -42.5t-2.5 -44.5q0 -53 22.5 -84.5t70.5 -31.5q53 0 83 33t38 78l8 48h-123l17 105h254l-62 -372h-131zM381 754q-45 0 -63.5 17.5t-18.5 43.5q0 5 1 13.5t4 26.5q5 32 27 49t67 17t63.5 -17.5t18.5 -43.5q0 -5 -1 -13.5t-4 -26.5q-5 -32 -27 -49t-67 -17z" />
    <glyph glyph-name="gdotaccent" unicode="&#x121;" 
d="M224 -212q-72 0 -122 15t-89 61l87 90q24 -29 54.5 -41t65.5 -12q28 0 50 6t39.5 23t29.5 47t20 77l15 89h-6q-14 -30 -30.5 -54.5t-36.5 -42.5t-46 -28t-59 -10q-42 0 -71 15t-48 42t-27.5 63.5t-8.5 79.5q0 70 16 129t46.5 101.5t74 66t97.5 23.5q63 0 94 -28.5
t42 -79.5h8l16 96h146l-80 -480q-21 -126 -91.5 -187t-185.5 -61zM260 122q27 0 47 12.5t38 33.5q12 14 27.5 38t21.5 60l11 67q6 36 -12.5 59t-67.5 23q-56 0 -85 -34t-38 -88l-7 -42q-2 -9 -3 -21t-1 -28q0 -33 15.5 -56.5t53.5 -23.5zM348 584q-45 0 -63.5 17.5
t-18.5 43.5q0 5 1 13.5t4 26.5q5 32 27 49t67 17t63.5 -17.5t18.5 -43.5q0 -5 -1 -13.5t-4 -26.5q-5 -32 -27 -49t-67 -17z" />
    <glyph glyph-name="Gcommaaccent" unicode="&#x122;" 
d="M390 101h-9q-13 -23 -27 -43.5t-31.5 -36t-40 -24.5t-52.5 -9q-86 0 -135.5 65t-49.5 192q0 99 20.5 184.5t61 147.5t101 97.5t140.5 35.5q54 0 94 -15t67 -42.5t42 -65.5t18 -83l-143 -28q-2 22 -6.5 43t-15 36.5t-27 25t-42.5 9.5q-57 0 -88.5 -48t-45.5 -129l-17 -102
q-3 -18 -5.5 -42.5t-2.5 -44.5q0 -53 22.5 -84.5t70.5 -31.5q53 0 83 33t38 78l8 48h-123l17 105h254l-62 -372h-131zM212 -54h156l-121 -215h-88z" />
    <glyph glyph-name="gcommaaccent" unicode="&#x123;" 
d="M224 -212q-72 0 -122 15t-89 61l87 90q24 -29 54.5 -41t65.5 -12q28 0 50 6t39.5 23t29.5 47t20 77l15 89h-6q-14 -30 -30.5 -54.5t-36.5 -42.5t-46 -28t-59 -10q-42 0 -71 15t-48 42t-27.5 63.5t-8.5 79.5q0 70 16 129t46.5 101.5t74 66t97.5 23.5q63 0 94 -28.5
t42 -79.5h8l16 96h146l-80 -480q-21 -126 -91.5 -187t-185.5 -61zM260 122q27 0 47 12.5t38 33.5q12 14 27.5 38t21.5 60l11 67q6 36 -12.5 59t-67.5 23q-56 0 -85 -34t-38 -88l-7 -42q-2 -9 -3 -21t-1 -28q0 -33 15.5 -56.5t53.5 -23.5zM384 794h88l-53 -215h-156z" />
    <glyph glyph-name="Hcircumflex" unicode="&#x124;" 
d="M397 293h-180l-49 -293h-148l116 698h148l-47 -284h180l47 284h148l-116 -698h-148zM475 955l108 -158l-76 -57l-106 115l-134 -115l-70 57l154 158h124z" />
    <glyph glyph-name="hcircumflex" unicode="&#x125;" 
d="M148 740h146l-57 -347h5q29 63 67.5 99t100.5 36q38 0 64.5 -12t43.5 -32.5t25 -47.5t8 -57q0 -22 -2.5 -45t-8.5 -59l-46 -275h-146l49 293q2 14 4.5 28.5t2.5 33.5q0 10 -3 21t-10 20t-18.5 14.5t-28.5 5.5q-26 0 -45 -12t-36 -35q-11 -15 -26.5 -41.5t-20.5 -58.5
l-45 -269h-146zM317 967l108 -158l-76 -57l-106 115l-134 -115l-70 57l154 158h124z" />
    <glyph glyph-name="Hbar" unicode="&#x126;" 
d="M397 293h-180l-49 -293h-148l85 507h-53l19 112h52l13 79h148l-14 -86h180l14 86h148l-13 -79h53l-19 -112h-52l-85 -507h-148zM417 414l17 100h-180l-16 -100h179z" />
    <glyph glyph-name="hbar" unicode="&#x127;" 
d="M122 581h-59l18 108h59l8 51h146l-8 -51h135l-18 -108h-135l-31 -188h5q29 63 67.5 99t100.5 36q38 0 64.5 -12t43.5 -32.5t25 -47.5t8 -57q0 -22 -2.5 -45t-8.5 -59l-46 -275h-146l49 292q2 14 4.5 29t2.5 34q0 10 -3 21t-10 20t-18.5 14.5t-28.5 5.5q-26 0 -45 -12
t-36 -35q-11 -15 -26.5 -41.5t-20.5 -58.5l-45 -269h-146z" />
    <glyph glyph-name="Itilde" unicode="&#x128;" 
d="M32 0l18 110h151l80 478h-151l18 110h450l-18 -110h-151l-80 -478h151l-18 -110h-450zM461 762q-23 0 -39.5 6.5t-33.5 14.5q-20 9 -37.5 15.5t-37.5 6.5q-17 0 -31 -6t-32 -19l-40 67q22 27 53 45.5t71 18.5q23 0 39.5 -6.5t33.5 -14.5q20 -9 37.5 -15.5t37.5 -6.5
q17 0 31 6t32 19l40 -67q-22 -27 -53 -45.5t-71 -18.5z" />
    <glyph glyph-name="itilde" unicode="&#x129;" 
d="M298 -12q-62 0 -93 32.5t-31 87.5q0 17 2 33t8 47l40 214h-156l19 114h304l-77 -410l17 -5l140 143l80 -71l-61 -70q-51 -57 -95.5 -86t-96.5 -29zM407 592q-23 0 -39.5 6.5t-33.5 14.5q-20 9 -37.5 15.5t-37.5 6.5q-17 0 -31 -6t-32 -19l-40 67q22 27 53 45.5t71 18.5
q23 0 39.5 -6.5t33.5 -14.5q20 -9 37.5 -15.5t37.5 -6.5q17 0 31 6t32 19l40 -67q-22 -27 -53 -45.5t-71 -18.5z" />
    <glyph glyph-name="Imacron" unicode="&#x12a;" 
d="M32 0l18 110h151l80 478h-151l18 110h450l-18 -110h-151l-80 -478h151l-18 -110h-450zM253 888h305l-17 -102h-305z" />
    <glyph glyph-name="imacron" unicode="&#x12b;" 
d="M298 -12q-62 0 -93 32.5t-31 87.5q0 17 2 33t8 47l40 214h-156l19 114h304l-77 -410l17 -5l140 143l80 -71l-61 -70q-51 -57 -95.5 -86t-96.5 -29zM199 718h305l-17 -102h-305z" />
    <glyph glyph-name="Ibreve" unicode="&#x12c;" 
d="M32 0l18 110h151l80 478h-151l18 110h450l-18 -110h-151l-80 -478h151l-18 -110h-450zM395 740q-42 0 -72.5 15t-51.5 39t-34 54.5t-21 61.5l81 42l20 -37q18 -34 35 -53t49 -19q27 0 47 18.5t47 55.5l26 35l83 -42q-16 -32 -35.5 -62.5t-44.5 -54.5t-56.5 -38.5
t-72.5 -14.5z" />
    <glyph glyph-name="ibreve" unicode="&#x12d;" 
d="M298 -12q-62 0 -93 32.5t-31 87.5q0 17 2 33t8 47l40 214h-156l19 114h304l-77 -410l17 -5l140 143l80 -71l-61 -70q-51 -57 -95.5 -86t-96.5 -29zM341 570q-42 0 -72.5 15t-51.5 39t-34 54.5t-21 61.5l81 42l20 -37q18 -34 35 -53t49 -19q27 0 47 18.5t47 55.5l26 35
l83 -42q-16 -32 -35.5 -62.5t-44.5 -54.5t-56.5 -38.5t-72.5 -14.5z" />
    <glyph glyph-name="Iogonek" unicode="&#x12e;" 
d="M50 110h151l80 478h-151l18 110h450l-18 -110h-151l-80 -478h151l-18 -110q-39 -24 -62 -41t-35 -30t-15 -22.5t-3 -16.5q0 -13 8.5 -21.5t28.5 -8.5q15 0 28.5 5.5t24.5 21.5l54 -45q-19 -24 -48.5 -39t-72.5 -15q-54 0 -88 21.5t-34 63.5q0 37 32.5 70t107.5 53l-1 4
h-375z" />
    <glyph glyph-name="iogonek" unicode="&#x12f;" 
d="M336 -212q-54 0 -88 21.5t-34 63.5q0 39 29.5 65t73.5 47l-2 4q-6 -1 -8.5 -1h-8.5q-62 0 -93 32.5t-31 87.5q0 17 2 33t8 47l40 214h-156l19 114h304l-77 -410l17 -5l140 143l80 -71l-147 -153q-22 -23 -39 -41t-28.5 -32.5t-17.5 -28t-6 -27.5q0 -31 37 -31
q15 0 28.5 5.5t24.5 21.5l54 -45q-19 -24 -48.5 -39t-72.5 -15zM338 584q-44 0 -62.5 17.5t-18.5 44.5q0 5 0.5 11t3.5 27q5 30 26 48.5t69 18.5q45 0 63.5 -17.5t18.5 -43.5q0 -5 -0.5 -11.5t-4.5 -28.5q-5 -29 -25.5 -47.5t-69.5 -18.5z" />
    <glyph glyph-name="Idotaccent" unicode="&#x130;" 
d="M32 0l18 110h151l80 478h-151l18 110h450l-18 -110h-151l-80 -478h151l-18 -110h-450zM389 754q-45 0 -63.5 17.5t-18.5 43.5q0 5 1 13.5t4 26.5q5 32 27 49t67 17t63.5 -17.5t18.5 -43.5q0 -5 -1 -13.5t-4 -26.5q-5 -32 -27 -49t-67 -17z" />
    <glyph glyph-name="dotlessi" unicode="&#x131;" 
d="M298 -12q-62 0 -93 32.5t-31 87.5q0 17 2 33t8 47l40 214h-156l19 114h304l-77 -410l17 -5l140 143l80 -71l-61 -70q-51 -57 -95.5 -86t-96.5 -29z" />
    <glyph glyph-name="IJ" unicode="&#x132;" 
d="M643 698l-82 -493q-19 -113 -85.5 -165t-172.5 -52q-105 0 -158.5 54.5t-55.5 142.5l139 26q2 -44 20 -73.5t66 -29.5q40 0 65 25t34 79l81 486h149zM180 698h148l-65 -390h-148z" />
    <glyph glyph-name="ij" unicode="&#x133;" 
d="M116 516h146l-86 -516h-146zM302 -212q-50 0 -87 27.5t-64 65.5l-29 41l98 72l83 -95l13 5l102 612h146l-92 -553q-14 -87 -56 -131t-114 -44zM209 584q-45 0 -63.5 17.5t-18.5 43.5v5t0.5 6t1.5 11t3 18q5 29 25.5 47.5t68.5 18.5q45 0 63.5 -17.5t18.5 -43.5
q0 -5 -0.5 -11.5t-4.5 -28.5q-5 -29 -25.5 -47.5t-68.5 -18.5zM506 584q-45 0 -63.5 17.5t-18.5 43.5v5t0.5 6t1.5 11t3 18q5 29 25.5 47.5t68.5 18.5q45 0 63.5 -17.5t18.5 -43.5q0 -5 -0.5 -11.5t-4.5 -28.5q-5 -29 -25.5 -47.5t-68.5 -18.5z" />
    <glyph glyph-name="Jcircumflex" unicode="&#x134;" 
d="M583 698l-83 -496q-36 -214 -257 -214q-105 0 -158.5 54.5t-55.5 142.5l139 26q2 -44 20 -73.5t66 -29.5q40 0 65.5 24t33.5 74l62 370h-234l20 122h382zM493 955l108 -158l-76 -57l-106 115l-134 -115l-70 57l154 158h124z" />
    <glyph glyph-name="jcircumflex" unicode="&#x135;" 
d="M216 -212q-30 0 -53 9.5t-43.5 28.5t-40.5 46t-43 63l-32 50l100 69l113 -155l13 5l83 498h-189l19 114h335l-92 -553q-16 -94 -57 -134.5t-113 -40.5zM508 785l108 -158l-76 -57l-106 115l-134 -115l-70 57l154 158h124z" />
    <glyph glyph-name="Kcommaaccent" unicode="&#x136;" 
d="M289 282l-82 -91l-32 -191h-148l116 698h148l-50 -299h8l112 137l132 162h174l-260 -310l155 -388h-164zM189 -54h156l-121 -215h-88z" />
    <glyph glyph-name="kcommaaccent" unicode="&#x137;" 
d="M147 740h146l-57 -347h6q26 58 69 96.5t109 38.5q64 0 99 -35.5t35 -86.5q0 -72 -45 -117t-132 -71l42 -110l15 -3l82 80l70 -69l-52 -56q-32 -35 -66 -53.5t-74 -18.5q-48 0 -75 27t-44 75l-50 137q90 26 136.5 56t46.5 78q0 26 -17.5 42t-49.5 16q-19 0 -38 -9.5
t-42 -38.5q-15 -19 -27.5 -42.5t-18.5 -59.5l-45 -269h-146zM162 -54h156l-121 -215h-88z" />
    <glyph glyph-name="kgreenlandic" unicode="&#x138;" 
d="M262 219l-69 -62l-26 -157h-145l86 516h145l-33 -201h8l82 82l127 119h168l-230 -215l164 -301h-165z" />
    <glyph glyph-name="Lacute" unicode="&#x139;" 
d="M51 0l116 698h148l-96 -576h302l-20 -122h-450zM259 740l-86 46l115 190l114 -60z" />
    <glyph glyph-name="lacute" unicode="&#x13a;" 
d="M270 -12q-62 0 -92 32.5t-30 87.5q0 17 2 33t8 47l81 438h-152l19 114h299l-117 -634l15 -5l140 143l80 -71l-61 -70q-51 -57 -95.5 -86t-96.5 -29zM349 752l-86 46l115 190l114 -60z" />
    <glyph glyph-name="Lcommaaccent" unicode="&#x13b;" 
d="M51 0l116 698h148l-96 -576h302l-20 -122h-450zM191 -54h156l-121 -215h-88z" />
    <glyph glyph-name="lcommaaccent" unicode="&#x13c;" 
d="M270 -12q-62 0 -92 32.5t-30 87.5q0 17 2 33t8 47l81 438h-152l19 114h299l-117 -634l15 -5l140 143l80 -71l-61 -70q-51 -57 -95.5 -86t-96.5 -29zM184 -54h156l-121 -215h-88z" />
    <glyph glyph-name="Lcaron" unicode="&#x13d;" 
d="M51 0l116 698h148l-96 -576h302l-20 -122h-450zM462 525h-97l41 215h157z" />
    <glyph glyph-name="lcaron" unicode="&#x13e;" 
d="M270 -12q-62 0 -92 32.5t-30 87.5q0 17 2 33t8 47l81 438h-152l19 114h299l-117 -634l15 -5l140 143l80 -71l-61 -70q-51 -57 -95.5 -86t-96.5 -29zM532 525h-97l41 215h157z" />
    <glyph glyph-name="Ldot" unicode="&#x13f;" 
d="M51 0l116 698h148l-96 -576h302l-20 -122h-450zM450 246q-45 0 -63.5 17.5t-18.5 43.5q0 5 1 13.5t4 26.5q5 32 27 49t67 17t63.5 -17.5t18.5 -43.5q0 -5 -1 -13.5t-4 -26.5q-5 -32 -27 -49t-67 -17z" />
    <glyph glyph-name="ldot" unicode="&#x140;" 
d="M270 -12q-62 0 -92 32.5t-30 87.5q0 17 2 33t8 47l81 438h-152l19 114h299l-117 -634l15 -5l140 143l80 -71l-61 -70q-51 -57 -95.5 -86t-96.5 -29zM498 306q-45 0 -63.5 17.5t-18.5 43.5q0 5 1 13.5t4 26.5q5 32 27 49t67 17t63.5 -17.5t18.5 -43.5q0 -5 -1 -13.5
t-4 -26.5q-5 -32 -27 -49t-67 -17z" />
    <glyph glyph-name="Lslash" unicode="&#x141;" 
d="M510 0h-438l41 245l-76 -23l19 113l76 23l56 340h148l-49 -295l195 61l-19 -114l-195 -61l-28 -167h290z" />
    <glyph glyph-name="lslash" unicode="&#x142;" 
d="M270 -12q-62 0 -92 32.5t-30 87.5q0 17 2 33t8 47l18 96l-125 -38l18 107l127 38l43 235h-152l19 114h299l-56 -305l147 44l-18 -107l-149 -45l-41 -221l15 -5l140 143l80 -71l-61 -70q-51 -57 -95.5 -86t-96.5 -29z" />
    <glyph glyph-name="Nacute" unicode="&#x143;" 
d="M237 468h-10l-78 -468h-129l116 698h178l81 -468h10l78 468h129l-116 -698h-178zM395 740l-86 46l115 190l114 -60z" />
    <glyph glyph-name="nacute" unicode="&#x144;" 
d="M25 0l86 516h146l-20 -123h5q29 63 67.5 99t100.5 36q38 0 64.5 -12t43.5 -32.5t25 -47.5t8 -57q0 -22 -2.5 -45t-8.5 -59l-46 -275h-146l49 293q2 14 4.5 28.5t2.5 33.5q0 10 -3 21t-10 20t-18.5 14.5t-28.5 5.5q-26 0 -45 -12t-36 -35q-11 -15 -26.5 -41.5t-20.5 -58.5
l-45 -269h-146zM355 570l-86 46l115 190l114 -60z" />
    <glyph glyph-name="Ncommaaccent" unicode="&#x145;" 
d="M237 468h-10l-78 -468h-129l116 698h178l81 -468h10l78 468h129l-116 -698h-178zM172 -54h156l-121 -215h-88z" />
    <glyph glyph-name="ncommaaccent" unicode="&#x146;" 
d="M25 0l86 516h146l-20 -123h5q29 63 67.5 99t100.5 36q38 0 64.5 -12t43.5 -32.5t25 -47.5t8 -57q0 -22 -2.5 -45t-8.5 -59l-46 -275h-146l49 293q2 14 4.5 28.5t2.5 33.5q0 10 -3 21t-10 20t-18.5 14.5t-28.5 5.5q-26 0 -45 -12t-36 -35q-11 -15 -26.5 -41.5t-20.5 -58.5
l-45 -269h-146zM175 -54h156l-121 -215h-88z" />
    <glyph glyph-name="Ncaron" unicode="&#x147;" 
d="M237 468h-10l-78 -468h-129l116 698h178l81 -468h10l78 468h129l-116 -698h-178zM325 749l-108 158l76 57l106 -115l134 115l70 -57l-154 -158h-124z" />
    <glyph glyph-name="ncaron" unicode="&#x148;" 
d="M25 0l86 516h146l-20 -123h5q29 63 67.5 99t100.5 36q38 0 64.5 -12t43.5 -32.5t25 -47.5t8 -57q0 -22 -2.5 -45t-8.5 -59l-46 -275h-146l49 293q2 14 4.5 28.5t2.5 33.5q0 10 -3 21t-10 20t-18.5 14.5t-28.5 5.5q-26 0 -45 -12t-36 -35q-11 -15 -26.5 -41.5t-20.5 -58.5
l-45 -269h-146zM285 579l-108 158l76 57l106 -115l134 115l70 -57l-154 -158h-124z" />
    <glyph glyph-name="napostrophe" unicode="&#x149;" 
d="M166 516h140l-18 -108h5q26 56 61 88t92 32q34 0 58.5 -11.5t40 -30.5t22.5 -44.5t7 -53.5q0 -23 -2 -47t-8 -60l-47 -281h-140l49 293q3 18 4.5 33.5t1.5 34.5q0 18 -10.5 36t-39.5 18q-22 0 -37.5 -8t-31.5 -27q-11 -12 -25.5 -37t-19.5 -57l-48 -286h-140zM93 740h129
l-92 -210h-73z" />
    <glyph glyph-name="Eng" unicode="&#x14a;" 
d="M20 0l116 698h178l81 -468h10l78 468h129l-124 -744q-15 -90 -49.5 -128t-93.5 -38q-25 0 -44 6t-35.5 18t-33 30t-37.5 43l-31 37l89 71l85 -93l15 4l16 96h-51l-81 468h-10l-78 -468h-129z" />
    <glyph glyph-name="eng" unicode="&#x14b;" 
d="M318 -212q-25 0 -46 8t-38.5 21.5t-32.5 31t-28 36.5l-18 26l93 69l71 -81l13 5l65 389q2 14 4.5 28.5t2.5 33.5q0 10 -3 21t-10 20t-18.5 14.5t-28.5 5.5q-26 0 -45 -12t-36 -35q-11 -15 -26.5 -41.5t-20.5 -58.5l-45 -269h-146l86 516h146l-20 -123h5q29 63 67.5 99
t100.5 36q38 0 64.5 -12t43.5 -32.5t25 -47.5t8 -57q0 -22 -2.5 -45t-8.5 -59l-52 -312q-14 -87 -56 -131t-114 -44z" />
    <glyph glyph-name="Omacron" unicode="&#x14c;" 
d="M279 -12q-63 0 -109 18t-76 52t-44 83t-14 110q0 89 17.5 172t55.5 146.5t97.5 102t142.5 38.5q63 0 109 -18t76 -52t44 -83t14 -110q0 -89 -17.5 -172t-55.5 -146.5t-97.5 -102t-142.5 -38.5zM279 108q63 0 92.5 47t43.5 133l20 120q6 36 6 72q0 52 -22 81t-70 29
q-63 0 -92.5 -47t-43.5 -133l-20 -120q-6 -36 -6 -72q0 -52 22 -81t70 -29zM237 888h305l-17 -102h-305z" />
    <glyph glyph-name="omacron" unicode="&#x14d;" 
d="M265 -12q-106 0 -164 59.5t-58 162.5q0 74 21.5 133t60 100t92 63t118.5 22q106 0 164 -59.5t58 -162.5q0 -74 -21.5 -133t-60 -100t-92 -63t-118.5 -22zM276 97q48 0 78.5 29t39.5 83l13 78q2 9 3.5 20.5t1.5 20.5q0 46 -23.5 68.5t-64.5 22.5q-48 0 -78.5 -29
t-39.5 -83l-13 -78q-2 -9 -3.5 -20.5t-1.5 -20.5q0 -46 23.5 -68.5t64.5 -22.5zM224 718h305l-17 -102h-305z" />
    <glyph glyph-name="Obreve" unicode="&#x14e;" 
d="M279 -12q-63 0 -109 18t-76 52t-44 83t-14 110q0 89 17.5 172t55.5 146.5t97.5 102t142.5 38.5q63 0 109 -18t76 -52t44 -83t14 -110q0 -89 -17.5 -172t-55.5 -146.5t-97.5 -102t-142.5 -38.5zM279 108q63 0 92.5 47t43.5 133l20 120q6 36 6 72q0 52 -22 81t-70 29
q-63 0 -92.5 -47t-43.5 -133l-20 -120q-6 -36 -6 -72q0 -52 22 -81t70 -29zM379 740q-42 0 -72.5 15t-51.5 39t-34 54.5t-21 61.5l81 42l20 -37q18 -34 35 -53t49 -19q27 0 47 18.5t47 55.5l26 35l83 -42q-16 -32 -35.5 -62.5t-44.5 -54.5t-56.5 -38.5t-72.5 -14.5z" />
    <glyph glyph-name="obreve" unicode="&#x14f;" 
d="M265 -12q-106 0 -164 59.5t-58 162.5q0 74 21.5 133t60 100t92 63t118.5 22q106 0 164 -59.5t58 -162.5q0 -74 -21.5 -133t-60 -100t-92 -63t-118.5 -22zM276 97q48 0 78.5 29t39.5 83l13 78q2 9 3.5 20.5t1.5 20.5q0 46 -23.5 68.5t-64.5 22.5q-48 0 -78.5 -29
t-39.5 -83l-13 -78q-2 -9 -3.5 -20.5t-1.5 -20.5q0 -46 23.5 -68.5t64.5 -22.5zM366 570q-42 0 -72.5 15t-51.5 39t-34 54.5t-21 61.5l81 42l20 -37q18 -34 35 -53t49 -19q27 0 47 18.5t47 55.5l26 35l83 -42q-16 -32 -35.5 -62.5t-44.5 -54.5t-56.5 -38.5t-72.5 -14.5z" />
    <glyph glyph-name="Ohungarumlaut" unicode="&#x150;" 
d="M279 -12q-63 0 -109 18t-76 52t-44 83t-14 110q0 89 17.5 172t55.5 146.5t97.5 102t142.5 38.5q63 0 109 -18t76 -52t44 -83t14 -110q0 -89 -17.5 -172t-55.5 -146.5t-97.5 -102t-142.5 -38.5zM279 108q63 0 92.5 47t43.5 133l20 120q6 36 6 72q0 52 -22 81t-70 29
q-63 0 -92.5 -47t-43.5 -133l-20 -120q-6 -36 -6 -72q0 -52 22 -81t70 -29zM276 741l-78 38l108 193l108 -56zM475 741l-78 38l108 193l108 -56z" />
    <glyph glyph-name="ohungarumlaut" unicode="&#x151;" 
d="M265 -12q-106 0 -164 59.5t-58 162.5q0 74 21.5 133t60 100t92 63t118.5 22q106 0 164 -59.5t58 -162.5q0 -74 -21.5 -133t-60 -100t-92 -63t-118.5 -22zM276 97q48 0 78.5 29t39.5 83l13 78q2 9 3.5 20.5t1.5 20.5q0 46 -23.5 68.5t-64.5 22.5q-48 0 -78.5 -29
t-39.5 -83l-13 -78q-2 -9 -3.5 -20.5t-1.5 -20.5q0 -46 23.5 -68.5t64.5 -22.5zM263 571l-78 38l108 193l108 -56zM462 571l-78 38l108 193l108 -56z" />
    <glyph glyph-name="OE" unicode="&#x152;" 
d="M277 0q-111 0 -164.5 67t-53.5 191q0 97 20.5 177.5t61.5 139t104 91t148 32.5h308l-18 -110h-155l-30 -180h145l-18 -110h-145l-32 -188h155l-18 -110h-308zM392 588h-7q-68 0 -106.5 -38.5t-53.5 -128.5l-22 -131q-6 -36 -6 -62q0 -118 108 -118h7z" />
    <glyph glyph-name="oe" unicode="&#x153;" 
d="M399 -12q-45 0 -76 18.5t-45 59.5h-5q-5 -12 -14.5 -25.5t-24.5 -25t-35.5 -19.5t-46.5 -8q-64 0 -103.5 44.5t-39.5 143.5q0 79 14 144t41 111t66 71.5t89 25.5q42 0 70 -18.5t39 -52.5h4q22 33 56.5 52t79.5 19q31 0 57 -10t44 -27.5t28 -41t10 -50.5q0 -28 -9.5 -58
t-37 -55t-77.5 -41.5t-130 -18.5l-2 -11q-2 -14 -3 -26.5t-1 -23.5q0 -38 14.5 -60t43.5 -22q26 0 46 21.5t32 52.5l91 -39q-26 -61 -68.5 -95.5t-106.5 -34.5zM164 83q28 0 46 24t28 83l23 138q3 21 3 39q0 32 -12.5 49t-35.5 17q-28 0 -46 -24t-28 -83l-23 -138
q-2 -9 -2.5 -19.5t-0.5 -19.5q0 -32 12.5 -49t35.5 -17zM450 439q-29 0 -50.5 -30.5t-32.5 -98.5l-1 -7q72 3 103.5 27t31.5 63q0 22 -14 34t-37 12z" />
    <glyph glyph-name="Racute" unicode="&#x154;" 
d="M181 0h-146l117 698h252q46 0 81.5 -13.5t59.5 -38t36.5 -58.5t12.5 -76q0 -93 -44.5 -154t-122.5 -83l95 -275h-156l-77 260h-64zM324 376q54 0 78 18t31 62l4 24q3 18 3 33q0 35 -21 50.5t-58 15.5h-83l-34 -203h80zM375 740l-86 46l115 190l114 -60z" />
    <glyph glyph-name="racute" unicode="&#x155;" 
d="M146 0l67 402h-118l19 114h264l-27 -156h6q32 74 81 115t125 41h34l-26 -146h-91q-41 0 -65.5 -11t-42.5 -34q-10 -12 -23 -37t-18 -52l-39 -236h-146zM379 570l-86 46l115 190l114 -60z" />
    <glyph glyph-name="Rcommaaccent" unicode="&#x156;" 
d="M181 0h-146l117 698h252q46 0 81.5 -13.5t59.5 -38t36.5 -58.5t12.5 -76q0 -93 -44.5 -154t-122.5 -83l95 -275h-156l-77 260h-64zM324 376q54 0 78 18t31 62l4 24q3 18 3 33q0 35 -21 50.5t-58 15.5h-83l-34 -203h80zM189 -54h156l-121 -215h-88z" />
    <glyph glyph-name="rcommaaccent" unicode="&#x157;" 
d="M146 0l67 402h-118l19 114h264l-27 -156h6q32 74 81 115t125 41h34l-26 -146h-91q-41 0 -65.5 -11t-42.5 -34q-10 -12 -23 -37t-18 -52l-39 -236h-146zM131 -54h156l-121 -215h-88z" />
    <glyph glyph-name="Rcaron" unicode="&#x158;" 
d="M181 0h-146l117 698h252q46 0 81.5 -13.5t59.5 -38t36.5 -58.5t12.5 -76q0 -93 -44.5 -154t-122.5 -83l95 -275h-156l-77 260h-64zM324 376q54 0 78 18t31 62l4 24q3 18 3 33q0 35 -21 50.5t-58 15.5h-83l-34 -203h80zM305 749l-108 158l76 57l106 -115l134 115l70 -57
l-154 -158h-124z" />
    <glyph glyph-name="rcaron" unicode="&#x159;" 
d="M146 0l67 402h-118l19 114h264l-27 -156h6q32 74 81 115t125 41h34l-26 -146h-91q-41 0 -65.5 -11t-42.5 -34q-10 -12 -23 -37t-18 -52l-39 -236h-146zM309 579l-108 158l76 57l106 -115l134 115l70 -57l-154 -158h-124z" />
    <glyph glyph-name="Sacute" unicode="&#x15a;" 
d="M268 -12q-87 0 -155.5 28t-100.5 79l93 94q31 -40 78 -59.5t94 -19.5q57 0 86.5 27.5t29.5 75.5q0 35 -19.5 51.5t-61.5 26.5l-69 16q-76 17 -110.5 63.5t-34.5 111.5q0 52 18.5 94t53.5 72t85 46t112 16q75 0 136 -26t91 -72l-97 -89q-23 32 -57.5 49.5t-79.5 17.5
q-55 0 -82 -25t-27 -67q0 -30 18.5 -46t65.5 -28l66 -17q146 -37 146 -177q0 -54 -18.5 -98.5t-54.5 -76.5t-88 -49.5t-118 -17.5zM388 740l-86 46l115 190l114 -60z" />
    <glyph glyph-name="sacute" unicode="&#x15b;" 
d="M258 -12q-78 0 -134.5 21.5t-82.5 62.5l82 81q22 -31 60.5 -46.5t84.5 -15.5q45 0 71.5 14.5t26.5 42.5q0 21 -15 30.5t-38 14.5l-74 16q-29 6 -54.5 16t-44.5 26.5t-29.5 40.5t-10.5 58q0 43 17.5 76.5t49 56t74.5 34t93 11.5q69 0 124 -19.5t81 -53.5l-80 -82
q-17 22 -51 37t-78 15q-39 0 -62.5 -14t-23.5 -42q0 -21 13.5 -29.5t37.5 -13.5l77 -17q65 -14 102 -45t37 -94q0 -43 -18 -76.5t-51 -57t-79.5 -36t-104.5 -12.5zM358 570l-86 46l115 190l114 -60z" />
    <glyph glyph-name="Scircumflex" unicode="&#x15c;" 
d="M268 -12q-87 0 -155.5 28t-100.5 79l93 94q31 -40 78 -59.5t94 -19.5q57 0 86.5 27.5t29.5 75.5q0 35 -19.5 51.5t-61.5 26.5l-69 16q-76 17 -110.5 63.5t-34.5 111.5q0 52 18.5 94t53.5 72t85 46t112 16q75 0 136 -26t91 -72l-97 -89q-23 32 -57.5 49.5t-79.5 17.5
q-55 0 -82 -25t-27 -67q0 -30 18.5 -46t65.5 -28l66 -17q146 -37 146 -177q0 -54 -18.5 -98.5t-54.5 -76.5t-88 -49.5t-118 -17.5zM468 955l108 -158l-76 -57l-106 115l-134 -115l-70 57l154 158h124z" />
    <glyph glyph-name="scircumflex" unicode="&#x15d;" 
d="M258 -12q-78 0 -134.5 21.5t-82.5 62.5l82 81q22 -31 60.5 -46.5t84.5 -15.5q45 0 71.5 14.5t26.5 42.5q0 21 -15 30.5t-38 14.5l-74 16q-29 6 -54.5 16t-44.5 26.5t-29.5 40.5t-10.5 58q0 43 17.5 76.5t49 56t74.5 34t93 11.5q69 0 124 -19.5t81 -53.5l-80 -82
q-17 22 -51 37t-78 15q-39 0 -62.5 -14t-23.5 -42q0 -21 13.5 -29.5t37.5 -13.5l77 -17q65 -14 102 -45t37 -94q0 -43 -18 -76.5t-51 -57t-79.5 -36t-104.5 -12.5zM438 785l108 -158l-76 -57l-106 115l-134 -115l-70 57l154 158h124z" />
    <glyph glyph-name="Scedilla" unicode="&#x15e;" 
d="M251 -212q-42 0 -71.5 13.5t-43.5 32.5l51 53q8 -9 23 -18.5t38 -9.5q22 0 36 7t14 22q0 13 -14.5 22.5t-53.5 13.5l-23 2l24 63q-75 7 -133 34t-86 72l93 94q31 -40 78 -59.5t94 -19.5q57 0 86.5 27.5t29.5 75.5q0 35 -19.5 51.5t-61.5 26.5l-69 16q-76 17 -110.5 63.5
t-34.5 111.5q0 52 18.5 94t53.5 72t85 46t112 16q75 0 136 -26t91 -72l-97 -89q-23 32 -57.5 49.5t-79.5 17.5q-55 0 -82 -25t-27 -67q0 -30 18.5 -46t65.5 -28l66 -17q146 -37 146 -177q0 -51 -16.5 -93.5t-48 -74t-78 -50.5t-105.5 -23l-16 -44l3 -4q21 7 42 7
q28 0 47 -15.5t19 -42.5q0 -51 -41 -76.5t-102 -25.5z" />
    <glyph glyph-name="scedilla" unicode="&#x15f;" 
d="M245 -212q-42 0 -71.5 13.5t-43.5 32.5l51 53q8 -9 23 -18.5t38 -9.5q22 0 36 7t14 22q0 13 -14.5 22.5t-53.5 13.5l-23 2l24 63q-66 5 -113.5 26t-70.5 57l82 81q22 -31 60.5 -46.5t85.5 -15.5q45 0 71 14.5t26 43.5q0 19 -14 29t-39 15l-74 16q-30 7 -55.5 17t-44 26.5
t-29 40t-10.5 56.5q0 44 17.5 77.5t49 56t74.5 34t93 11.5q69 0 124 -19.5t81 -53.5l-80 -82q-17 22 -51 37t-78 15q-40 0 -63 -14t-23 -43q0 -19 12.5 -28t38.5 -14l77 -17q63 -14 101 -44.5t38 -92.5q0 -81 -59 -128t-159 -55l-16 -44l3 -4q21 7 42 7q28 0 47 -15.5
t19 -42.5q0 -51 -41 -76.5t-102 -25.5z" />
    <glyph glyph-name="Scaron" unicode="&#x160;" 
d="M268 -12q-87 0 -155.5 28t-100.5 79l93 94q31 -40 78 -59.5t94 -19.5q57 0 86.5 27.5t29.5 75.5q0 35 -19.5 51.5t-61.5 26.5l-69 16q-76 17 -110.5 63.5t-34.5 111.5q0 52 18.5 94t53.5 72t85 46t112 16q75 0 136 -26t91 -72l-97 -89q-23 32 -57.5 49.5t-79.5 17.5
q-55 0 -82 -25t-27 -67q0 -30 18.5 -46t65.5 -28l66 -17q146 -37 146 -177q0 -54 -18.5 -98.5t-54.5 -76.5t-88 -49.5t-118 -17.5zM318 749l-108 158l76 57l106 -115l134 115l70 -57l-154 -158h-124z" />
    <glyph glyph-name="scaron" unicode="&#x161;" 
d="M258 -12q-78 0 -134.5 21.5t-82.5 62.5l82 81q22 -31 60.5 -46.5t84.5 -15.5q45 0 71.5 14.5t26.5 42.5q0 21 -15 30.5t-38 14.5l-74 16q-29 6 -54.5 16t-44.5 26.5t-29.5 40.5t-10.5 58q0 43 17.5 76.5t49 56t74.5 34t93 11.5q69 0 124 -19.5t81 -53.5l-80 -82
q-17 22 -51 37t-78 15q-39 0 -62.5 -14t-23.5 -42q0 -21 13.5 -29.5t37.5 -13.5l77 -17q65 -14 102 -45t37 -94q0 -43 -18 -76.5t-51 -57t-79.5 -36t-104.5 -12.5zM288 579l-108 158l76 57l106 -115l134 115l70 -57l-154 -158h-124z" />
    <glyph glyph-name="uni0162" unicode="&#x162;" 
d="M243 -212q-45 0 -74.5 13.5t-43.5 32.5l51 53q8 -9 23 -18.5t41 -9.5q19 0 33 7t14 22q0 11 -13.5 21.5t-54.5 14.5l-23 2l28 74h-41l96 576h-202l20 122h552l-20 -122h-202l-96 -576h-39l-20 -55l3 -4q21 7 41 7q27 0 47 -14.5t20 -47.5q0 -23 -11 -41t-29.5 -31
t-44 -19.5t-55.5 -6.5z" />
    <glyph glyph-name="uni0163" unicode="&#x163;" 
d="M266 -212q-45 0 -74.5 13.5t-43.5 32.5l51 53q8 -9 23 -18.5t41 -9.5q19 0 33 7t14 22q0 11 -13.5 21.5t-54.5 14.5l-23 2l25 65q-48 9 -70.5 41.5t-22.5 83.5q0 14 1.5 28.5t5.5 37.5l37 220h-132l19 114h83q32 0 48.5 13t21.5 47l20 122h136l-30 -182h202l-19 -114
h-202l-48 -288l20 -7l156 123l72 -82l-60 -52q-53 -46 -91.5 -72t-79.5 -33l-16 -46l3 -4q21 7 41 7q27 0 47 -14.5t20 -47.5q0 -23 -11 -41t-29.5 -31t-44 -19.5t-55.5 -6.5z" />
    <glyph glyph-name="Tcaron" unicode="&#x164;" 
d="M427 576l-96 -576h-148l96 576h-202l20 122h552l-20 -122h-202zM324 749l-108 158l76 57l106 -115l134 115l70 -57l-154 -158h-124z" />
    <glyph glyph-name="tcaron" unicode="&#x165;" 
d="M278 -12q-66 0 -96.5 35t-30.5 93q0 14 1.5 28.5t5.5 37.5l37 220h-132l19 114h83q32 0 48.5 13t21.5 47l20 122h136l-30 -182h202l-19 -114h-202l-48 -288l20 -7l156 123l72 -82l-60 -52q-32 -27 -58 -47.5t-49.5 -34t-46.5 -20t-50 -6.5zM528 565h-97l41 215h157z" />
    <glyph glyph-name="Tbar" unicode="&#x166;" 
d="M378 284l-47 -284h-148l47 284h-141l19 112h141l30 180h-202l20 122h552l-20 -122h-202l-30 -180h141l-19 -112h-141z" />
    <glyph glyph-name="tbar" unicode="&#x167;" 
d="M281 -12q-68 0 -99 35t-31 93q0 14 1.5 28.5t5.5 37.5l10 61h-92l17 100h92l10 59h-132l19 114h83q32 0 48.5 13t21.5 47l20 122h136l-30 -182h202l-19 -114h-202l-10 -59h144l-17 -100h-143l-22 -131l15 -9l150 90l65 -85l-62 -43q-54 -38 -95.5 -57.5t-85.5 -19.5z" />
    <glyph glyph-name="Utilde" unicode="&#x168;" 
d="M275 698l-73 -438q-5 -27 -6.5 -45t-1.5 -29q0 -38 18.5 -58t64.5 -20q33 0 54 10.5t33.5 29.5t19.5 46t13 61l74 443h147l-71 -426q-12 -70 -28.5 -123t-47 -89t-79 -54t-123.5 -18q-62 0 -104.5 13.5t-68 38t-36.5 59t-11 77.5q0 26 3 54.5t8 60.5l68 407h147zM458 762
q-23 0 -39.5 6.5t-33.5 14.5q-20 9 -37.5 15.5t-37.5 6.5q-17 0 -31 -6t-32 -19l-40 67q22 27 53 45.5t71 18.5q23 0 39.5 -6.5t33.5 -14.5q20 -9 37.5 -15.5t37.5 -6.5q17 0 31 6t32 19l40 -67q-22 -27 -53 -45.5t-71 -18.5z" />
    <glyph glyph-name="utilde" unicode="&#x169;" 
d="M362 123h-5q-29 -63 -67.5 -99t-100.5 -36q-38 0 -64.5 12t-43.5 32.5t-25 47.5t-8 57q0 22 2.5 45t8.5 59l46 275h146l-49 -292q-2 -14 -4.5 -29t-2.5 -34q0 -10 3 -21t10 -20t18.5 -14.5t28.5 -5.5q26 0 45 12t36 35q11 15 26.5 41.5t20.5 58.5l45 269h146l-86 -516
h-146zM427 592q-23 0 -39.5 6.5t-33.5 14.5q-20 9 -37.5 15.5t-37.5 6.5q-17 0 -31 -6t-32 -19l-40 67q22 27 53 45.5t71 18.5q23 0 39.5 -6.5t33.5 -14.5q20 -9 37.5 -15.5t37.5 -6.5q17 0 31 6t32 19l40 -67q-22 -27 -53 -45.5t-71 -18.5z" />
    <glyph glyph-name="Umacron" unicode="&#x16a;" 
d="M275 698l-73 -438q-5 -27 -6.5 -45t-1.5 -29q0 -38 18.5 -58t64.5 -20q33 0 54 10.5t33.5 29.5t19.5 46t13 61l74 443h147l-71 -426q-12 -70 -28.5 -123t-47 -89t-79 -54t-123.5 -18q-62 0 -104.5 13.5t-68 38t-36.5 59t-11 77.5q0 26 3 54.5t8 60.5l68 407h147zM250 888
h305l-17 -102h-305z" />
    <glyph glyph-name="umacron" unicode="&#x16b;" 
d="M362 123h-5q-29 -63 -67.5 -99t-100.5 -36q-38 0 -64.5 12t-43.5 32.5t-25 47.5t-8 57q0 22 2.5 45t8.5 59l46 275h146l-49 -292q-2 -14 -4.5 -29t-2.5 -34q0 -10 3 -21t10 -20t18.5 -14.5t28.5 -5.5q26 0 45 12t36 35q11 15 26.5 41.5t20.5 58.5l45 269h146l-86 -516
h-146zM219 718h305l-17 -102h-305z" />
    <glyph glyph-name="Ubreve" unicode="&#x16c;" 
d="M275 698l-73 -438q-5 -27 -6.5 -45t-1.5 -29q0 -38 18.5 -58t64.5 -20q33 0 54 10.5t33.5 29.5t19.5 46t13 61l74 443h147l-71 -426q-12 -70 -28.5 -123t-47 -89t-79 -54t-123.5 -18q-62 0 -104.5 13.5t-68 38t-36.5 59t-11 77.5q0 26 3 54.5t8 60.5l68 407h147zM392 740
q-42 0 -72.5 15t-51.5 39t-34 54.5t-21 61.5l81 42l20 -37q18 -34 35 -53t49 -19q27 0 47 18.5t47 55.5l26 35l83 -42q-16 -32 -35.5 -62.5t-44.5 -54.5t-56.5 -38.5t-72.5 -14.5z" />
    <glyph glyph-name="ubreve" unicode="&#x16d;" 
d="M362 123h-5q-29 -63 -67.5 -99t-100.5 -36q-38 0 -64.5 12t-43.5 32.5t-25 47.5t-8 57q0 22 2.5 45t8.5 59l46 275h146l-49 -292q-2 -14 -4.5 -29t-2.5 -34q0 -10 3 -21t10 -20t18.5 -14.5t28.5 -5.5q26 0 45 12t36 35q11 15 26.5 41.5t20.5 58.5l45 269h146l-86 -516
h-146zM361 570q-42 0 -72.5 15t-51.5 39t-34 54.5t-21 61.5l81 42l20 -37q18 -34 35 -53t49 -19q27 0 47 18.5t47 55.5l26 35l83 -42q-16 -32 -35.5 -62.5t-44.5 -54.5t-56.5 -38.5t-72.5 -14.5z" />
    <glyph glyph-name="Uring" unicode="&#x16e;" 
d="M275 698l-73 -438q-5 -27 -6.5 -45t-1.5 -29q0 -38 18.5 -58t64.5 -20q33 0 54 10.5t33.5 29.5t19.5 46t13 61l74 443h147l-71 -426q-12 -70 -28.5 -123t-47 -89t-79 -54t-123.5 -18q-62 0 -104.5 13.5t-68 38t-36.5 59t-11 77.5q0 26 3 54.5t8 60.5l68 407h147zM378 720
q-27 0 -51 9.5t-41.5 26t-27.5 39.5t-10 49q0 35 13.5 64.5t36 50.5t53 33t65.5 12q27 0 51 -9.5t41.5 -26t27.5 -39.5t10 -49q0 -35 -13.5 -64.5t-36 -50.5t-53.5 -33t-65 -12zM386 794q26 0 40.5 14t18.5 37q3 18 4.5 27.5t1.5 17.5q0 40 -43 40q-26 0 -40.5 -14
t-18.5 -37q-3 -18 -4.5 -27.5t-1.5 -17.5q0 -40 43 -40z" />
    <glyph glyph-name="uring" unicode="&#x16f;" 
d="M362 123h-5q-29 -63 -67.5 -99t-100.5 -36q-38 0 -64.5 12t-43.5 32.5t-25 47.5t-8 57q0 22 2.5 45t8.5 59l46 275h146l-49 -292q-2 -14 -4.5 -29t-2.5 -34q0 -10 3 -21t10 -20t18.5 -14.5t28.5 -5.5q26 0 45 12t36 35q11 15 26.5 41.5t20.5 58.5l45 269h146l-86 -516
h-146zM347 550q-27 0 -51 9.5t-41.5 26t-27.5 39.5t-10 49q0 35 13.5 64.5t36 50.5t53 33t65.5 12q27 0 51 -9.5t41.5 -26t27.5 -39.5t10 -49q0 -35 -13.5 -64.5t-36 -50.5t-53.5 -33t-65 -12zM355 624q26 0 40.5 14t18.5 37q3 18 4.5 27.5t1.5 17.5q0 40 -43 40
q-26 0 -40.5 -14t-18.5 -37q-3 -18 -4.5 -27.5t-1.5 -17.5q0 -40 43 -40z" />
    <glyph glyph-name="Uhungarumlaut" unicode="&#x170;" 
d="M275 698l-73 -438q-5 -27 -6.5 -45t-1.5 -29q0 -38 18.5 -58t64.5 -20q33 0 54 10.5t33.5 29.5t19.5 46t13 61l74 443h147l-71 -426q-12 -70 -28.5 -123t-47 -89t-79 -54t-123.5 -18q-62 0 -104.5 13.5t-68 38t-36.5 59t-11 77.5q0 26 3 54.5t8 60.5l68 407h147zM289 741
l-78 38l108 193l108 -56zM488 741l-78 38l108 193l108 -56z" />
    <glyph glyph-name="uhungarumlaut" unicode="&#x171;" 
d="M362 123h-5q-29 -63 -67.5 -99t-100.5 -36q-38 0 -64.5 12t-43.5 32.5t-25 47.5t-8 57q0 22 2.5 45t8.5 59l46 275h146l-49 -292q-2 -14 -4.5 -29t-2.5 -34q0 -10 3 -21t10 -20t18.5 -14.5t28.5 -5.5q26 0 45 12t36 35q11 15 26.5 41.5t20.5 58.5l45 269h146l-86 -516
h-146zM258 571l-78 38l108 193l108 -56zM457 571l-78 38l108 193l108 -56z" />
    <glyph glyph-name="Uogonek" unicode="&#x172;" 
d="M275 698l-73 -437q-5 -27 -6.5 -45.5t-1.5 -29.5q0 -38 18.5 -58t64.5 -20q33 0 54 10.5t33.5 29.5t19.5 46.5t13 61.5l74 442h147l-71 -427q-8 -48 -18 -88t-25.5 -72.5t-40 -57.5t-62.5 -44q-34 -17 -55 -35t-32.5 -34t-15.5 -29.5t-4 -20.5q0 -13 8.5 -21.5t28.5 -8.5
q15 0 28.5 5.5t24.5 21.5l54 -45q-19 -24 -48.5 -39t-72.5 -15q-54 0 -88 21.5t-34 63.5q0 33 25.5 62t79.5 49l-2 6q-9 -2 -15 -2h-14q-62 0 -104.5 13.5t-68 38t-36.5 59t-11 77.5q0 26 3 54.5t8 60.5l68 407h147z" />
    <glyph glyph-name="uogonek" unicode="&#x173;" 
d="M488 0q-39 -24 -62 -41t-35 -30t-15.5 -22.5t-3.5 -16.5q0 -13 8.5 -21.5t28.5 -8.5q15 0 28.5 5.5t24.5 21.5l54 -45q-19 -24 -48.5 -39t-72.5 -15q-54 0 -88 21.5t-34 63.5q0 37 32.5 70t107.5 53l-1 4h-70l20 123h-5q-29 -63 -67.5 -99t-100.5 -36q-38 0 -64.5 12
t-43.5 32.5t-25 47.5t-8 57q0 22 2.5 45t8.5 59l46 275h146l-49 -292q-2 -14 -4.5 -29t-2.5 -34q0 -10 3 -21t10 -20t18.5 -14.5t28.5 -5.5q26 0 44.5 12t36.5 35q11 15 26.5 41.5t20.5 58.5l45 269h146z" />
    <glyph glyph-name="Wcircumflex" unicode="&#x174;" 
d="M10 0l74 698h127l-48 -418l-17 -144h9l127 410h135l-6 -410h9l27 138l93 424h121l-159 -698h-190l15 386h-10l-117 -386h-190zM475 955l108 -158l-76 -57l-106 115l-134 -115l-70 57l154 158h124z" />
    <glyph glyph-name="wcircumflex" unicode="&#x175;" 
d="M108 -12q-50 0 -72.5 30t-22.5 79q0 14 2.5 42.5t6.5 52.5l54 324h118l-61 -329q-2 -8 -3 -22t-1 -23q0 -16 7 -25.5t24 -9.5q15 0 27.5 10.5t23.5 28.5q7 11 12.5 27t7.5 33l48 310h113l-54 -334q-2 -8 -3.5 -22t-1.5 -21q0 -14 6.5 -25t23.5 -11q18 0 36 22t31.5 58.5
t22 84t8.5 98.5q0 35 -4.5 69t-13.5 59l102 30q15 -28 24.5 -68t9.5 -91q0 -90 -23.5 -166t-64.5 -127q-32 -41 -72 -62.5t-82 -21.5q-27 0 -45.5 9t-30 24t-16 35t-3.5 42h-7q-36 -110 -127 -110zM439 785l108 -158l-76 -57l-106 115l-134 -115l-70 57l154 158h124z" />
    <glyph glyph-name="Ycircumflex" unicode="&#x176;" 
d="M184 0l41 246l-147 452h158l49 -164l31 -137h9l78 137l100 164h165l-295 -449l-41 -249h-148zM468 955l108 -158l-76 -57l-106 115l-134 -115l-70 57l154 158h124z" />
    <glyph glyph-name="ycircumflex" unicode="&#x177;" 
d="M217 -212q-72 0 -122 15t-89 61l87 90q24 -29 54.5 -41t65.5 -12q28 0 50 6.5t39 23.5t29 46.5t20 76.5l14 86h-5q-29 -63 -67.5 -99t-100.5 -36q-38 0 -64.5 12t-43.5 32.5t-25 47.5t-8 57q0 22 2.5 45t8.5 59l43 258h146l-46 -275q-2 -14 -4.5 -29t-2.5 -34
q0 -10 3 -21t10 -20t18.5 -14.5t28.5 -5.5q26 0 45 12t36 35q11 15 26.5 41.5t20.5 58.5l42 252h146l-80 -480q-21 -126 -91.5 -187t-185.5 -61zM452 785l108 -158l-76 -57l-106 115l-134 -115l-70 57l154 158h124z" />
    <glyph glyph-name="Ydieresis" unicode="&#x178;" 
d="M184 0l41 246l-147 452h158l49 -164l31 -137h9l78 137l100 164h165l-295 -449l-41 -249h-148zM273 762q-41 0 -57.5 15.5t-16.5 38.5q0 5 1 12.5t4 23.5q5 26 23 42.5t62 16.5q41 0 57.5 -15.5t16.5 -38.5q0 -5 -1 -12.5t-4 -23.5q-5 -26 -23 -42.5t-62 -16.5zM491 762
q-41 0 -57.5 15.5t-16.5 38.5q0 5 1 12.5t4 23.5q5 26 23 42.5t62 16.5q41 0 57.5 -15.5t16.5 -38.5q0 -5 -1 -12.5t-4 -23.5q-5 -26 -23 -42.5t-62 -16.5z" />
    <glyph glyph-name="Zacute" unicode="&#x179;" 
d="M507 0h-499l22 130l387 446h-304l20 122h479l-21 -130l-387 -446h323zM385 740l-86 46l115 190l114 -60z" />
    <glyph glyph-name="zacute" unicode="&#x17a;" 
d="M414 -12q-36 0 -74.5 7.5t-79.5 28.5l-101 52l-4 -3l-12 -73h-125l20 120l320 254q-29 23 -54 32t-57 9q-26 0 -45 -16.5t-19 -59.5h-108v9q0 87 44 133.5t119 46.5q47 0 96.5 -18t101.5 -70l2 -2l6 5l12 73h125l-20 -120l-324 -258l196 -37l11 13l-30 88l85 37l15 -27
q17 -29 23.5 -52t6.5 -46q0 -24 -9 -47t-25.5 -40.5t-41 -28t-54.5 -10.5zM343 570l-86 46l115 190l114 -60z" />
    <glyph glyph-name="Zdotaccent" unicode="&#x17b;" 
d="M507 0h-499l22 130l387 446h-304l20 122h479l-21 -130l-387 -446h323zM379 754q-45 0 -63.5 17.5t-18.5 43.5q0 5 1 13.5t4 26.5q5 32 27 49t67 17t63.5 -17.5t18.5 -43.5q0 -5 -1 -13.5t-4 -26.5q-5 -32 -27 -49t-67 -17z" />
    <glyph glyph-name="zdotaccent" unicode="&#x17c;" 
d="M414 -12q-36 0 -74.5 7.5t-79.5 28.5l-101 52l-4 -3l-12 -73h-125l20 120l320 254q-29 23 -54 32t-57 9q-26 0 -45 -16.5t-19 -59.5h-108v9q0 87 44 133.5t119 46.5q47 0 96.5 -18t101.5 -70l2 -2l6 5l12 73h125l-20 -120l-324 -258l196 -37l11 13l-30 88l85 37l15 -27
q17 -29 23.5 -52t6.5 -46q0 -24 -9 -47t-25.5 -40.5t-41 -28t-54.5 -10.5zM337 584q-45 0 -63.5 17.5t-18.5 43.5q0 5 1 13.5t4 26.5q5 32 27 49t67 17t63.5 -17.5t18.5 -43.5q0 -5 -1 -13.5t-4 -26.5q-5 -32 -27 -49t-67 -17z" />
    <glyph glyph-name="Zcaron" unicode="&#x17d;" 
d="M507 0h-499l22 130l387 446h-304l20 122h479l-21 -130l-387 -446h323zM315 749l-108 158l76 57l106 -115l134 115l70 -57l-154 -158h-124z" />
    <glyph glyph-name="zcaron" unicode="&#x17e;" 
d="M414 -12q-36 0 -74.5 7.5t-79.5 28.5l-101 52l-4 -3l-12 -73h-125l20 120l320 254q-29 23 -54 32t-57 9q-26 0 -45 -16.5t-19 -59.5h-108v9q0 87 44 133.5t119 46.5q47 0 96.5 -18t101.5 -70l2 -2l6 5l12 73h125l-20 -120l-324 -258l196 -37l11 13l-30 88l85 37l15 -27
q17 -29 23.5 -52t6.5 -46q0 -24 -9 -47t-25.5 -40.5t-41 -28t-54.5 -10.5zM273 579l-108 158l76 57l106 -115l134 115l70 -57l-154 -158h-124z" />
    <glyph glyph-name="uni017F" unicode="&#x17f;" 
d="M173 -212q-27 0 -49 9t-41 25t-37 38.5t-37 50.5l-41 59l100 69l103 -136l12 5l82 494h-163l19 114h163l13 78q11 65 54 105.5t124 40.5h178l-19 -114h-186l-114 -679q-14 -84 -56 -121.5t-105 -37.5z" />
    <glyph glyph-name="uni018F" unicode="&#x18f;" 
d="M273 -12q-116 0 -174 69.5t-58 198.5q0 14 1 39.5t6 52.5l8 50h388l2 12q3 18 4 32.5t1 25.5q0 58 -23.5 90.5t-76.5 32.5q-27 0 -48 -9t-37.5 -25.5t-29 -39.5t-23.5 -51l-125 49q37 97 107 146t170 49q116 0 174 -69.5t58 -217.5q0 -80 -18 -158t-57 -139.5
t-100.5 -99.5t-148.5 -38zM278 105q64 0 99 47t49 133l1 6h-236q-4 -18 -6 -40t-2 -39q0 -49 22 -78t73 -29z" />
    <glyph glyph-name="florin" unicode="&#x192;" 
d="M124 -212q-29 0 -51 8.5t-40.5 24.5t-36 38.5t-35.5 51.5l-38 59l97 66l97 -132l18 6l99 414h-143l19 114h151l29 122q16 66 64.5 102t129.5 36h165l-19 -114h-186l-35 -146h167l-19 -114h-175l-91 -378q-20 -83 -61 -120.5t-106 -37.5z" />
    <glyph glyph-name="Ohorn" unicode="&#x1a0;" 
d="M664 710q-8 -48 -31 -73.5t-77 -25.5h-2q20 -32 29 -73.5t9 -90.5q0 -89 -17.5 -172t-55.5 -146.5t-97.5 -102t-142.5 -38.5q-63 0 -109 18t-76 52t-44 83t-14 110q0 89 17.5 172t55.5 146.5t97.5 102t142.5 38.5q52 0 91 -12h98l20 115h123zM279 108q63 0 92.5 47
t43.5 133l20 120q6 36 6 72q0 52 -22 81t-70 29q-63 0 -92.5 -47t-43.5 -133l-20 -120q-6 -36 -6 -72q0 -52 22 -81t70 -29z" />
    <glyph glyph-name="ohorn" unicode="&#x1a1;" 
d="M640 631l-17 -103q-8 -47 -30 -70.5t-74 -24.5q20 -26 29 -55.5t9 -71.5q0 -74 -21.5 -133t-60 -100t-92 -63t-118.5 -22q-106 0 -164 59.5t-58 162.5q0 74 21.5 133t60 100t92 63t118.5 22q45 0 83 -12h79l20 115h123zM276 97q48 0 78.5 29t39.5 83l13 78q2 9 3.5 20.5
t1.5 20.5q0 46 -23.5 68.5t-64.5 22.5q-48 0 -78.5 -29t-39.5 -83l-13 -78q-2 -9 -3.5 -20.5t-1.5 -20.5q0 -46 23.5 -68.5t64.5 -22.5z" />
    <glyph glyph-name="Uhorn" unicode="&#x1af;" 
d="M275 698l-73 -437q-5 -27 -6.5 -45.5t-1.5 -29.5q0 -38 18.5 -58t64.5 -20q33 0 54 10.5t33.5 29.5t19.5 46.5t13 61.5l74 442h73l20 115h123l-17 -103q-7 -37 -21 -60.5t-45 -32.5l-57 -346q-12 -69 -28.5 -122t-47 -89t-79 -54t-123.5 -18q-62 0 -104.5 13.5t-68 38
t-36.5 59t-11 77.5q0 26 3 54.5t8 60.5l68 407h147z" />
    <glyph glyph-name="uhorn" unicode="&#x1b0;" 
d="M637 528q-7 -41 -23.5 -65t-53.5 -31l-72 -432h-146l20 123h-5q-29 -63 -67.5 -99t-100.5 -36q-38 0 -64.5 12t-43.5 32.5t-25 47.5t-8 57q0 22 2.5 45t8.5 59l46 275h146l-49 -292q-2 -14 -4.5 -29t-2.5 -34q0 -10 3 -21t10 -20t18.5 -14.5t28.5 -5.5q26 0 45 12t36 35
q11 15 26.5 41.5t20.5 58.5l45 269h83l20 115h123z" />
    <glyph glyph-name="uni01CD" unicode="&#x1cd;" 
d="M400 0l-17 169h-196l-69 -169h-155l307 698h206l76 -698h-152zM356 553h-9l-110 -264h140zM321 749l-108 158l76 57l106 -115l134 115l70 -57l-154 -158h-124z" />
    <glyph glyph-name="uni01CE" unicode="&#x1ce;" 
d="M181 -12q-41 0 -68 14.5t-44 41t-24 64.5t-7 85q0 75 16 136.5t46 105.5t73.5 68.5t97.5 24.5q59 0 87.5 -28.5t39.5 -79.5h7l16 96h146l-68 -409h53l-18 -107h-75q-57 0 -85.5 28t-20.5 82l2 13h-5q-15 -30 -30.5 -54.5t-35 -42.5t-44.5 -28t-59 -10zM247 101
q26 0 47 13t38 35q11 14 25 40t19 58l14 83q7 41 -9.5 63t-63.5 22q-55 0 -81 -31.5t-36 -90.5l-10 -60q-2 -9 -3 -20.5t-1 -25.5q0 -36 13 -61t48 -25zM279 579l-108 158l76 57l106 -115l134 115l70 -57l-154 -158h-124z" />
    <glyph glyph-name="uni01CF" unicode="&#x1cf;" 
d="M32 0l18 110h151l80 478h-151l18 110h450l-18 -110h-151l-80 -478h151l-18 -110h-450zM325 749l-108 158l76 57l106 -115l134 115l70 -57l-154 -158h-124z" />
    <glyph glyph-name="uni01D0" unicode="&#x1d0;" 
d="M298 -12q-62 0 -93 32.5t-31 87.5q0 17 2 33t8 47l40 214h-156l19 114h304l-77 -410l17 -5l140 143l80 -71l-61 -70q-51 -57 -95.5 -86t-96.5 -29zM271 579l-108 158l76 57l106 -115l134 115l70 -57l-154 -158h-124z" />
    <glyph glyph-name="uni01D1" unicode="&#x1d1;" 
d="M279 -12q-63 0 -109 18t-76 52t-44 83t-14 110q0 89 17.5 172t55.5 146.5t97.5 102t142.5 38.5q63 0 109 -18t76 -52t44 -83t14 -110q0 -89 -17.5 -172t-55.5 -146.5t-97.5 -102t-142.5 -38.5zM279 108q63 0 92.5 47t43.5 133l20 120q6 36 6 72q0 52 -22 81t-70 29
q-63 0 -92.5 -47t-43.5 -133l-20 -120q-6 -36 -6 -72q0 -52 22 -81t70 -29zM309 749l-108 158l76 57l106 -115l134 115l70 -57l-154 -158h-124z" />
    <glyph glyph-name="uni01D2" unicode="&#x1d2;" 
d="M265 -12q-106 0 -164 59.5t-58 162.5q0 74 21.5 133t60 100t92 63t118.5 22q106 0 164 -59.5t58 -162.5q0 -74 -21.5 -133t-60 -100t-92 -63t-118.5 -22zM276 97q48 0 78.5 29t39.5 83l13 78q2 9 3.5 20.5t1.5 20.5q0 46 -23.5 68.5t-64.5 22.5q-48 0 -78.5 -29
t-39.5 -83l-13 -78q-2 -9 -3.5 -20.5t-1.5 -20.5q0 -46 23.5 -68.5t64.5 -22.5zM296 579l-108 158l76 57l106 -115l134 115l70 -57l-154 -158h-124z" />
    <glyph glyph-name="uni01D3" unicode="&#x1d3;" 
d="M275 698l-73 -438q-5 -27 -6.5 -45t-1.5 -29q0 -38 18.5 -58t64.5 -20q33 0 54 10.5t33.5 29.5t19.5 46t13 61l74 443h147l-71 -426q-12 -70 -28.5 -123t-47 -89t-79 -54t-123.5 -18q-62 0 -104.5 13.5t-68 38t-36.5 59t-11 77.5q0 26 3 54.5t8 60.5l68 407h147zM322 749
l-108 158l76 57l106 -115l134 115l70 -57l-154 -158h-124z" />
    <glyph glyph-name="uni01D4" unicode="&#x1d4;" 
d="M362 123h-5q-29 -63 -67.5 -99t-100.5 -36q-38 0 -64.5 12t-43.5 32.5t-25 47.5t-8 57q0 22 2.5 45t8.5 59l46 275h146l-49 -292q-2 -14 -4.5 -29t-2.5 -34q0 -10 3 -21t10 -20t18.5 -14.5t28.5 -5.5q26 0 45 12t36 35q11 15 26.5 41.5t20.5 58.5l45 269h146l-86 -516
h-146zM291 579l-108 158l76 57l106 -115l134 115l70 -57l-154 -158h-124z" />
    <glyph glyph-name="uni01D5" unicode="&#x1d5;" 
d="M275 698l-73 -438q-5 -27 -6.5 -45t-1.5 -29q0 -38 18.5 -58t64.5 -20q33 0 54 10.5t33.5 29.5t19.5 46t13 61l74 443h147l-71 -426q-12 -70 -28.5 -123t-47 -89t-79 -54t-123.5 -18q-62 0 -104.5 13.5t-68 38t-36.5 59t-11 77.5q0 26 3 54.5t8 60.5l68 407h147z
M276 1050h305l-17 -102h-305zM274 749q-41 0 -57.5 15.5t-16.5 38.5q0 5 1.5 13.5t3.5 22.5q5 27 24 43t61 16q41 0 57.5 -15.5t16.5 -38.5q0 -5 -1.5 -13.5t-3.5 -22.5q-5 -27 -24 -43t-61 -16zM492 749q-41 0 -57.5 15.5t-16.5 38.5q0 5 1.5 13.5t3.5 22.5q5 27 24 43
t61 16q41 0 57.5 -15.5t16.5 -38.5q0 -5 -1.5 -13.5t-3.5 -22.5q-5 -27 -24 -43t-61 -16z" />
    <glyph glyph-name="uni01D6" unicode="&#x1d6;" 
d="M362 123h-5q-29 -63 -67.5 -99t-100.5 -36q-38 0 -64.5 12t-43.5 32.5t-25 47.5t-8 57q0 22 2.5 45t8.5 59l46 275h146l-49 -292q-2 -14 -4.5 -29t-2.5 -34q0 -10 3 -21t10 -20t18.5 -14.5t28.5 -5.5q26 0 45 12t36 35q11 15 26.5 41.5t20.5 58.5l45 269h146l-86 -516
h-146zM245 880h305l-17 -102h-305zM243 579q-41 0 -57.5 15.5t-16.5 38.5q0 5 1.5 13.5t3.5 22.5q5 27 24 43t61 16q41 0 57.5 -15.5t16.5 -38.5q0 -5 -1.5 -13.5t-3.5 -22.5q-5 -27 -24 -43t-61 -16zM461 579q-41 0 -57.5 15.5t-16.5 38.5q0 5 1.5 13.5t3.5 22.5
q5 27 24 43t61 16q41 0 57.5 -15.5t16.5 -38.5q0 -5 -1.5 -13.5t-3.5 -22.5q-5 -27 -24 -43t-61 -16z" />
    <glyph glyph-name="uni01D7" unicode="&#x1d7;" 
d="M275 698l-73 -438q-5 -27 -6.5 -45t-1.5 -29q0 -38 18.5 -58t64.5 -20q33 0 54 10.5t33.5 29.5t19.5 46t13 61l74 443h147l-71 -426q-12 -70 -28.5 -123t-47 -89t-79 -54t-123.5 -18q-62 0 -104.5 13.5t-68 38t-36.5 59t-11 77.5q0 26 3 54.5t8 60.5l68 407h147zM412 893
l-79 40l103 194l109 -58zM274 749q-41 0 -57.5 15.5t-16.5 38.5q0 5 1.5 13.5t3.5 22.5q5 27 24 43t61 16q41 0 57.5 -15.5t16.5 -38.5q0 -5 -1.5 -13.5t-3.5 -22.5q-5 -27 -24 -43t-61 -16zM492 749q-41 0 -57.5 15.5t-16.5 38.5q0 5 1.5 13.5t3.5 22.5q5 27 24 43t61 16
q41 0 57.5 -15.5t16.5 -38.5q0 -5 -1.5 -13.5t-3.5 -22.5q-5 -27 -24 -43t-61 -16z" />
    <glyph glyph-name="uni01D8" unicode="&#x1d8;" 
d="M362 123h-5q-29 -63 -67.5 -99t-100.5 -36q-38 0 -64.5 12t-43.5 32.5t-25 47.5t-8 57q0 22 2.5 45t8.5 59l46 275h146l-49 -292q-2 -14 -4.5 -29t-2.5 -34q0 -10 3 -21t10 -20t18.5 -14.5t28.5 -5.5q26 0 45 12t36 35q11 15 26.5 41.5t20.5 58.5l45 269h146l-86 -516
h-146zM381 723l-79 40l103 194l109 -58zM243 579q-41 0 -57.5 15.5t-16.5 38.5q0 5 1.5 13.5t3.5 22.5q5 27 24 43t61 16q41 0 57.5 -15.5t16.5 -38.5q0 -5 -1.5 -13.5t-3.5 -22.5q-5 -27 -24 -43t-61 -16zM461 579q-41 0 -57.5 15.5t-16.5 38.5q0 5 1.5 13.5t3.5 22.5
q5 27 24 43t61 16q41 0 57.5 -15.5t16.5 -38.5q0 -5 -1.5 -13.5t-3.5 -22.5q-5 -27 -24 -43t-61 -16z" />
    <glyph glyph-name="uni01D9" unicode="&#x1d9;" 
d="M275 698l-73 -438q-5 -27 -6.5 -45t-1.5 -29q0 -38 18.5 -58t64.5 -20q33 0 54 10.5t33.5 29.5t19.5 46t13 61l74 443h147l-71 -426q-12 -70 -28.5 -123t-47 -89t-79 -54t-123.5 -18q-62 0 -104.5 13.5t-68 38t-36.5 59t-11 77.5q0 26 3 54.5t8 60.5l68 407h147zM357 918
l-120 148l69 63l107 -105l141 105l65 -63l-168 -148h-94zM274 749q-41 0 -57.5 15.5t-16.5 38.5q0 5 1.5 13.5t3.5 22.5q5 27 24 43t61 16q41 0 57.5 -15.5t16.5 -38.5q0 -5 -1.5 -13.5t-3.5 -22.5q-5 -27 -24 -43t-61 -16zM492 749q-41 0 -57.5 15.5t-16.5 38.5
q0 5 1.5 13.5t3.5 22.5q5 27 24 43t61 16q41 0 57.5 -15.5t16.5 -38.5q0 -5 -1.5 -13.5t-3.5 -22.5q-5 -27 -24 -43t-61 -16z" />
    <glyph glyph-name="uni01DA" unicode="&#x1da;" 
d="M362 123h-5q-29 -63 -67.5 -99t-100.5 -36q-38 0 -64.5 12t-43.5 32.5t-25 47.5t-8 57q0 22 2.5 45t8.5 59l46 275h146l-49 -292q-2 -14 -4.5 -29t-2.5 -34q0 -10 3 -21t10 -20t18.5 -14.5t28.5 -5.5q26 0 45 12t36 35q11 15 26.5 41.5t20.5 58.5l45 269h146l-86 -516
h-146zM326 748l-120 148l69 63l107 -105l141 105l65 -63l-168 -148h-94zM243 579q-41 0 -57.5 15.5t-16.5 38.5q0 5 1.5 13.5t3.5 22.5q5 27 24 43t61 16q41 0 57.5 -15.5t16.5 -38.5q0 -5 -1.5 -13.5t-3.5 -22.5q-5 -27 -24 -43t-61 -16zM461 579q-41 0 -57.5 15.5
t-16.5 38.5q0 5 1.5 13.5t3.5 22.5q5 27 24 43t61 16q41 0 57.5 -15.5t16.5 -38.5q0 -5 -1.5 -13.5t-3.5 -22.5q-5 -27 -24 -43t-61 -16z" />
    <glyph glyph-name="uni01DB" unicode="&#x1db;" 
d="M275 698l-73 -438q-5 -27 -6.5 -45t-1.5 -29q0 -38 18.5 -58t64.5 -20q33 0 54 10.5t33.5 29.5t19.5 46t13 61l74 443h147l-71 -426q-12 -70 -28.5 -123t-47 -89t-79 -54t-123.5 -18q-62 0 -104.5 13.5t-68 38t-36.5 59t-11 77.5q0 26 3 54.5t8 60.5l68 407h147z
M281 1070l119 56l69 -193l-80 -38zM274 749q-41 0 -57.5 15.5t-16.5 38.5q0 5 1.5 13.5t3.5 22.5q5 27 24 43t61 16q41 0 57.5 -15.5t16.5 -38.5q0 -5 -1.5 -13.5t-3.5 -22.5q-5 -27 -24 -43t-61 -16zM492 749q-41 0 -57.5 15.5t-16.5 38.5q0 5 1.5 13.5t3.5 22.5
q5 27 24 43t61 16q41 0 57.5 -15.5t16.5 -38.5q0 -5 -1.5 -13.5t-3.5 -22.5q-5 -27 -24 -43t-61 -16z" />
    <glyph glyph-name="uni01DC" unicode="&#x1dc;" 
d="M362 123h-5q-29 -63 -67.5 -99t-100.5 -36q-38 0 -64.5 12t-43.5 32.5t-25 47.5t-8 57q0 22 2.5 45t8.5 59l46 275h146l-49 -292q-2 -14 -4.5 -29t-2.5 -34q0 -10 3 -21t10 -20t18.5 -14.5t28.5 -5.5q26 0 45 12t36 35q11 15 26.5 41.5t20.5 58.5l45 269h146l-86 -516
h-146zM250 900l119 56l69 -193l-80 -38zM243 579q-41 0 -57.5 15.5t-16.5 38.5q0 5 1.5 13.5t3.5 22.5q5 27 24 43t61 16q41 0 57.5 -15.5t16.5 -38.5q0 -5 -1.5 -13.5t-3.5 -22.5q-5 -27 -24 -43t-61 -16zM461 579q-41 0 -57.5 15.5t-16.5 38.5q0 5 1.5 13.5t3.5 22.5
q5 27 24 43t61 16q41 0 57.5 -15.5t16.5 -38.5q0 -5 -1.5 -13.5t-3.5 -22.5q-5 -27 -24 -43t-61 -16z" />
    <glyph glyph-name="Aringacute" unicode="&#x1fa;" 
d="M400 0l-17 169h-196l-69 -169h-155l307 698h206l76 -698h-152zM356 553h-9l-110 -264h140zM414 976l-49 56l142 117l65 -79zM375 726q-28 0 -52.5 7t-42.5 20.5t-28 33t-10 44.5q0 31 13.5 56t36 42.5t53 26.5t65.5 9q28 0 52.5 -7t42.5 -20.5t28 -33t10 -44.5
q0 -32 -13.5 -56.5t-36 -42t-53.5 -26.5t-65 -9zM384 795q53 0 60 44q3 18 3 22q0 35 -46 35q-53 0 -60 -44q-3 -18 -3 -22q0 -35 46 -35z" />
    <glyph glyph-name="aringacute" unicode="&#x1fb;" 
d="M181 -12q-41 0 -68 14.5t-44 41t-24 64.5t-7 85q0 75 16 136.5t46 105.5t73.5 68.5t97.5 24.5q59 0 87.5 -28.5t39.5 -79.5h7l16 96h146l-68 -409h53l-18 -107h-75q-57 0 -85.5 28t-20.5 82l2 13h-5q-15 -30 -30.5 -54.5t-35 -42.5t-44.5 -28t-59 -10zM247 101
q26 0 47 13t38 35q11 14 25 40t19 58l14 83q7 41 -9.5 63t-63.5 22q-55 0 -81 -31.5t-36 -90.5l-10 -60q-2 -9 -3 -20.5t-1 -25.5q0 -36 13 -61t48 -25zM372 806l-49 56l142 117l65 -79zM333 556q-28 0 -52.5 7t-42.5 20.5t-28 33t-10 44.5q0 31 13.5 56t36 42.5t53 26.5
t65.5 9q28 0 52.5 -7t42.5 -20.5t28 -33t10 -44.5q0 -32 -13.5 -56.5t-36 -42t-53.5 -26.5t-65 -9zM342 625q53 0 60 44q3 18 3 22q0 35 -46 35q-53 0 -60 -44q-3 -18 -3 -22q0 -35 46 -35z" />
    <glyph glyph-name="AEacute" unicode="&#x1fc;" 
d="M308 169h-104l-63 -169h-144l276 698h415l-18 -110h-156l-30 -180h145l-18 -110h-145l-32 -188h155l-18 -110h-291zM357 595l-114 -316h84l53 316h-23zM475 740l-86 46l115 190l114 -60z" />
    <glyph glyph-name="aeacute" unicode="&#x1fd;" 
d="M110 -12q-52 0 -85 32t-33 101q0 85 55 134.5t156 49.5h40l7 42q3 18 3 31q0 29 -13.5 44t-36.5 15q-27 0 -46 -18.5t-33 -53.5l-80 46q29 65 68.5 91t95.5 26q44 0 77 -17.5t39 -61.5h3q20 35 55 57t84 22q63 0 99 -37.5t36 -96.5q0 -27 -10 -56t-37.5 -53.5t-77.5 -41
t-129 -17.5l-2 -11q-2 -14 -3 -26.5t-1 -21.5q0 -39 14 -61.5t42 -22.5q27 0 43.5 21t29.5 53l91 -39q-28 -66 -69 -98t-104 -32q-27 0 -51.5 6.5t-43.5 20.5t-31.5 36t-16.5 54h-4q-14 -59 -47.5 -88t-83.5 -29zM146 77q59 0 76 102l8 49h-29q-40 0 -65 -17t-32 -54
q-2 -14 -2.5 -22t-0.5 -10q0 -26 12.5 -37t32.5 -11zM450 439q-32 0 -55 -31t-34 -97l-1 -8q38 1 64 9t42 19.5t23 26.5t7 32q0 24 -12.5 36.5t-33.5 12.5zM356 570l-86 46l115 190l114 -60z" />
    <glyph glyph-name="Oslashacute" unicode="&#x1fe;" 
d="M279 -12q-91 0 -147 38l-71 -93l-88 57l90 117q-14 29 -20.5 65.5t-6.5 78.5q0 89 17.5 172t55.5 146.5t97.5 102t142.5 38.5q91 0 147 -38l71 93l88 -57l-90 -117q14 -29 20.5 -65.5t6.5 -78.5q0 -89 -17.5 -172t-55.5 -146.5t-97.5 -102t-142.5 -38.5zM191 302
q-3 -17 -4.5 -27.5t-1.5 -19.5v-1l236 308q-26 29 -72 29q-63 0 -94.5 -47.5t-45.5 -133.5zM279 107q63 0 94.5 47.5t45.5 133.5l18 108q3 17 4.5 27.5t1.5 19.5v1l-236 -308q26 -29 72 -29zM377 740l-86 46l115 190l114 -60z" />
    <glyph glyph-name="oslashacute" unicode="&#x1ff;" 
d="M-18 3l87 89q-26 50 -26 118q0 74 21.5 133t60 100t92 63t118.5 22q80 0 134 -36l81 82l68 -61l-87 -89q26 -50 26 -118q0 -74 -21.5 -133t-60 -100t-92 -63t-118.5 -22q-80 0 -134 36l-81 -82zM324 419q-48 0 -78.5 -29t-39.5 -83l-13 -78q-1 -5 -2.5 -14t-1.5 -11
l192 199q-22 16 -57 16zM276 97q49 0 79 29t39 83l13 78q1 5 2.5 14t1.5 11l-192 -199q22 -16 57 -16zM323 570l-86 46l115 190l114 -60z" />
    <glyph glyph-name="Scommaaccent" unicode="&#x218;" 
d="M268 -12q-87 0 -155.5 28t-100.5 79l93 94q31 -40 78 -59.5t94 -19.5q57 0 86.5 27.5t29.5 75.5q0 35 -19.5 51.5t-61.5 26.5l-69 16q-76 17 -110.5 63.5t-34.5 111.5q0 52 18.5 94t53.5 72t85 46t112 16q75 0 136 -26t91 -72l-97 -89q-23 32 -57.5 49.5t-79.5 17.5
q-55 0 -82 -25t-27 -67q0 -30 18.5 -46t65.5 -28l66 -17q146 -37 146 -177q0 -54 -18.5 -98.5t-54.5 -76.5t-88 -49.5t-118 -17.5zM183 -54h156l-121 -215h-88z" />
    <glyph glyph-name="scommaaccent" unicode="&#x219;" 
d="M258 -12q-78 0 -134.5 21.5t-82.5 62.5l82 81q22 -31 60.5 -46.5t84.5 -15.5q45 0 71.5 14.5t26.5 42.5q0 21 -15 30.5t-38 14.5l-74 16q-29 6 -54.5 16t-44.5 26.5t-29.5 40.5t-10.5 58q0 43 17.5 76.5t49 56t74.5 34t93 11.5q69 0 124 -19.5t81 -53.5l-80 -82
q-17 22 -51 37t-78 15q-39 0 -62.5 -14t-23.5 -42q0 -21 13.5 -29.5t37.5 -13.5l77 -17q65 -14 102 -45t37 -94q0 -43 -18 -76.5t-51 -57t-79.5 -36t-104.5 -12.5zM177 -54h156l-121 -215h-88z" />
    <glyph glyph-name="uni021A" unicode="&#x21a;" 
d="M427 576l-96 -576h-148l96 576h-202l20 122h552l-20 -122h-202zM172 -54h156l-121 -215h-88z" />
    <glyph glyph-name="uni021B" unicode="&#x21b;" 
d="M278 -12q-66 0 -96.5 35t-30.5 93q0 14 1.5 28.5t5.5 37.5l37 220h-132l19 114h83q32 0 48.5 13t21.5 47l20 122h136l-30 -182h202l-19 -114h-202l-48 -288l20 -7l156 123l72 -82l-60 -52q-32 -27 -58 -47.5t-49.5 -34t-46.5 -20t-50 -6.5zM195 -54h156l-121 -215h-88z
" />
    <glyph glyph-name="uni0237" unicode="&#x237;" 
d="M216 -212q-30 0 -53 9.5t-43.5 28.5t-40.5 46t-43 63l-32 50l100 69l113 -155l13 5l83 498h-189l19 114h335l-92 -553q-16 -94 -57 -134.5t-113 -40.5z" />
    <glyph glyph-name="uni0259" unicode="&#x259;" 
d="M240 -12q-39 0 -73.5 9t-60.5 26.5t-41 44t-15 62.5q0 31 13 62t50.5 56.5t106 43t178.5 21.5q1 6 1 9.5v7.5q0 42 -23 64t-76 22q-21 0 -38.5 -4t-34 -14.5t-33 -27.5t-36.5 -42l-91 59q20 29 43.5 54.5t53.5 45t67.5 30.5t87.5 11q115 0 170 -58.5t55 -161.5
q0 -72 -22 -131t-61.5 -101t-95.5 -65t-125 -23zM255 91q48 0 82 28.5t48 95.5l3 14q-69 -4 -108.5 -13t-59 -21t-24.5 -26t-5 -26q0 -52 64 -52z" />
    <glyph glyph-name="uni02BB" unicode="&#x2bb;" 
d="M353 794h88l-53 -215h-156z" />
    <glyph glyph-name="uni02BC" unicode="&#x2bc;" 
d="M199 525h-97l41 215h157z" />
    <glyph glyph-name="circumflex" unicode="&#x2c6;" 
d="M403 785l108 -158l-76 -57l-106 115l-134 -115l-70 57l154 158h124z" />
    <glyph glyph-name="caron" unicode="&#x2c7;" 
d="M253 579l-108 158l76 57l106 -115l134 115l70 -57l-154 -158h-124z" />
    <glyph glyph-name="breve" unicode="&#x2d8;" 
d="M323 570q-42 0 -72.5 15t-51.5 39t-34 54.5t-21 61.5l81 42l20 -37q18 -34 35 -53t49 -19q27 0 47 18.5t47 55.5l26 35l83 -42q-16 -32 -35.5 -62.5t-44.5 -54.5t-56.5 -38.5t-72.5 -14.5z" />
    <glyph glyph-name="dotaccent" unicode="&#x2d9;" 
d="M317 584q-45 0 -63.5 17.5t-18.5 43.5q0 5 1 13.5t4 26.5q5 32 27 49t67 17t63.5 -17.5t18.5 -43.5q0 -5 -1 -13.5t-4 -26.5q-5 -32 -27 -49t-67 -17z" />
    <glyph glyph-name="ring" unicode="&#x2da;" 
d="M309 550q-27 0 -51 9.5t-41.5 26t-27.5 39.5t-10 49q0 35 13.5 64.5t36 50.5t53 33t65.5 12q27 0 51 -9.5t41.5 -26t27.5 -39.5t10 -49q0 -35 -13.5 -64.5t-36 -50.5t-53.5 -33t-65 -12zM317 624q26 0 40.5 14t18.5 37q3 18 4.5 27.5t1.5 17.5q0 40 -43 40
q-26 0 -40.5 -14t-18.5 -37q-3 -18 -4.5 -27.5t-1.5 -17.5q0 -40 43 -40z" />
    <glyph glyph-name="ogonek" unicode="&#x2db;" 
d="M206 -212q-52 0 -86.5 21.5t-34.5 63.5q0 37 32.5 70t107.5 53l-4 17l59 6l20 -19q-39 -24 -62 -41t-35 -30t-15.5 -22t-3.5 -16q0 -31 38 -31q14 0 27.5 5.5t24.5 21.5l54 -45q-19 -24 -48 -39t-74 -15z" />
    <glyph glyph-name="tilde" unicode="&#x2dc;" 
d="M389 592q-23 0 -39.5 6.5t-33.5 14.5q-20 9 -37.5 15.5t-37.5 6.5q-17 0 -31 -6t-32 -19l-40 67q22 27 53 45.5t71 18.5q23 0 39.5 -6.5t33.5 -14.5q20 -9 37.5 -15.5t37.5 -6.5q17 0 31 6t32 19l40 -67q-22 -27 -53 -45.5t-71 -18.5z" />
    <glyph glyph-name="hungarumlaut" unicode="&#x2dd;" 
d="M220 571l-78 38l108 193l108 -56zM419 571l-78 38l108 193l108 -56z" />
    <glyph glyph-name="uni0300" unicode="&#x300;" horiz-adv-x="0" 
d="M-120 747l124 59l77 -196l-87 -39z" />
    <glyph glyph-name="uni0301" unicode="&#x301;" horiz-adv-x="0" 
d="M24 570l-86 46l115 190l114 -60z" />
    <glyph glyph-name="uni0302" unicode="&#x302;" horiz-adv-x="0" 
d="M104 785l108 -158l-76 -57l-106 115l-134 -115l-70 57l154 158h124z" />
    <glyph glyph-name="uni0303" unicode="&#x303;" horiz-adv-x="0" 
d="M90 592q-23 0 -39.5 6.5t-33.5 14.5q-20 9 -37.5 15.5t-37.5 6.5q-17 0 -31 -6t-32 -19l-40 67q22 27 53 45.5t71 18.5q23 0 39.5 -6.5t33.5 -14.5q20 -9 37.5 -15.5t37.5 -6.5q17 0 31 6t32 19l40 -67q-22 -27 -53 -45.5t-71 -18.5z" />
    <glyph glyph-name="uni0304" unicode="&#x304;" horiz-adv-x="0" 
d="M-118 718h305l-17 -102h-305z" />
    <glyph glyph-name="uni0306" unicode="&#x306;" horiz-adv-x="0" 
d="M24 570q-42 0 -72.5 15t-51.5 39t-34 54.5t-21 61.5l81 42l20 -37q18 -34 35 -53t49 -19q27 0 47 18.5t47 55.5l26 35l83 -42q-16 -32 -35.5 -62.5t-44.5 -54.5t-56.5 -38.5t-72.5 -14.5z" />
    <glyph glyph-name="uni0307" unicode="&#x307;" horiz-adv-x="0" 
d="M18 584q-45 0 -63.5 17.5t-18.5 43.5q0 5 1 13.5t4 26.5q5 32 27 49t67 17t63.5 -17.5t18.5 -43.5q0 -5 -1 -13.5t-4 -26.5q-5 -32 -27 -49t-67 -17z" />
    <glyph glyph-name="uni0308" unicode="&#x308;" horiz-adv-x="0" 
d="M-91 592q-41 0 -57.5 15.5t-16.5 38.5q0 5 1.5 13t3.5 22q5 27 23 43.5t62 16.5q41 0 57.5 -15.5t16.5 -38.5q0 -5 -1.5 -13t-3.5 -22q-5 -27 -23 -43.5t-62 -16.5zM127 592q-41 0 -57.5 15.5t-16.5 38.5q0 5 1.5 13t3.5 22q5 27 23 43.5t62 16.5q41 0 57.5 -15.5
t16.5 -38.5q0 -5 -1.5 -13t-3.5 -22q-5 -27 -23 -43.5t-62 -16.5z" />
    <glyph glyph-name="uni0309" unicode="&#x309;" horiz-adv-x="0" 
d="M-73 792h147q42 0 61.5 -17t19.5 -42q0 -31 -14 -55.5t-35 -50.5l-54 -66l-71 34l50 93h-122z" />
    <glyph glyph-name="uni030A" unicode="&#x30a;" horiz-adv-x="0" 
d="M10 550q-27 0 -51 9.5t-41.5 26t-27.5 39.5t-10 49q0 35 13.5 64.5t36 50.5t53 33t65.5 12q27 0 51 -9.5t41.5 -26t27.5 -39.5t10 -49q0 -35 -13.5 -64.5t-36 -50.5t-53.5 -33t-65 -12zM18 624q26 0 40.5 14t18.5 37q3 18 4.5 27.5t1.5 17.5q0 40 -43 40q-26 0 -40.5 -14
t-18.5 -37q-3 -18 -4.5 -27.5t-1.5 -17.5q0 -40 43 -40z" />
    <glyph glyph-name="uni030B" unicode="&#x30b;" horiz-adv-x="0" 
d="M-79 571l-78 38l108 193l108 -56zM120 571l-78 38l108 193l108 -56z" />
    <glyph glyph-name="uni030C" unicode="&#x30c;" horiz-adv-x="0" 
d="M-46 579l-108 158l76 57l106 -115l134 115l70 -57l-154 -158h-124z" />
    <glyph glyph-name="uni0312" unicode="&#x312;" horiz-adv-x="0" 
d="M54 794h88l-53 -215h-156z" />
    <glyph glyph-name="uni0315" unicode="&#x315;" horiz-adv-x="0" 
d="M63 525h-97l41 215h157z" />
    <glyph glyph-name="uni031B" unicode="&#x31b;" horiz-adv-x="0" 
d="M124 528q-4 -24 -11.5 -42.5t-20.5 -31t-32.5 -19t-48.5 -6.5h-152l15 87h124l20 115h123z" />
    <glyph glyph-name="uni0323" unicode="&#x323;" horiz-adv-x="0" 
d="M-28 -202q-41 0 -56.5 15.5t-15.5 38.5q0 5 1.5 13.5t3.5 22.5q5 27 23 43t60 16q41 0 56.5 -15.5t15.5 -38.5q0 -5 -1.5 -13.5t-3.5 -22.5q-5 -27 -23 -43t-60 -16z" />
    <glyph glyph-name="uni0326" unicode="&#x326;" horiz-adv-x="0" 
d="M-86 -54h156l-121 -215h-88z" />
    <glyph glyph-name="uni0327" unicode="&#x327;" horiz-adv-x="0" 
d="M-14 -212q-45 0 -74.5 13.5t-43.5 32.5l51 53q8 -9 23 -18.5t41 -9.5q19 0 33 7t14 22q0 11 -13.5 21.5t-54.5 14.5l-23 2l40 104h67l-31 -85l3 -4q21 7 41 7q27 0 47 -14.5t20 -47.5q0 -23 -11 -41t-29.5 -31t-44 -19.5t-55.5 -6.5z" />
    <glyph glyph-name="uni0328" unicode="&#x328;" horiz-adv-x="0" 
d="M-93 -212q-52 0 -86.5 21.5t-34.5 63.5q0 37 32.5 70t107.5 53l-4 17l59 6l20 -19q-39 -24 -62 -41t-35 -30t-15.5 -22t-3.5 -16q0 -31 38 -31q14 0 27.5 5.5t24.5 21.5l54 -45q-19 -24 -48 -39t-74 -15z" />
    <glyph glyph-name="pi" unicode="&#x3c0;" 
d="M104 402h-70l19 114h551l-19 -114h-78l-53 -306l15 -5l77 56l53 -59l-30 -29q-40 -38 -71.5 -54.5t-73.5 -16.5q-49 0 -76.5 27.5t-27.5 82.5q0 31 10 90l35 214h-120l-67 -402h-141z" />
    <glyph glyph-name="uni0400" unicode="&#x400;" 
d="M38 0l117 698h446l-20 -122h-300l-27 -162h286l-20 -122h-287l-28 -170h299l-20 -122h-446zM250 917l124 59l77 -196l-87 -39z" />
    <glyph glyph-name="uni0401" unicode="&#x401;" 
d="M38 0l117 698h446l-20 -122h-300l-27 -162h286l-20 -122h-287l-28 -170h299l-20 -122h-446zM279 762q-41 0 -57.5 15.5t-16.5 38.5q0 5 1 12.5t4 23.5q5 26 23 42.5t62 16.5q41 0 57.5 -15.5t16.5 -38.5q0 -5 -1 -12.5t-4 -23.5q-5 -26 -23 -42.5t-62 -16.5zM497 762
q-41 0 -57.5 15.5t-16.5 38.5q0 5 1 12.5t4 23.5q5 26 23 42.5t62 16.5q41 0 57.5 -15.5t16.5 -38.5q0 -5 -1 -12.5t-4 -23.5q-5 -26 -23 -42.5t-62 -16.5z" />
    <glyph glyph-name="uni0402" unicode="&#x402;" 
d="M356 -205q-25 0 -45.5 7.5t-37.5 19.5t-30 26.5t-23 29.5l-21 30l94 72l63 -73l13 5l49 284q5 29 7 46t2 29q0 53 -59 53q-20 0 -38.5 -3.5t-32.5 -9.5l-52 -311h-148l96 576h-132l20 122h412l-20 -122h-132l-25 -150h5q23 9 46.5 13.5t55.5 4.5q68 0 108.5 -39.5
t40.5 -114.5q0 -29 -3.5 -62.5t-9.5 -68.5l-31 -189q-15 -90 -57.5 -132.5t-114.5 -42.5z" />
    <glyph glyph-name="uni0403" unicode="&#x403;" 
d="M182 698h420l-21 -122h-272l-95 -576h-148zM413 740l-86 46l115 190l114 -60z" />
    <glyph glyph-name="uni0404" unicode="&#x404;" 
d="M287 -12q-123 0 -181.5 70.5t-58.5 195.5q0 102 23 186t65 144t101.5 93t133.5 33q58 0 100 -13.5t70 -38.5t44 -59.5t23 -76.5l-143 -32q-4 24 -10.5 42.5t-18 31.5t-29 19.5t-42.5 6.5q-61 0 -94 -47.5t-47 -128.5h174l-20 -122h-175q-2 -17 -4 -33t-2 -38
q0 -53 23 -83t78 -30q48 0 77 27.5t52 72.5l123 -45q-22 -45 -47.5 -78t-57 -54.5t-70.5 -32t-87 -10.5z" />
    <glyph glyph-name="uni0405" unicode="&#x405;" 
d="M268 -12q-87 0 -155.5 28t-100.5 79l93 94q31 -40 78 -59.5t94 -19.5q57 0 86.5 27.5t29.5 75.5q0 35 -19.5 51.5t-61.5 26.5l-69 16q-76 17 -110.5 63.5t-34.5 111.5q0 52 18.5 94t53.5 72t85 46t112 16q75 0 136 -26t91 -72l-97 -89q-23 32 -57.5 49.5t-79.5 17.5
q-55 0 -82 -25t-27 -67q0 -30 18.5 -46t65.5 -28l66 -17q146 -37 146 -177q0 -54 -18.5 -98.5t-54.5 -76.5t-88 -49.5t-118 -17.5z" />
    <glyph glyph-name="uni0406" unicode="&#x406;" 
d="M32 0l18 110h151l80 478h-151l18 110h450l-18 -110h-151l-80 -478h151l-18 -110h-450z" />
    <glyph glyph-name="uni0407" unicode="&#x407;" 
d="M32 0l18 110h151l80 478h-151l18 110h450l-18 -110h-151l-80 -478h151l-18 -110h-450zM280 762q-41 0 -57.5 15.5t-16.5 38.5q0 5 1 12.5t4 23.5q5 26 23 42.5t62 16.5q41 0 57.5 -15.5t16.5 -38.5q0 -5 -1 -12.5t-4 -23.5q-5 -26 -23 -42.5t-62 -16.5zM498 762
q-41 0 -57.5 15.5t-16.5 38.5q0 5 1 12.5t4 23.5q5 26 23 42.5t62 16.5q41 0 57.5 -15.5t16.5 -38.5q0 -5 -1 -12.5t-4 -23.5q-5 -26 -23 -42.5t-62 -16.5z" />
    <glyph glyph-name="uni0408" unicode="&#x408;" 
d="M583 698l-83 -496q-36 -214 -257 -214q-105 0 -158.5 54.5t-55.5 142.5l139 26q2 -44 20 -73.5t66 -29.5q40 0 65.5 24t33.5 74l62 370h-234l20 122h382z" />
    <glyph glyph-name="uni0409" unicode="&#x409;" 
d="M-24 113h38q14 13 27 35t27.5 66.5t30 116t34.5 183.5l31 184h297l-42 -252h21q75 0 114 -45.5t39 -120.5q0 -137 -62 -208.5t-169 -71.5h-145l97 585h-53l-14 -83q-19 -113 -36 -190t-34.5 -129t-36 -83.5t-40.5 -53.5q-29 -29 -61.5 -40.5t-66.5 -11.5h-15zM380 113
q26 0 44.5 18.5t27.5 73.5l3 19q2 17 3 27.5t1 27.5q0 24 -9 39t-33 15h-17l-37 -220h17z" />
    <glyph glyph-name="uni040A" unicode="&#x40a;" 
d="M102 698h128l-48 -288h87l48 288h128l-42 -252h10q89 0 134.5 -46.5t45.5 -125.5q0 -132 -64.5 -203t-174.5 -71h-153l49 297h-87l-49 -297h-128zM359 113q41 0 63 20.5t30 71.5l3 19q2 17 3 27t1 22q0 28 -12 44t-52 16h-11l-37 -220h12z" />
    <glyph glyph-name="uni040B" unicode="&#x40b;" 
d="M193 576h-132l20 122h412l-20 -122h-132l-25 -150h5q23 9 46.5 13.5t55.5 4.5q68 0 108.5 -39.5t40.5 -114.5q0 -29 -3 -59t-8 -63l-28 -168h-148l33 196q5 29 7 46t2 29q0 53 -59 53q-20 0 -38.5 -3.5t-32.5 -9.5l-52 -311h-148z" />
    <glyph glyph-name="uni040C" unicode="&#x40c;" 
d="M143 698h148l-47 -285h90l155 285h150l-141 -260q-20 -37 -42.5 -53.5t-51.5 -21.5l-1 -6q26 -8 40.5 -27t23.5 -58l34 -150h56l-20 -122h-66q-49 0 -75 22.5t-39 77.5l-44 194h-89l-49 -294h-148zM399 740l-86 46l115 190l114 -60z" />
    <glyph glyph-name="uni040D" unicode="&#x40d;" 
d="M129 698h140l-43 -259l-46 -189h9l103 157l190 291h137l-116 -698h-140l43 259l46 189h-9l-106 -162l-187 -286h-137zM247 917l124 59l77 -196l-87 -39z" />
    <glyph glyph-name="uni040E" unicode="&#x40e;" 
d="M88 122h114l30 57l-141 519h150l59 -248l20 -124h3l51 124l127 248h155l-309 -575q-19 -35 -38 -58.5t-40 -38t-46 -20.5t-56 -6h-99zM379 740q-58 0 -96 28.5t-56 90.5l-15 50l115 43l4 -107q11 -3 28 -5t29 -2q14 0 30 2t25 5l34 107l111 -43l-30 -57q-30 -58 -76 -85
t-103 -27z" />
    <glyph glyph-name="uni040F" unicode="&#x40f;" 
d="M191 0h-171l116 698h148l-96 -576h180l96 576h148l-116 -698h-172l-25 -150h-133z" />
    <glyph glyph-name="uni0410" unicode="&#x410;" 
d="M400 0l-17 169h-196l-69 -169h-155l307 698h206l76 -698h-152zM356 553h-9l-110 -264h140z" />
    <glyph glyph-name="uni0411" unicode="&#x411;" 
d="M141 698h429l-20 -122h-281l-25 -150h126q46 0 81.5 -13.5t59.5 -37.5t36.5 -56.5t12.5 -69.5q0 -57 -17.5 -103t-50 -78.5t-78.5 -50t-103 -17.5h-286zM290 118q51 0 76.5 18.5t33.5 65.5l3 17q3 15 3 33q0 56 -84 56h-97l-32 -190h97z" />
    <glyph glyph-name="uni0412" unicode="&#x412;" 
d="M152 698h237q91 0 139 -44t48 -117q0 -146 -145 -182l-1 -5q55 -11 84.5 -44t29.5 -89q0 -49 -16.5 -89t-47.5 -68.5t-75.5 -44t-99.5 -15.5h-270zM273 104q50 0 79 17t36 58l4 24q2 9 3.5 19t1.5 16q0 35 -20 50t-65 15h-82l-33 -199h76zM304 402q53 0 80 15.5t35 60.5
l4 24q1 5 2 14.5t1 16.5q0 34 -21.5 47.5t-61.5 13.5h-64l-32 -192h57z" />
    <glyph glyph-name="uni0413" unicode="&#x413;" 
d="M182 698h420l-21 -122h-272l-95 -576h-148z" />
    <glyph glyph-name="uni0414" unicode="&#x414;" 
d="M-7 122h48q21 18 41 48t38.5 75.5t35.5 110t32 153.5l32 189h371l-96 -576h68l-45 -272h-133l25 150h-303l-25 -150h-135zM351 122l76 458h-99l-17 -101q-14 -80 -28.5 -139t-29.5 -101.5t-31.5 -70.5t-32.5 -46h162z" />
    <glyph glyph-name="uni0415" unicode="&#x415;" 
d="M38 0l117 698h446l-20 -122h-300l-27 -162h286l-20 -122h-287l-28 -170h299l-20 -122h-446z" />
    <glyph glyph-name="uni0416" unicode="&#x416;" 
d="M50 251q17 50 41.5 75t63.5 31l1 6q-30 9 -43.5 32t-14.5 70l-5 233h121l6 -290h43l48 290h126l-48 -290h43l99 290h124l-83 -242q-16 -47 -36.5 -67t-55.5 -26l-1 -6q32 -9 46 -34t16 -73l10 -250h-127l-11 298h-43l-49 -298h-126l49 298h-45l-104 -298h-133z" />
    <glyph glyph-name="uni0417" unicode="&#x417;" 
d="M262 -12q-84 0 -146 28t-98 79l93 94q27 -35 68 -57t92 -22q48 0 74.5 21t32.5 60l2 15q1 5 1.5 11t0.5 12q0 30 -18.5 45.5t-66.5 15.5h-88l20 119h88q48 0 71 19t31 66l2 11q2 10 2 20q0 31 -24 48t-72 17q-86 0 -145 -74l-85 86q45 53 105.5 80.5t139.5 27.5
q112 0 171 -44t59 -125q0 -37 -13 -68t-36 -54t-54.5 -37.5t-68.5 -18.5l-1 -6q71 -12 102 -47t31 -91q0 -48 -17.5 -90t-52 -73.5t-84.5 -49.5t-116 -18z" />
    <glyph glyph-name="uni0418" unicode="&#x418;" 
d="M129 698h140l-43 -259l-46 -189h9l103 157l190 291h137l-116 -698h-140l43 259l46 189h-9l-106 -162l-187 -286h-137z" />
    <glyph glyph-name="uni0419" unicode="&#x419;" 
d="M129 698h140l-43 -259l-46 -189h9l103 157l190 291h137l-116 -698h-140l43 259l46 189h-9l-106 -162l-187 -286h-137zM383 740q-58 0 -96 28.5t-56 90.5l-15 50l115 43l4 -107q11 -3 28 -5t29 -2q14 0 30 2t25 5l34 107l111 -43l-30 -57q-30 -58 -76 -85t-103 -27z" />
    <glyph glyph-name="uni041A" unicode="&#x41a;" 
d="M143 698h148l-47 -285h90l155 285h150l-141 -260q-20 -37 -42.5 -53.5t-51.5 -21.5l-1 -6q26 -8 40.5 -27t23.5 -58l34 -150h56l-20 -122h-66q-49 0 -75 22.5t-39 77.5l-44 194h-89l-49 -294h-148z" />
    <glyph glyph-name="uni041B" unicode="&#x41b;" 
d="M-13 122h70q19 17 35.5 45.5t32 71.5t29.5 102t28 139l37 218h395l-116 -698h-148l96 577h-111l-20 -118q-15 -86 -31.5 -151t-34.5 -112.5t-37.5 -80t-39.5 -52.5q-39 -39 -80.5 -54t-93.5 -15h-33z" />
    <glyph glyph-name="uni041C" unicode="&#x41c;" 
d="M442 311l40 197h-9l-191 -359l-70 359h-9l-25 -197l-52 -311h-128l117 698h169l48 -237h9l126 237h168l-117 -698h-128z" />
    <glyph glyph-name="uni041D" unicode="&#x41d;" 
d="M397 293h-180l-49 -293h-148l116 698h148l-47 -284h180l47 284h148l-116 -698h-148z" />
    <glyph glyph-name="uni041E" unicode="&#x41e;" 
d="M279 -12q-63 0 -109 18t-76 52t-44 83t-14 110q0 89 17.5 172t55.5 146.5t97.5 102t142.5 38.5q63 0 109 -18t76 -52t44 -83t14 -110q0 -89 -17.5 -172t-55.5 -146.5t-97.5 -102t-142.5 -38.5zM279 108q63 0 92.5 47t43.5 133l20 120q6 36 6 72q0 52 -22 81t-70 29
q-63 0 -92.5 -47t-43.5 -133l-20 -120q-6 -36 -6 -72q0 -52 22 -81t70 -29z" />
    <glyph glyph-name="uni041F" unicode="&#x41f;" 
d="M136 698h476l-116 -698h-148l96 576h-180l-96 -576h-148z" />
    <glyph glyph-name="uni0420" unicode="&#x420;" 
d="M37 0l117 698h252q46 0 81.5 -13.5t59.5 -38.5t36.5 -59t12.5 -74q0 -60 -17.5 -107.5t-50 -80.5t-78.5 -51t-103 -18h-119l-43 -256h-148zM248 376h78q51 0 76 19t33 64l5 30q1 5 1.5 12t0.5 15q0 34 -18.5 48.5t-63.5 14.5h-78z" />
    <glyph glyph-name="uni0421" unicode="&#x421;" 
d="M290 -12q-123 0 -181.5 70.5t-58.5 195.5q0 102 23 186t65 144t101.5 93t133.5 33q58 0 100.5 -15t70.5 -42t42.5 -65t17.5 -83l-143 -29q-2 25 -6.5 46t-15 36t-28 23.5t-44.5 8.5q-62 0 -95 -49t-47 -133l-18 -109q-3 -18 -5.5 -36t-2.5 -42q0 -53 23 -83t78 -30
q24 0 44 9.5t36 25.5t29 37.5t23 46.5l127 -38q-41 -98 -104.5 -149.5t-164.5 -51.5z" />
    <glyph glyph-name="uni0422" unicode="&#x422;" 
d="M427 576l-96 -576h-148l96 576h-202l20 122h552l-20 -122h-202z" />
    <glyph glyph-name="uni0423" unicode="&#x423;" 
d="M88 122h114l30 57l-141 519h150l59 -248l20 -124h3l51 124l127 248h155l-309 -575q-19 -35 -38 -58.5t-40 -38t-46 -20.5t-56 -6h-99z" />
    <glyph glyph-name="uni0424" unicode="&#x424;" 
d="M196 49q-74 13 -118 61t-44 140q0 89 17.5 160t51 121.5t82.5 80t111 35.5l14 83h139l-14 -83q37 -7 67 -22t51 -39.5t32.5 -59t11.5 -80.5q0 -89 -17.5 -160t-51 -121.5t-82.5 -80t-111 -35.5l-14 -83h-139zM285 543q-36 -9 -64.5 -44t-40.5 -104l-15 -89
q-2 -15 -3.5 -29t-1.5 -27q0 -73 60 -97zM346 153q36 9 64.5 44t40.5 104l15 89q2 15 3.5 29t1.5 27q0 73 -60 97z" />
    <glyph glyph-name="uni0425" unicode="&#x425;" 
d="M550 0h-165l-49 139l-34 110h-9l-66 -110l-97 -139h-163l256 361l-129 337h166l39 -111l33 -112h8l70 112l78 111h162l-237 -339z" />
    <glyph glyph-name="uni0426" unicode="&#x426;" 
d="M414 -190q-42 0 -82 14.5t-93 41.5l-11 -5l-8 -47h-111l6 38q18 112 112 112q15 0 31 -2.5t45 -10.5l119 -30l11 5l18 74h-442l116 698h148l-96 -576h158l96 576h148l-96 -576h78l-34 -200q-10 -60 -38 -86t-75 -26z" />
    <glyph glyph-name="uni0427" unicode="&#x427;" 
d="M386 246h-6q-23 -11 -50.5 -16.5t-63.5 -5.5q-98 0 -146.5 45t-48.5 133q0 33 2.5 63t7.5 59l29 174h148l-34 -202q-5 -32 -6.5 -47.5t-1.5 -32.5q0 -33 19 -52.5t65 -19.5q28 0 54.5 4t50.5 13l56 337h148l-116 -698h-148z" />
    <glyph glyph-name="uni0428" unicode="&#x428;" 
d="M102 698h128l-97 -585h80l97 585h128l-97 -585h80l97 585h128l-116 -698h-544z" />
    <glyph glyph-name="uni0429" unicode="&#x429;" 
d="M422 -190q-15 0 -28 2.5t-29 8.5t-37.5 17t-52.5 28l-11 -5l-8 -47h-111l6 38q18 112 112 112q14 0 27 -2.5t39 -10.5l101 -30l11 5l18 74h-473l116 698h120l-97 -585h73l97 585h120l-97 -585h73l97 585h120l-97 -585h57l-33 -191q-10 -60 -38 -86t-75 -26z" />
    <glyph glyph-name="uni042A" unicode="&#x42a;" 
d="M178 576h-117l20 122h265l-42 -252h93q46 0 81.5 -14t59.5 -38.5t36.5 -58.5t12.5 -73q0 -61 -17.5 -109.5t-50 -82.5t-78.5 -52t-103 -18h-256zM317 118q51 0 76 21t33 66l3 17q2 10 3 20t1 20q0 34 -18.5 50t-63.5 16h-67l-35 -210h68z" />
    <glyph glyph-name="uni042B" unicode="&#x42b;" 
d="M161 112q41 0 63 21t30 72l3 19q2 17 3 27.5t1 22.5q0 28 -12 44t-52 16h-28l-37 -222h29zM102 698h128l-42 -252h27q89 0 134.5 -46.5t45.5 -125.5q0 -132 -64.5 -203t-174.5 -71h-170zM518 698h128l-116 -698h-128z" />
    <glyph glyph-name="uni042C" unicode="&#x42c;" 
d="M289 118q51 0 76 21t33 66l3 17q2 10 3 20t1 20q0 34 -18.5 50t-63.5 16h-91l-35 -210h92zM146 698h148l-42 -252h117q46 0 81.5 -14t59.5 -38.5t36.5 -58.5t12.5 -73q0 -61 -17.5 -109.5t-50 -82.5t-78.5 -52t-103 -18h-280z" />
    <glyph glyph-name="uni042D" unicode="&#x42d;" 
d="M257 414h173q2 14 4 28.5t2 34.5q0 53 -23 83t-78 30q-48 0 -77 -27.5t-52 -72.5l-123 45q22 45 47.5 78t57 54.5t70.5 32t87 10.5q123 0 181.5 -70.5t58.5 -195.5q0 -102 -23 -186t-65 -144t-101.5 -93t-133.5 -33q-59 0 -100.5 13.5t-69.5 38.5t-44 59.5t-23 76.5
l143 32q7 -48 28 -74t72 -26q62 0 95 49t47 135h-173z" />
    <glyph glyph-name="uni042E" unicode="&#x42e;" 
d="M356 -12q-74 0 -112 46.5t-38 155.5q0 23 1.5 50t5.5 57h-49l-49 -297h-129l116 698h128l-48 -288h50q8 39 19 76t24 70t28 59.5t32 43.5q26 26 55.5 38.5t67.5 12.5q74 0 112 -46.5t38 -155.5q0 -49 -9 -117t-25.5 -136.5t-40.5 -127t-54 -88.5q-26 -26 -55.5 -38.5
t-67.5 -12.5zM362 94q14 0 24.5 5t19 18.5t15.5 38t13 62.5l44 262q4 25 6 43.5t2 32.5q0 26 -8.5 37t-25.5 11q-14 0 -24.5 -5t-19 -18.5t-15.5 -38t-13 -62.5l-44 -262q-4 -25 -6 -43.5t-2 -32.5q0 -26 8.5 -37t25.5 -11z" />
    <glyph glyph-name="uni042F" unicode="&#x42f;" 
d="M17 122h54l62 93q20 29 38.5 43.5t50.5 22.5l1 6q-65 14 -100.5 55t-35.5 110q0 55 18 100t51 77.5t79 50.5t101 18h272l-116 -698h-148l44 266h-53l-120 -181q-33 -48 -67.5 -66.5t-82.5 -18.5h-68zM408 383l33 197h-84q-51 0 -76 -21t-33 -62l-3 -17q-2 -11 -2.5 -18.5
t-0.5 -18.5q0 -30 19.5 -45t61.5 -15h85z" />
    <glyph glyph-name="uni0430" unicode="&#x430;" 
d="M181 -12q-41 0 -68 14.5t-44 41t-24 64.5t-7 85q0 75 16 136.5t46 105.5t73.5 68.5t97.5 24.5q59 0 87.5 -28.5t39.5 -79.5h7l16 96h146l-68 -409h53l-18 -107h-75q-57 0 -85.5 28t-20.5 82l2 13h-5q-15 -30 -30.5 -54.5t-35 -42.5t-44.5 -28t-59 -10zM247 101
q26 0 47 13t38 35q11 14 25 40t19 58l14 83q7 41 -9.5 63t-63.5 22q-55 0 -81 -31.5t-36 -90.5l-10 -60q-2 -9 -3 -20.5t-1 -25.5q0 -36 13 -61t48 -25z" />
    <glyph glyph-name="uni0431" unicode="&#x431;" 
d="M265 -12q-105 0 -162 59.5t-57 162.5q0 52 11 115t31.5 124.5t48 115t60.5 86.5q23 23 49 40.5t58 29.5t71.5 18.5t89.5 8.5l137 4l-27 -132l-131 -4q-56 -2 -88 -14.5t-53 -33.5q-23 -23 -43.5 -64.5t-35.5 -100.5h7q27 50 63.5 74.5t88.5 24.5q36 0 67.5 -13.5
t54.5 -39t36 -61.5t13 -82q0 -74 -21 -133t-59 -100t-91.5 -63t-117.5 -22zM276 97q48 0 77.5 29t40.5 83l10 52q2 9 3.5 20.5t1.5 20.5q0 46 -24.5 68.5t-64.5 22.5q-51 0 -80 -28.5t-38 -81.5l-9 -54q-2 -9 -3.5 -20.5t-1.5 -20.5q0 -46 23 -68.5t65 -22.5z" />
    <glyph glyph-name="uni0432" unicode="&#x432;" 
d="M275 -12q-56 0 -97 15t-68 41t-40.5 62t-13.5 78q0 21 3 45.5t8 53.5q20 115 92 180t189 65q90 0 140.5 -36.5t50.5 -97.5q0 -53 -33 -82t-90 -38l-1 -5q47 -6 72.5 -31t25.5 -69q0 -42 -19 -75.5t-51 -57t-75.5 -36t-92.5 -12.5zM282 92q77 0 87 64q1 5 1.5 10t0.5 13
q0 20 -14 29.5t-39 9.5q-17 0 -38 -2t-48 -6l-32 -5q-1 -6 -1.5 -13t-0.5 -15q0 -38 22 -61.5t62 -23.5zM251 295q44 6 71 12.5t42.5 14t21.5 16.5t9 20q2 8 2 16q0 20 -16 35t-52 15q-42 0 -72.5 -29.5t-41.5 -88.5l-3 -17z" />
    <glyph glyph-name="uni0433" unicode="&#x433;" 
d="M252 -12q-103 0 -155 37.5t-52 108.5q0 64 43 111t139 63l76 13q51 9 69 22.5t18 34.5q0 41 -65 41q-45 0 -80 -16t-61 -39l-75 77q43 38 98.5 62.5t135.5 24.5q91 0 141 -37.5t50 -106.5q0 -62 -43 -109t-139 -63l-76 -13q-54 -9 -70.5 -23.5t-16.5 -35.5
q0 -22 18 -32.5t63 -10.5q42 0 83 14.5t68 40.5l75 -77q-42 -38 -102.5 -62.5t-141.5 -24.5z" />
    <glyph glyph-name="uni0434" unicode="&#x434;" 
d="M247 -12q-99 0 -153 56.5t-54 153.5q0 76 20 135.5t53.5 100t77.5 61.5t93 21q54 0 84 -25.5t40 -76.5h7v40q0 91 -33 132t-107 41q-27 0 -51 -4t-44 -10l21 126q23 6 50 9.5t57 3.5q131 0 193 -72.5t62 -205.5q0 -153 -32.5 -254.5t-85.5 -154.5q-41 -41 -91 -59
t-107 -18zM264 97q45 0 74 29.5t42 94.5l10 51q8 38 8 68t-16 48.5t-61 18.5q-47 0 -78 -30t-43 -90l-11 -54q-3 -17 -4.5 -27.5t-1.5 -21.5q0 -43 22 -65t59 -22z" />
    <glyph glyph-name="uni0435" unicode="&#x435;" 
d="M281 -12q-115 0 -170 58.5t-55 161.5q0 72 22 131t61.5 101t95.5 65t125 23q39 0 73.5 -9t60.5 -26.5t41 -44t15 -62.5q0 -31 -13 -62t-50.5 -56.5t-106 -43t-178.5 -21.5q-1 -6 -1 -9.5v-7.5q0 -42 23 -64t76 -22q21 0 38.5 4t34 14.5t33 27t36.5 42.5l91 -59
q-20 -29 -43.5 -54.5t-53.5 -45t-68 -30.5t-87 -11zM345 425q-48 0 -82 -28.5t-48 -95.5l-3 -14q69 4 108.5 13t59 21t24.5 26t5 26q0 52 -64 52z" />
    <glyph glyph-name="uni0436" unicode="&#x436;" 
d="M-17 108h69q11 26 21.5 69t17.5 91q5 35 7.5 65t2.5 55v20h-64l18 108h33q56 0 86.5 -32.5t30.5 -112.5q0 -17 -0.5 -32.5t-1.5 -26.5h47l34 204h118l-34 -204h43q12 56 28.5 97t36.5 61q24 24 52.5 35t73.5 11h29l-18 -108h-65q-11 -26 -21.5 -69t-17.5 -91
q-5 -35 -7.5 -65t-2.5 -55v-20h68l-18 -108h-37q-56 0 -86.5 32.5t-30.5 112.5q0 17 0.5 33t1.5 32h-46l-35 -210h-118l35 210h-43q-13 -60 -29.5 -102t-36.5 -62q-24 -24 -52.5 -35t-73.5 -11h-33z" />
    <glyph glyph-name="uni0437" unicode="&#x437;" 
d="M253 -12q-75 0 -129 22.5t-96 66.5l86 86q26 -31 59.5 -48t81.5 -17q52 0 77 15t30 50q1 5 1 7v5q0 15 -8 25t-37 10h-109l16 97h83q39 0 58 14.5t23 35.5q1 5 1 7.5v4.5q0 21 -17 35t-64 14t-78.5 -16t-60.5 -46l-75 77q21 20 44.5 37.5t52 30t63 20t77.5 7.5
q100 0 151 -37t51 -96q0 -51 -30 -85.5t-93 -47.5l-1 -5q47 -8 72.5 -31t25.5 -65q0 -78 -67 -125.5t-188 -47.5z" />
    <glyph glyph-name="uni0438" unicode="&#x438;" 
d="M362 123h-5q-29 -63 -67.5 -99t-100.5 -36q-38 0 -64.5 12t-43.5 32.5t-25 47.5t-8 57q0 22 2.5 45t8.5 59l46 275h146l-49 -292q-2 -14 -4.5 -29t-2.5 -34q0 -10 3 -21t10 -20t18.5 -14.5t28.5 -5.5q26 0 45 12t36 35q11 15 26.5 41.5t20.5 58.5l45 269h146l-86 -516
h-146z" />
    <glyph glyph-name="uni0439" unicode="&#x439;" 
d="M362 123h-5q-29 -63 -67.5 -99t-100.5 -36q-38 0 -64.5 12t-43.5 32.5t-25 47.5t-8 57q0 22 2.5 45t8.5 59l46 275h146l-49 -292q-2 -14 -4.5 -29t-2.5 -34q0 -10 3 -21t10 -20t18.5 -14.5t28.5 -5.5q26 0 45 12t36 35q11 15 26.5 41.5t20.5 58.5l45 269h146l-86 -516
h-146zM353 570q-58 0 -96 28.5t-56 90.5l-15 50l115 43l4 -107q11 -3 28 -5t29 -2q14 0 30 2t25 5l34 107l111 -43l-30 -57q-30 -58 -76 -85t-103 -27z" />
    <glyph glyph-name="uni043A" unicode="&#x43a;" 
d="M116 516h146l-33 -201h69l130 201h153l-115 -178q-22 -33 -42 -48t-52 -21l-1 -7q24 -6 40 -22t30 -54l27 -72h55l-19 -114h-59q-45 0 -72.5 18.5t-43.5 60.5l-48 127h-71l-34 -206h-146z" />
    <glyph glyph-name="uni043B" unicode="&#x43b;" 
d="M-11 114h73q16 19 29 40.5t23.5 49t18.5 61t15 76.5l29 175h384l-86 -516h-146l68 405h-104l-12 -70q-11 -62 -22 -107t-23.5 -77.5t-27.5 -55t-33 -40.5q-30 -30 -67.5 -45.5t-91.5 -15.5h-47z" />
    <glyph glyph-name="uni043C" unicode="&#x43c;" 
d="M95 516h146l66 -217h8l138 217h138l-85 -516h-119l39 233l24 105h-8l-172 -270l-82 270h-8l-12 -105l-39 -233h-119z" />
    <glyph glyph-name="uni043D" unicode="&#x43d;" 
d="M109 516h146l-33 -200h175l33 200h146l-86 -516h-146l34 205h-175l-34 -205h-146z" />
    <glyph glyph-name="uni043E" unicode="&#x43e;" 
d="M265 -12q-106 0 -164 59.5t-58 162.5q0 74 21.5 133t60 100t92 63t118.5 22q106 0 164 -59.5t58 -162.5q0 -74 -21.5 -133t-60 -100t-92 -63t-118.5 -22zM276 97q48 0 78.5 29t39.5 83l13 78q2 9 3.5 20.5t1.5 20.5q0 46 -23.5 68.5t-64.5 22.5q-48 0 -78.5 -29
t-39.5 -83l-13 -78q-2 -9 -3.5 -20.5t-1.5 -20.5q0 -46 23.5 -68.5t64.5 -22.5z" />
    <glyph glyph-name="uni043F" unicode="&#x43f;" 
d="M25 0l86 516h146l-20 -123h5q29 63 67.5 99t100.5 36q38 0 64.5 -12t43.5 -32.5t25 -47.5t8 -57q0 -22 -2.5 -45t-8.5 -59l-46 -275h-146l49 293q2 14 4.5 28.5t2.5 33.5q0 10 -3 21t-10 20t-18.5 14.5t-28.5 5.5q-26 0 -45 -12t-36 -35q-11 -15 -26.5 -41.5t-20.5 -58.5
l-45 -269h-146z" />
    <glyph glyph-name="uni0440" unicode="&#x440;" 
d="M107 516h146l-20 -123h5q15 30 31.5 54.5t37 42.5t46 28t58.5 10q41 0 69.5 -14t46.5 -40.5t26.5 -63.5t8.5 -82q0 -77 -17 -139.5t-48 -107t-74.5 -69t-97.5 -24.5q-61 0 -92.5 28.5t-42.5 79.5h-7l-50 -296h-146zM278 101q54 0 83 31.5t39 90.5l10 60q2 9 3 20.5
t1 24.5q-1 37 -15.5 62t-52.5 25q-27 0 -48 -13t-39 -36q-12 -14 -27 -39.5t-20 -57.5l-14 -83q-7 -41 12.5 -63t67.5 -22z" />
    <glyph glyph-name="uni0441" unicode="&#x441;" 
d="M273 -12q-106 0 -161 57t-55 161q0 66 19 124.5t55 102.5t89.5 69.5t122.5 25.5q89 0 136 -36t64 -95l-119 -56q-11 32 -30 51t-63 19q-43 0 -72.5 -28t-38.5 -82l-10 -60q-2 -9 -3 -22t-1 -25q0 -40 20.5 -64.5t70.5 -24.5q16 0 30 3.5t30.5 15.5t37 33.5t47.5 57.5
l91 -59q-26 -41 -52 -72t-57 -52.5t-68 -32.5t-83 -11z" />
    <glyph glyph-name="uni0442" unicode="&#x442;" 
d="M-12 0l86 516h118l-15 -90h6q17 45 45 73.5t69 28.5q40 0 61.5 -25.5t16.5 -76.5h5q9 22 21 40.5t27 32t33.5 21.5t42.5 8q88 0 88 -96q0 -17 -2 -37.5t-5 -38.5l-59 -356h-118l57 341q2 9 3 20t1 21q0 18 -7.5 28.5t-21.5 10.5q-13 0 -24.5 -6.5t-22.5 -25.5
q-9 -15 -14.5 -32.5t-10.5 -44.5l-52 -312h-118l57 341q2 9 3 20t1 22q0 38 -29 38q-11 0 -22.5 -6t-23.5 -26q-11 -17 -16.5 -34t-7.5 -31l-54 -324h-118z" />
    <glyph glyph-name="uni0443" unicode="&#x443;" 
d="M217 -212q-72 0 -122 15t-89 61l87 90q24 -29 54.5 -41t65.5 -12q28 0 50 6.5t39 23.5t29 46.5t20 76.5l14 86h-5q-29 -63 -67.5 -99t-100.5 -36q-38 0 -64.5 12t-43.5 32.5t-25 47.5t-8 57q0 22 2.5 45t8.5 59l43 258h146l-46 -275q-2 -14 -4.5 -29t-2.5 -34
q0 -10 3 -21t10 -20t18.5 -14.5t28.5 -5.5q26 0 45 12t36 35q11 15 26.5 41.5t20.5 58.5l42 252h146l-80 -480q-21 -126 -91.5 -187t-185.5 -61z" />
    <glyph glyph-name="uni0444" unicode="&#x444;" 
d="M295 594q12 71 54 108.5t118 37.5h84l-18 -108h-112l-31 -182h5q23 44 46 61t52 17q44 0 68 -30.5t24 -93.5q0 -62 -7 -118t-20 -103.5t-31.5 -84.5t-40.5 -59q-31 -31 -71 -31q-32 0 -51 16.5t-28 60.5h-7l-30 -181q-11 -65 -40.5 -90.5t-69.5 -25.5q-24 0 -46.5 9.5
t-61.5 39.5l-39 30l61 79l65 -49l12 5l30 184h-5q-23 -44 -46 -61t-52 -17q-44 0 -68 30.5t-24 93.5q0 61 7 117.5t20 104t31 84t41 59.5q31 31 71 31q32 0 51 -16.5t28 -60.5h7zM257 348q7 39 -2 54t-30 15q-11 0 -21.5 -5.5t-19.5 -20.5t-16.5 -40t-14.5 -64l-8 -46
q-4 -23 -5.5 -40.5t-1.5 -32.5q0 -29 10.5 -39t28.5 -10q20 0 33 14.5t20 53.5zM375 119q11 0 21 5.5t19 20.5t17 40t15 64l8 46q4 23 5.5 40.5t1.5 32.5q0 29 -10.5 39t-28.5 10q-20 0 -33 -14.5t-20 -53.5l-27 -161q-7 -39 2 -54t30 -15z" />
    <glyph glyph-name="uni0445" unicode="&#x445;" 
d="M106 -12q-51 0 -80.5 36t-29.5 105q0 18 0.5 26.5t1.5 17.5l116 14v-11q0 -43 7.5 -62.5t28.5 -19.5q17 0 30 14.5t23 38t17 53t11 60.5t6 60.5t2 52.5q0 12 -0.5 22.5t-1.5 21.5l-12 5l-131 -91l-61 81l71 53q38 29 72 46t71 17q54 0 80 -36t26 -102v-15h7q22 83 55 118
t82 35t78.5 -38t29.5 -100v-27t-1 -20l-116 -14v16q0 38 -8.5 57.5t-28.5 19.5q-26 0 -42.5 -28.5t-26.5 -70t-14 -89t-4 -85.5q0 -14 0.5 -26t1.5 -23l12 -6l134 93l61 -77l-51 -45q-46 -41 -86 -59t-77 -18q-48 0 -77 35.5t-29 115.5h-7q-21 -82 -55.5 -116.5t-84.5 -34.5
z" />
    <glyph glyph-name="uni0446" unicode="&#x446;" 
d="M442 -190q-39 0 -78 14.5t-92 41.5l-11 -5l-8 -47h-111l6 38q18 112 112 112q15 0 31 -2.5t45 -10.5l114 -30l11 5l36 92l-4 3q-27 -21 -64 -21q-45 0 -72 27.5t-27 74.5q0 9 0.5 17t1.5 16h-5q-29 -63 -64.5 -99t-96.5 -36q-38 0 -63.5 12t-41 32.5t-22 47.5t-6.5 57
q0 22 2.5 45t8.5 59l44 263h146l-47 -280q-2 -14 -4.5 -29t-2.5 -34q0 -10 2 -21t7.5 -20t15.5 -14.5t27 -5.5q26 0 41 12t32 35q11 15 26.5 41.5t20.5 58.5l43 257h146l-64 -386l15 -4l54 54l65 -65l-20 -20l-36 -173q-14 -63 -41.5 -87.5t-71.5 -24.5z" />
    <glyph glyph-name="uni0447" unicode="&#x447;" 
d="M374 252h-5q-30 -56 -67.5 -79.5t-91.5 -23.5q-64 0 -103 34.5t-39 100.5q0 18 1.5 33.5t3.5 30.5l28 168h146l-25 -149q-3 -18 -4 -28.5t-1 -22.5q0 -26 16.5 -40.5t48.5 -14.5q47 0 74 24t36 77l26 154h146l-86 -516h-146z" />
    <glyph glyph-name="uni0448" unicode="&#x448;" 
d="M96 -12q-88 0 -88 96q0 17 2 37.5t5 38.5l59 356h118l-57 -341q-2 -9 -3 -20t-1 -21q0 -18 7.5 -28.5t21.5 -10.5q13 0 24.5 6.5t22.5 25.5q9 15 14.5 32.5t10.5 44.5l52 312h118l-57 -341q-2 -9 -3 -20t-1 -22q0 -38 29 -38q11 0 22.5 6t23.5 26q11 17 16.5 34t7.5 31
l54 324h118l-86 -516h-118l15 90h-6q-17 -45 -45 -73.5t-69 -28.5q-40 0 -61.5 25.5t-16.5 76.5h-5q-19 -44 -48 -73t-76 -29z" />
    <glyph glyph-name="uni0449" unicode="&#x449;" 
d="M442 -190q-23 0 -43.5 3t-44 9.5t-50.5 17t-61 26.5l-11 -5l-8 -47h-109l6 38q8 53 34.5 81.5t68.5 28.5q17 0 30.5 -2t39.5 -7l159 -34l11 5l35 90l-4 3q-17 -17 -41 -17q-29 0 -46.5 20t-17.5 61v9t1 12h-5q-41 -102 -112 -102q-39 0 -57 25.5t-13 76.5h-5
q-20 -48 -47.5 -75t-71.5 -27q-37 0 -57.5 24t-20.5 72q0 17 2 38.5t5 39.5l57 342h117l-55 -330q-2 -9 -3 -20.5t-1 -21.5q0 -37 25 -37q22 0 37 28q8 14 14 32.5t11 48.5l50 300h116l-55 -330q-2 -9 -3 -20.5t-1 -21.5q0 -37 25 -37q22 0 37 28q8 14 14 32.5t11 48.5
l50 300h117l-68 -409l11 -3l31 30l53 -55l-13 -14l-29 -143q-14 -63 -42 -87.5t-73 -24.5z" />
    <glyph glyph-name="uni044A" unicode="&#x44a;" 
d="M314 -12q-46 0 -82.5 13t-61.5 36t-38 54.5t-13 67.5q0 29 5 55t15.5 50.5t27.5 48t42 48.5l34 34l-93 17l-11 -5l-6 -38h-108l8 47q19 112 116 112q30 0 60 -13.5t74 -45.5l6 5l7 42h119l-10 -66l-106 -126l10 -8q29 24 57.5 37t63.5 13q59 0 94.5 -36t35.5 -108
q0 -53 -18.5 -96t-51.5 -73.5t-78 -47.5t-98 -17zM329 94q30 0 53.5 20t31.5 61q4 20 4 33q0 30 -17.5 44.5t-46.5 14.5q-38 0 -61 -22.5t-29 -56.5q-2 -8 -2.5 -15t-0.5 -15q0 -32 18 -48t50 -16z" />
    <glyph glyph-name="uni044B" unicode="&#x44b;" 
d="M182 -12q-84 0 -123 40.5t-39 117.5q0 24 2.5 51t8.5 63l44 256h123l-37 -220h6q20 42 46.5 63.5t69.5 21.5q50 0 75.5 -31.5t25.5 -99.5q0 -66 -17 -115t-45 -82t-64.5 -49t-75.5 -16zM182 88q23 0 41 19.5t27 73.5q2 10 3.5 23.5t1.5 27.5q0 49 -38 49
q-26 0 -45.5 -22.5t-25.5 -58.5q-2 -13 -4 -26.5t-2 -27.5q0 -31 11 -44.5t31 -13.5zM489 516h123l-86 -516h-123z" />
    <glyph glyph-name="uni044C" unicode="&#x44c;" 
d="M279 -12q-50 0 -88 13.5t-64.5 36.5t-40 54t-13.5 67q0 16 2 37.5t9 62.5l43 257h146l-38 -226h6q27 45 63.5 68t90.5 23q68 0 104.5 -37.5t36.5 -112.5q0 -56 -19.5 -101t-54 -76.5t-81.5 -48.5t-102 -17zM294 97q35 0 60 20t33 58q2 11 3 20.5t1 15.5q0 32 -17 46.5
t-49 14.5q-51 0 -74.5 -22.5t-29.5 -58.5q-2 -8 -2.5 -14.5t-0.5 -17.5q0 -29 18.5 -45.5t57.5 -16.5z" />
    <glyph glyph-name="uni044D" unicode="&#x44d;" 
d="M226 307h162q1 5 1 9v9q0 42 -21.5 67.5t-73.5 25.5q-19 0 -34 -4t-29 -13t-28.5 -23t-30.5 -34l-91 58q24 32 48.5 56t52.5 39.5t61.5 23t74.5 7.5q106 0 161 -57t55 -161q0 -66 -19 -124.5t-55 -102.5t-89.5 -69.5t-122.5 -25.5q-46 0 -80.5 9t-59 25t-41 38.5
t-26.5 50.5l114 55q12 -35 34.5 -51.5t58.5 -16.5q52 0 84.5 28.5t41.5 83.5h-163z" />
    <glyph glyph-name="uni044E" unicode="&#x44e;" 
d="M356 -12q-71 0 -108.5 41t-37.5 124q0 20 0.5 33t1.5 23h-67l-34 -209h-123l86 516h123l-34 -204h63q23 101 75 158.5t133 57.5q71 0 108.5 -41t37.5 -124q0 -87 -15.5 -156.5t-44 -118t-70.5 -74.5t-94 -26zM370 93q22 0 37.5 19.5t25.5 79.5l19 114q3 20 5 36t2 34
q0 47 -39 47q-22 0 -37.5 -19.5t-25.5 -79.5l-19 -114q-3 -20 -5 -36t-2 -34q0 -47 39 -47z" />
    <glyph glyph-name="uni044F" unicode="&#x44f;" 
d="M33 114h52l45 69q14 20 31 29t44 11l1 7q-59 8 -89 38.5t-30 78.5q0 42 19 76t52.5 57t79 35.5t98.5 12.5q56 0 110 -8.5t102 -26.5l-82 -493h-144l32 192h-52l-85 -129q-23 -35 -50 -49t-69 -14h-84zM368 273l24 144q-14 3 -30 5t-31 2q-44 0 -69.5 -16t-30.5 -48
q-1 -5 -1.5 -10t-0.5 -13q0 -29 16 -46.5t54 -17.5h69z" />
    <glyph glyph-name="uni0450" unicode="&#x450;" 
d="M281 -12q-115 0 -170 58.5t-55 161.5q0 72 22 131t61.5 101t95.5 65t125 23q39 0 73.5 -9t60.5 -26.5t41 -44t15 -62.5q0 -31 -13 -62t-50.5 -56.5t-106 -43t-178.5 -21.5q-1 -6 -1 -9.5v-7.5q0 -42 23 -64t76 -22q21 0 38.5 4t34 14.5t33 27t36.5 42.5l91 -59
q-20 -29 -43.5 -54.5t-53.5 -45t-68 -30.5t-87 -11zM345 425q-48 0 -82 -28.5t-48 -95.5l-3 -14q69 4 108.5 13t59 21t24.5 26t5 26q0 52 -64 52zM222 747l124 59l77 -196l-87 -39z" />
    <glyph glyph-name="uni0451" unicode="&#x451;" 
d="M281 -12q-115 0 -170 58.5t-55 161.5q0 72 22 131t61.5 101t95.5 65t125 23q39 0 73.5 -9t60.5 -26.5t41 -44t15 -62.5q0 -31 -13 -62t-50.5 -56.5t-106 -43t-178.5 -21.5q-1 -6 -1 -9.5v-7.5q0 -42 23 -64t76 -22q21 0 38.5 4t34 14.5t33 27t36.5 42.5l91 -59
q-20 -29 -43.5 -54.5t-53.5 -45t-68 -30.5t-87 -11zM345 425q-48 0 -82 -28.5t-48 -95.5l-3 -14q69 4 108.5 13t59 21t24.5 26t5 26q0 52 -64 52zM251 592q-41 0 -57.5 15.5t-16.5 38.5q0 5 1.5 13t3.5 22q5 27 23 43.5t62 16.5q41 0 57.5 -15.5t16.5 -38.5q0 -5 -1.5 -13
t-3.5 -22q-5 -27 -23 -43.5t-62 -16.5zM469 592q-41 0 -57.5 15.5t-16.5 38.5q0 5 1.5 13t3.5 22q5 27 23 43.5t62 16.5q41 0 57.5 -15.5t16.5 -38.5q0 -5 -1.5 -13t-3.5 -22q-5 -27 -23 -43.5t-62 -16.5z" />
    <glyph glyph-name="uni0452" unicode="&#x452;" 
d="M318 -212q-25 0 -46 8t-38.5 21.5t-32.5 31t-28 36.5l-18 26l93 69l71 -81l13 5l65 389q2 14 4.5 28.5t2.5 33.5q0 10 -3 21t-10 20t-18.5 14.5t-28.5 5.5q-26 0 -45 -12t-36 -35q-11 -15 -26.5 -41.5t-20.5 -58.5l-45 -269h-146l97 581h-59l18 108h59l8 51h146l-8 -51
h135l-18 -108h-135l-31 -188h5q29 63 67.5 99t100.5 36q38 0 64.5 -12t43.5 -32.5t25 -47.5t8 -57q0 -22 -2.5 -45t-8.5 -59l-52 -312q-14 -87 -56 -131t-114 -44z" />
    <glyph glyph-name="uni0453" unicode="&#x453;" 
d="M252 -12q-103 0 -155 37.5t-52 108.5q0 64 43 111t139 63l76 13q51 9 69 22.5t18 34.5q0 41 -65 41q-45 0 -80 -16t-61 -39l-75 77q43 38 98.5 62.5t135.5 24.5q91 0 141 -37.5t50 -106.5q0 -62 -43 -109t-139 -63l-76 -13q-54 -9 -70.5 -23.5t-16.5 -35.5
q0 -22 18 -32.5t63 -10.5q42 0 83 14.5t68 40.5l75 -77q-42 -38 -102.5 -62.5t-141.5 -24.5zM361 570l-86 46l115 190l114 -60z" />
    <glyph glyph-name="uni0454" unicode="&#x454;" 
d="M273 -12q-106 0 -161 57t-55 161q0 66 19 124.5t55 102.5t89.5 69.5t122.5 25.5q89 0 136 -36t64 -95l-112 -53q-12 39 -33.5 57t-66.5 18t-76.5 -28.5t-41.5 -83.5h163l-15 -97h-163v-19q0 -42 22.5 -68t75.5 -26q16 0 30.5 3.5t28.5 12t29.5 23t35.5 37.5l87 -56
q-23 -32 -47 -56t-52 -40t-61.5 -24.5t-73.5 -8.5z" />
    <glyph glyph-name="uni0455" unicode="&#x455;" 
d="M258 -12q-78 0 -134.5 21.5t-82.5 62.5l82 81q22 -31 60.5 -46.5t84.5 -15.5q45 0 71.5 14.5t26.5 42.5q0 21 -15 30.5t-38 14.5l-74 16q-29 6 -54.5 16t-44.5 26.5t-29.5 40.5t-10.5 58q0 43 17.5 76.5t49 56t74.5 34t93 11.5q69 0 124 -19.5t81 -53.5l-80 -82
q-17 22 -51 37t-78 15q-39 0 -62.5 -14t-23.5 -42q0 -21 13.5 -29.5t37.5 -13.5l77 -17q65 -14 102 -45t37 -94q0 -43 -18 -76.5t-51 -57t-79.5 -36t-104.5 -12.5z" />
    <glyph glyph-name="uni0456" unicode="&#x456;" 
d="M339 584q-45 0 -63.5 17.5t-18.5 43.5q0 5 1 13.5t4 26.5q5 32 27 49t67 17t63.5 -17.5t18.5 -43.5q0 -5 -1 -13.5t-4 -26.5q-5 -32 -27 -49t-67 -17zM298 -12q-62 0 -93 32.5t-31 87.5q0 17 2 33t8 47l40 214h-156l19 114h304l-77 -410l17 -5l140 143l80 -71l-61 -70
q-51 -57 -95.5 -86t-96.5 -29z" />
    <glyph glyph-name="uni0457" unicode="&#x457;" 
d="M298 -12q-62 0 -93 32.5t-31 87.5q0 17 2 33t8 47l40 214h-156l19 114h304l-77 -410l17 -5l140 143l80 -71l-61 -70q-51 -57 -95.5 -86t-96.5 -29zM226 592q-41 0 -57.5 15.5t-16.5 38.5q0 5 1.5 13t3.5 22q5 27 23 43.5t62 16.5q41 0 57.5 -15.5t16.5 -38.5
q0 -5 -1.5 -13t-3.5 -22q-5 -27 -23 -43.5t-62 -16.5zM444 592q-41 0 -57.5 15.5t-16.5 38.5q0 5 1.5 13t3.5 22q5 27 23 43.5t62 16.5q41 0 57.5 -15.5t16.5 -38.5q0 -5 -1.5 -13t-3.5 -22q-5 -27 -23 -43.5t-62 -16.5z" />
    <glyph glyph-name="uni0458" unicode="&#x458;" 
d="M216 -212q-30 0 -53 9.5t-43.5 28.5t-40.5 46t-43 63l-32 50l100 69l113 -155l13 5l83 498h-189l19 114h335l-92 -553q-16 -94 -57 -134.5t-113 -40.5zM422 584q-45 0 -63.5 17.5t-18.5 43.5q0 5 1 13.5t4 26.5q5 32 27 49t67 17t63.5 -17.5t18.5 -43.5q0 -5 -1 -13.5
t-4 -26.5q-5 -32 -27 -49t-67 -17z" />
    <glyph glyph-name="uni0459" unicode="&#x459;" 
d="M388 -12q-75 0 -112.5 40.5t-37.5 117.5q0 24 2.5 51t8.5 63l25 152h-65l-8 -51q-12 -80 -24 -133t-24.5 -88.5t-26 -56.5t-29.5 -37q-29 -29 -60.5 -40.5t-72.5 -11.5h-20l18 110h42q12 13 22.5 32t21 49t20 73.5t20.5 106.5l25 151h297l-35 -212h6q18 36 44 56.5
t68 20.5q44 0 69.5 -31.5t25.5 -99.5q0 -66 -17 -115t-45 -82t-64 -49t-74 -16zM393 85q23 0 39.5 21t26.5 75q2 12 3.5 26t1.5 28q0 26 -9.5 37.5t-26.5 11.5q-27 0 -45 -24t-24 -60q-2 -13 -4 -28t-2 -29q0 -31 11 -44.5t29 -13.5z" />
    <glyph glyph-name="uni045A" unicode="&#x45a;" 
d="M388 -12q-75 0 -113 41.5t-38 118.5q0 27 3 53l1 8h-100l-35 -209h-118l86 516h118l-34 -203h100l34 203h118l-35 -212h6q18 36 44 56.5t68 20.5q44 0 69.5 -31.5t25.5 -99.5q0 -66 -17 -115t-45 -82t-64 -49t-74 -16zM393 85q23 0 39.5 21t26.5 75q2 12 3.5 26t1.5 28
q0 26 -9.5 37.5t-26.5 11.5q-27 0 -45 -24t-24 -60q-2 -13 -4 -28t-2 -29q0 -31 11 -44.5t29 -13.5z" />
    <glyph glyph-name="uni045B" unicode="&#x45b;" 
d="M122 581h-59l18 108h59l8 51h146l-8 -51h135l-18 -108h-135l-31 -188h5q29 63 67.5 99t100.5 36q38 0 64.5 -12t43.5 -32.5t25 -47.5t8 -57q0 -22 -2.5 -45t-8.5 -59l-46 -275h-146l49 292q2 14 4.5 29t2.5 34q0 10 -3 21t-10 20t-18.5 14.5t-28.5 5.5q-26 0 -45 -12
t-36 -35q-11 -15 -26.5 -41.5t-20.5 -58.5l-45 -269h-146z" />
    <glyph glyph-name="uni045C" unicode="&#x45c;" 
d="M116 516h146l-33 -201h69l130 201h153l-115 -178q-22 -33 -42 -48t-52 -21l-1 -7q24 -6 40 -22t30 -54l27 -72h55l-19 -114h-59q-45 0 -72.5 18.5t-43.5 60.5l-48 127h-71l-34 -206h-146zM353 570l-86 46l115 190l114 -60z" />
    <glyph glyph-name="uni045D" unicode="&#x45d;" 
d="M362 123h-5q-29 -63 -67.5 -99t-100.5 -36q-38 0 -64.5 12t-43.5 32.5t-25 47.5t-8 57q0 22 2.5 45t8.5 59l46 275h146l-49 -292q-2 -14 -4.5 -29t-2.5 -34q0 -10 3 -21t10 -20t18.5 -14.5t28.5 -5.5q26 0 45 12t36 35q11 15 26.5 41.5t20.5 58.5l45 269h146l-86 -516
h-146zM217 747l124 59l77 -196l-87 -39z" />
    <glyph glyph-name="uni045E" unicode="&#x45e;" 
d="M217 -212q-72 0 -122 15t-89 61l87 90q24 -29 54.5 -41t65.5 -12q28 0 50 6.5t39 23.5t29 46.5t20 76.5l14 86h-5q-29 -63 -67.5 -99t-100.5 -36q-38 0 -64.5 12t-43.5 32.5t-25 47.5t-8 57q0 22 2.5 45t8.5 59l43 258h146l-46 -275q-2 -14 -4.5 -29t-2.5 -34
q0 -10 3 -21t10 -20t18.5 -14.5t28.5 -5.5q26 0 45 12t36 35q11 15 26.5 41.5t20.5 58.5l42 252h146l-80 -480q-21 -126 -91.5 -187t-185.5 -61zM364 570q-58 0 -96 28.5t-56 90.5l-15 50l115 43l4 -107q11 -3 28 -5t29 -2q14 0 30 2t25 5l34 107l111 -43l-30 -57
q-30 -58 -76 -85t-103 -27z" />
    <glyph glyph-name="uni045F" unicode="&#x45f;" 
d="M189 -12q-38 0 -64.5 12t-43.5 32.5t-25 47.5t-8 57q0 22 2.5 45t8.5 59l46 275h146l-49 -292q-2 -14 -4.5 -29t-2.5 -34q0 -10 3 -21t10 -20t18.5 -14.5t28.5 -5.5q26 0 45 12t36 35q11 15 26.5 41.5t20.5 58.5l45 269h146l-86 -516h-146l20 123h-5q-29 -63 -67.5 -99
t-100.5 -36zM182 -42h129l-27 -158h-129z" />
    <glyph glyph-name="uni0472" unicode="&#x472;" 
d="M279 -12q-63 0 -109 18t-76 52t-44 83t-14 110q0 89 17.5 172t55.5 146.5t97.5 102t142.5 38.5q63 0 109 -18t76 -52t44 -83t14 -110q0 -89 -17.5 -172t-55.5 -146.5t-97.5 -102t-142.5 -38.5zM278 96q33 0 57 11.5t41 34.5t29 59t20 85l1 6h-244q-4 -21 -5.5 -41
t-1.5 -40q0 -57 24.5 -86t78.5 -29zM350 602q-65 0 -97.5 -45.5t-49.5 -142.5h244q6 36 6 73q0 57 -24.5 86t-78.5 29z" />
    <glyph glyph-name="uni0473" unicode="&#x473;" 
d="M265 -12q-106 0 -164 59.5t-58 162.5q0 74 21.5 133t60 100t92 63t118.5 22q106 0 164 -59.5t58 -162.5q0 -74 -21.5 -133t-60 -100t-92 -63t-118.5 -22zM275 86q54 0 86.5 31t42.5 89l1 6h-225q-3 -15 -3 -29q0 -50 25.5 -73.5t72.5 -23.5zM421 309q1 6 1.5 12.5
t0.5 11.5q0 50 -25.5 73.5t-72.5 23.5q-107 0 -130 -121h226z" />
    <glyph glyph-name="uni0490" unicode="&#x490;" 
d="M182 698h287l25 150h133l-46 -272h-272l-95 -576h-148z" />
    <glyph glyph-name="uni0491" unicode="&#x491;" 
d="M163 516h257l24 143h129l-43 -254h-239l-68 -405h-146z" />
    <glyph glyph-name="uni0492" unicode="&#x492;" 
d="M65 396h82l51 302h420l-21 -122h-272l-30 -180h168l-19 -112h-167l-47 -284h-148l47 284h-83z" />
    <glyph glyph-name="uni0493" unicode="&#x493;" 
d="M130 190h-92l17 100h92l38 226h386l-19 -111h-239l-20 -115h145l-17 -100h-144l-32 -190h-146z" />
    <glyph glyph-name="uni0494" unicode="&#x494;" 
d="M344 -205q-50 0 -82.5 25t-56.5 61l-24 36l94 71l68 -77l13 5l38 210q4 23 6 42t2 36q0 33 -21 52.5t-63 19.5q-28 0 -54.5 -4t-50.5 -13l-43 -259h-148l116 698h420l-21 -122h-272l-33 -202h6q23 11 50.5 16.5t63.5 5.5q98 0 146.5 -45t48.5 -133q0 -17 -0.5 -32
t-1.5 -29.5t-3.5 -30t-5.5 -34.5l-25 -138q-14 -76 -54.5 -117.5t-112.5 -41.5z" />
    <glyph glyph-name="uni0495" unicode="&#x495;" 
d="M316 -212q-25 0 -46 8t-38.5 21.5t-32.5 31t-28 36.5l-15 22l93 69l68 -77l13 5l29 173q3 18 4 28.5t1 22.5q0 26 -16.5 40.5t-48.5 14.5q-47 0 -74 -24t-36 -77l-14 -82h-146l86 516h386l-19 -111h-239l-36 -213h5q30 56 67.5 79.5t91.5 23.5q64 0 103 -34.5t39 -100.5
q0 -18 -1.5 -33.5t-3.5 -30.5l-22 -133q-14 -87 -56 -131t-114 -44z" />
    <glyph glyph-name="uni0496" unicode="&#x496;" 
d="M461 0h-47l-11 298h-41l-49 -298h-126l49 298h-43l-104 -298h-133l88 251q17 50 41.5 75t63.5 31l1 6q-30 9 -43.5 32t-14.5 70l-5 233h121l6 -290h41l48 290h126l-48 -290h41l99 290h124l-83 -242q-16 -47 -36.5 -67t-55.5 -26l-1 -6q32 -9 46 -34t16 -73l5 -138h44
l-44 -262h-101z" />
    <glyph glyph-name="uni0497" unicode="&#x497;" 
d="M451 8q-32 13 -48.5 45.5t-16.5 91.5q0 17 0.5 33t1.5 32h-46l-35 -210h-118l35 210h-43q-13 -60 -29.5 -102t-36.5 -62q-24 -24 -52.5 -35t-73.5 -11h-33l18 108h69q11 26 21.5 69t17.5 91q5 35 7.5 65t2.5 55v20h-64l18 108h33q56 0 86.5 -32.5t30.5 -112.5
q0 -17 -0.5 -32.5t-1.5 -26.5h47l34 204h118l-34 -204h43q12 56 28.5 97t36.5 61q24 24 52.5 35t73.5 11h29l-18 -108h-65q-11 -26 -21.5 -69t-17.5 -91q-5 -35 -7.5 -65t-2.5 -55v-20h83l-41 -248h-105z" />
    <glyph glyph-name="uni0498" unicode="&#x498;" 
d="M193 -6q-59 9 -103 35t-72 66l93 94q27 -35 68 -57t92 -22q48 0 74.5 21t32.5 60l2 15q1 5 1.5 11t0.5 12q0 30 -18.5 45.5t-66.5 15.5h-88l20 119h88q48 0 71 19t31 66l2 11q2 10 2 20q0 31 -24 48t-72 17q-86 0 -145 -74l-85 86q45 53 105.5 80.5t139.5 27.5
q112 0 171 -44t59 -125q0 -37 -13 -68t-36 -54t-54.5 -37.5t-68.5 -18.5l-1 -6q71 -12 102 -47t31 -91q0 -42 -13 -79t-38.5 -67t-63.5 -50.5t-87 -28.5l-24 -144h-137z" />
    <glyph glyph-name="uni0499" unicode="&#x499;" 
d="M190 -7q-51 8 -90.5 29t-71.5 55l86 86q26 -31 59.5 -48t81.5 -17q52 0 77 15t30 50q1 5 1 7v5q0 15 -8 25t-37 10h-109l16 97h83q39 0 58 14.5t23 35.5q1 5 1 7.5v4.5q0 21 -17 35t-64 14t-78.5 -16t-60.5 -46l-75 77q21 20 44.5 37.5t52 30t63 20t77.5 7.5
q100 0 151 -37t51 -96q0 -51 -30 -85.5t-93 -47.5l-1 -5q47 -8 72.5 -31t25.5 -65q0 -66 -49.5 -111t-140.5 -58l-21 -132h-129z" />
    <glyph glyph-name="uni049A" unicode="&#x49a;" 
d="M423 1q-26 9 -45 31.5t-29 67.5l-44 194h-89l-49 -294h-148l116 698h148l-47 -285h90l155 285h150l-141 -260q-20 -37 -42.5 -53.5t-51.5 -21.5l-1 -6q26 -8 40.5 -27t23.5 -58l34 -150h83l-45 -272h-133z" />
    <glyph glyph-name="uni049B" unicode="&#x49b;" 
d="M393 0q-51 18 -74 79l-48 127h-71l-34 -206h-146l86 516h146l-33 -201h69l130 201h153l-115 -178q-22 -33 -42 -48t-52 -21l-1 -7q24 -6 40 -22t30 -54l27 -72h83l-42 -254h-129z" />
    <glyph glyph-name="uni049C" unicode="&#x49c;" 
d="M220 296h-42l-49 -296h-135l116 698h135l-48 -287h42l24 143h103l-24 -143h34l148 287h137l-135 -262q-18 -35 -40.5 -51.5t-51.5 -21.5l-1 -6q26 -8 40 -27t21 -55l29 -153h56l-20 -122h-53q-49 0 -76.5 23.5t-39.5 87.5l-35 185h-32l-24 -142h-103z" />
    <glyph glyph-name="uni049D" unicode="&#x49d;" 
d="M199 208h-44l-35 -208h-132l86 516h132l-34 -204h44l21 124h95l-21 -124h30l126 204h139l-109 -178q-21 -34 -41.5 -48.5t-52.5 -20.5l-1 -7q26 -5 42.5 -21.5t27.5 -54.5l22 -76h55l-19 -110h-46q-45 0 -73.5 18t-42.5 61l-43 129h-31l-18 -109h-95z" />
    <glyph glyph-name="uni04A0" unicode="&#x4a0;" 
d="M172 575h-115l20 123h264l-47 -285h70l143 285h150l-130 -259q-18 -36 -41 -53.5t-52 -22.5l-1 -6q26 -8 40.5 -26.5t20.5 -56.5l25 -152h56l-20 -122h-66q-49 0 -77.5 24.5t-39.5 92.5l-29 177h-69l-49 -294h-149z" />
    <glyph glyph-name="uni04A1" unicode="&#x4a1;" 
d="M145 405h-114l18 111h260l-33 -201h53l124 201h153l-110 -178q-21 -35 -43 -49.5t-51 -19.5l-1 -7q24 -6 39.5 -21.5t28.5 -54.5l24 -72h55l-19 -114h-59q-48 0 -75.5 20t-42.5 65l-40 121h-55l-34 -206h-146z" />
    <glyph glyph-name="uni04A2" unicode="&#x4a2;" 
d="M408 0h-93l49 293h-158l-49 -293h-148l116 698h148l-47 -284h158l47 284h148l-96 -576h78l-45 -272h-133z" />
    <glyph glyph-name="uni04A3" unicode="&#x4a3;" 
d="M408 0h-96l34 205h-151l-34 -205h-146l86 516h146l-33 -200h151l33 200h146l-67 -402h79l-42 -254h-129z" />
    <glyph glyph-name="uni04A4" unicode="&#x4a4;" 
d="M102 698h138l-48 -287h124l48 287h290l-19 -114h-152l-97 -584h-138l49 297h-124l-49 -297h-138z" />
    <glyph glyph-name="uni04A5" unicode="&#x4a5;" 
d="M74 516h132l-33 -202h112l33 202h299l-18 -106h-166l-69 -410h-132l35 208h-112l-35 -208h-132z" />
    <glyph glyph-name="uni04AA" unicode="&#x4aa;" 
d="M209 -2q-81 21 -120 87t-39 169q0 102 23 186t65 144t101.5 93t133.5 33q58 0 100.5 -15t70.5 -42t42.5 -65t17.5 -83l-143 -29q-2 25 -6.5 46t-15 36t-28 23.5t-44.5 8.5q-62 0 -95 -49t-47 -133l-18 -109q-3 -18 -5.5 -36t-2.5 -42q0 -53 23 -83t78 -30q24 0 44 9.5
t36 25.5t29 37.5t23 46.5l127 -38q-35 -85 -86 -134.5t-128 -62.5l-24 -142h-137z" />
    <glyph glyph-name="uni04AB" unicode="&#x4ab;" 
d="M211 -6q-75 16 -114.5 70t-39.5 142q0 66 19 124.5t55 102.5t89.5 69.5t122.5 25.5q89 0 136 -36t64 -95l-119 -56q-11 32 -30 51t-63 19q-43 0 -72.5 -28t-38.5 -82l-10 -60q-2 -9 -3 -22t-1 -25q0 -40 20.5 -64.5t70.5 -24.5q16 0 30 3.5t30.5 15.5t37 33.5t47.5 57.5
l91 -59q-42 -66 -86 -106.5t-107 -54.5l-22 -135h-129z" />
    <glyph glyph-name="uni04AE" unicode="&#x4ae;" 
d="M184 0l41 246l-147 452h158l49 -164l31 -137h9l78 137l100 164h165l-295 -449l-41 -249h-148z" />
    <glyph glyph-name="uni04AF" unicode="&#x4af;" 
d="M183 0l-107 516h152l30 -197l21 -168h8l76 168l97 197h148l-279 -516l-34 -200h-146z" />
    <glyph glyph-name="uni04B0" unicode="&#x4b0;" 
d="M100 248h125l-147 450h158l49 -164l31 -137h9l78 137l100 164h165l-295 -450h125l-19 -112h-125l-22 -136h-148l22 136h-125z" />
    <glyph glyph-name="uni04B1" unicode="&#x4b1;" 
d="M166 -100h-120l17 100h120l-107 516h152l30 -197l21 -168h8l76 168l97 197h148l-279 -516h120l-17 -100h-120l-17 -100h-146z" />
    <glyph glyph-name="uni04B2" unicode="&#x4b2;" 
d="M428 0h-49l-49 139l-34 110h-9l-66 -110l-97 -139h-163l256 361l-129 337h166l39 -111l33 -112h8l70 112l78 111h162l-237 -339l91 -237h83l-45 -272h-133z" />
    <glyph glyph-name="uni04B3" unicode="&#x4b3;" 
d="M443 18l-12 6q-17 -18 -34 -27t-38 -9q-48 0 -77 35.5t-29 115.5h-7q-21 -82 -55.5 -116.5t-84.5 -34.5q-51 0 -80.5 36t-29.5 105q0 18 0.5 26.5t1.5 17.5l116 14v-11q0 -43 7.5 -62.5t28.5 -19.5q17 0 30 14.5t23 38t17 53t11 60.5t6 60.5t2 52.5q0 12 -0.5 22.5
t-1.5 21.5l-12 5l-131 -91l-61 81l71 53q38 29 72 46t71 17q54 0 80 -36t26 -102v-15h7q22 83 55 118t82 35t78.5 -38t29.5 -100v-27t-1 -20l-116 -14v16q0 38 -8.5 57.5t-28.5 19.5q-26 0 -42.5 -28.5t-26.5 -70t-14 -89t-4 -85.5q0 -14 0.5 -26t1.5 -23l12 -6l124 86
l61 -77l-41 -243h-106z" />
    <glyph glyph-name="uni04B6" unicode="&#x4b6;" 
d="M408 0h-93l41 246h-6q-20 -11 -48 -16.5t-57 -5.5q-93 0 -141 45t-48 133q0 33 2.5 63t7.5 59l29 174h148l-34 -202q-5 -32 -6.5 -47.5t-1.5 -32.5q0 -33 19.5 -52.5t60.5 -19.5q24 0 47.5 4t46.5 13l56 337h148l-96 -576h78l-45 -272h-133z" />
    <glyph glyph-name="uni04B7" unicode="&#x4b7;" 
d="M408 0h-96l42 252h-5q-29 -56 -66.5 -79.5t-85.5 -23.5q-59 0 -97 34.5t-38 100.5q0 18 1.5 33.5t3.5 30.5l28 168h146l-25 -149q-3 -18 -4 -28.5t-1 -22.5q0 -26 16 -40.5t42 -14.5q42 0 68 24t35 77l26 154h146l-67 -402h79l-42 -254h-129z" />
    <glyph glyph-name="uni04B8" unicode="&#x4b8;" 
d="M231 226q-88 8 -129 52.5t-41 123.5q0 33 2.5 63t7.5 59l29 174h148l-34 -202q-5 -32 -6.5 -47.5t-1.5 -32.5q0 -24 10 -41t36 -25l26 154h103l-27 -158q17 2 32 6t29 9l56 337h148l-116 -698h-148l41 246h-6q-12 -6 -25.5 -10t-29.5 -7l-21 -125h-103z" />
    <glyph glyph-name="uni04B9" unicode="&#x4b9;" 
d="M376 229h-5q-9 -15 -23 -31.5t-26 -27.5l-16 -98h-95l13 77q-82 0 -122 34.5t-40 100.5q0 18 1.5 33.5t3.5 30.5l28 168h146l-25 -149q-3 -18 -4 -28.5t-1 -22.5q0 -37 32 -49l24 142h95l-24 -142q47 21 59 88l27 161h146l-86 -516h-146z" />
    <glyph glyph-name="uni04BA" unicode="&#x4ba;" 
d="M136 698h148l-41 -246h6q23 11 50.5 16.5t63.5 5.5q98 0 146.5 -45t48.5 -133q0 -33 -2.5 -63t-7.5 -59l-29 -174h-148l34 202q5 32 6.5 47.5t1.5 32.5q0 33 -19 52.5t-65 19.5q-28 0 -54.5 -4t-50.5 -13l-56 -337h-148z" />
    <glyph glyph-name="uni04BB" unicode="&#x4bb;" 
d="M148 740h146l-57 -347h5q29 63 67.5 99t100.5 36q38 0 64.5 -12t43.5 -32.5t25 -47.5t8 -57q0 -22 -2.5 -45t-8.5 -59l-46 -275h-146l49 293q2 14 4.5 28.5t2.5 33.5q0 10 -3 21t-10 20t-18.5 14.5t-28.5 5.5q-26 0 -45 -12t-36 -35q-11 -15 -26.5 -41.5t-20.5 -58.5
l-45 -269h-146z" />
    <glyph glyph-name="uni04C0" unicode="&#x4c0;" 
d="M32 0l18 110h151l80 478h-151l18 110h450l-18 -110h-151l-80 -478h151l-18 -110h-450z" />
    <glyph glyph-name="uni04C1" unicode="&#x4c1;" 
d="M50 251q17 50 41.5 75t63.5 31l1 6q-30 9 -43.5 32t-14.5 70l-5 233h121l6 -290h43l48 290h126l-48 -290h43l99 290h124l-83 -242q-16 -47 -36.5 -67t-55.5 -26l-1 -6q32 -9 46 -34t16 -73l10 -250h-127l-11 298h-43l-49 -298h-126l49 298h-45l-104 -298h-133zM386 740
q-58 0 -96 28.5t-56 90.5l-15 50l115 43l4 -107q11 -3 28 -5t29 -2q14 0 30 2t25 5l34 107l111 -43l-30 -57q-30 -58 -76 -85t-103 -27z" />
    <glyph glyph-name="uni04C2" unicode="&#x4c2;" 
d="M-17 108h69q11 26 21.5 69t17.5 91q5 35 7.5 65t2.5 55v20h-64l18 108h33q56 0 86.5 -32.5t30.5 -112.5q0 -17 -0.5 -32.5t-1.5 -26.5h47l34 204h118l-34 -204h43q12 56 28.5 97t36.5 61q24 24 52.5 35t73.5 11h29l-18 -108h-65q-11 -26 -21.5 -69t-17.5 -91
q-5 -35 -7.5 -65t-2.5 -55v-20h68l-18 -108h-37q-56 0 -86.5 32.5t-30.5 112.5q0 17 0.5 33t1.5 32h-46l-35 -210h-118l35 210h-43q-13 -60 -29.5 -102t-36.5 -62q-24 -24 -52.5 -35t-73.5 -11h-33zM358 570q-58 0 -96 28.5t-56 90.5l-15 50l115 43l4 -107q11 -3 28 -5
t29 -2q14 0 30 2t25 5l34 107l111 -43l-30 -57q-30 -58 -76 -85t-103 -27z" />
    <glyph glyph-name="uni04CF" unicode="&#x4cf;" 
d="M264 626h-152l19 114h299l-115 -626h152l-19 -114h-299z" />
    <glyph glyph-name="uni04D0" unicode="&#x4d0;" 
d="M400 0l-17 169h-196l-69 -169h-155l307 698h206l76 -698h-152zM356 553h-9l-110 -264h140zM383 740q-58 0 -96 28.5t-56 90.5l-15 50l115 43l4 -107q11 -3 28 -5t29 -2q14 0 30 2t25 5l34 107l111 -43l-30 -57q-30 -58 -76 -85t-103 -27z" />
    <glyph glyph-name="uni04D1" unicode="&#x4d1;" 
d="M181 -12q-41 0 -68 14.5t-44 41t-24 64.5t-7 85q0 75 16 136.5t46 105.5t73.5 68.5t97.5 24.5q59 0 87.5 -28.5t39.5 -79.5h7l16 96h146l-68 -409h53l-18 -107h-75q-57 0 -85.5 28t-20.5 82l2 13h-5q-15 -30 -30.5 -54.5t-35 -42.5t-44.5 -28t-59 -10zM247 101
q26 0 47 13t38 35q11 14 25 40t19 58l14 83q7 41 -9.5 63t-63.5 22q-55 0 -81 -31.5t-36 -90.5l-10 -60q-2 -9 -3 -20.5t-1 -25.5q0 -36 13 -61t48 -25zM341 570q-58 0 -96 28.5t-56 90.5l-15 50l115 43l4 -107q11 -3 28 -5t29 -2q14 0 30 2t25 5l34 107l111 -43l-30 -57
q-30 -58 -76 -85t-103 -27z" />
    <glyph glyph-name="uni04D2" unicode="&#x4d2;" 
d="M400 0l-17 169h-196l-69 -169h-155l307 698h206l76 -698h-152zM356 553h-9l-110 -264h140zM276 762q-41 0 -57.5 15.5t-16.5 38.5q0 5 1 12.5t4 23.5q5 26 23 42.5t62 16.5q41 0 57.5 -15.5t16.5 -38.5q0 -5 -1 -12.5t-4 -23.5q-5 -26 -23 -42.5t-62 -16.5zM494 762
q-41 0 -57.5 15.5t-16.5 38.5q0 5 1 12.5t4 23.5q5 26 23 42.5t62 16.5q41 0 57.5 -15.5t16.5 -38.5q0 -5 -1 -12.5t-4 -23.5q-5 -26 -23 -42.5t-62 -16.5z" />
    <glyph glyph-name="uni04D3" unicode="&#x4d3;" 
d="M181 -12q-41 0 -68 14.5t-44 41t-24 64.5t-7 85q0 75 16 136.5t46 105.5t73.5 68.5t97.5 24.5q59 0 87.5 -28.5t39.5 -79.5h7l16 96h146l-68 -409h53l-18 -107h-75q-57 0 -85.5 28t-20.5 82l2 13h-5q-15 -30 -30.5 -54.5t-35 -42.5t-44.5 -28t-59 -10zM247 101
q26 0 47 13t38 35q11 14 25 40t19 58l14 83q7 41 -9.5 63t-63.5 22q-55 0 -81 -31.5t-36 -90.5l-10 -60q-2 -9 -3 -20.5t-1 -25.5q0 -36 13 -61t48 -25zM234 592q-41 0 -57.5 15.5t-16.5 38.5q0 5 1.5 13t3.5 22q5 27 23 43.5t62 16.5q41 0 57.5 -15.5t16.5 -38.5
q0 -5 -1.5 -13t-3.5 -22q-5 -27 -23 -43.5t-62 -16.5zM452 592q-41 0 -57.5 15.5t-16.5 38.5q0 5 1.5 13t3.5 22q5 27 23 43.5t62 16.5q41 0 57.5 -15.5t16.5 -38.5q0 -5 -1.5 -13t-3.5 -22q-5 -27 -23 -43.5t-62 -16.5z" />
    <glyph glyph-name="uni04D4" unicode="&#x4d4;" 
d="M308 169h-104l-63 -169h-144l276 698h415l-18 -110h-156l-30 -180h145l-18 -110h-145l-32 -188h155l-18 -110h-291zM357 595l-114 -316h84l53 316h-23z" />
    <glyph glyph-name="uni04D5" unicode="&#x4d5;" 
d="M110 -12q-52 0 -85 32t-33 101q0 85 55 134.5t156 49.5h40l7 42q3 18 3 31q0 29 -13.5 44t-36.5 15q-27 0 -46 -18.5t-33 -53.5l-80 46q29 65 68.5 91t95.5 26q44 0 77 -17.5t39 -61.5h3q20 35 55 57t84 22q63 0 99 -37.5t36 -96.5q0 -27 -10 -56t-37.5 -53.5t-77.5 -41
t-129 -17.5l-2 -11q-2 -14 -3 -26.5t-1 -21.5q0 -39 14 -61.5t42 -22.5q27 0 43.5 21t29.5 53l91 -39q-28 -66 -69 -98t-104 -32q-27 0 -51.5 6.5t-43.5 20.5t-31.5 36t-16.5 54h-4q-14 -59 -47.5 -88t-83.5 -29zM146 77q59 0 76 102l8 49h-29q-40 0 -65 -17t-32 -54
q-2 -14 -2.5 -22t-0.5 -10q0 -26 12.5 -37t32.5 -11zM450 439q-32 0 -55 -31t-34 -97l-1 -8q38 1 64 9t42 19.5t23 26.5t7 32q0 24 -12.5 36.5t-33.5 12.5z" />
    <glyph glyph-name="uni04D6" unicode="&#x4d6;" 
d="M38 0l117 698h446l-20 -122h-300l-27 -162h286l-20 -122h-287l-28 -170h299l-20 -122h-446zM386 740q-58 0 -96 28.5t-56 90.5l-15 50l115 43l4 -107q11 -3 28 -5t29 -2q14 0 30 2t25 5l34 107l111 -43l-30 -57q-30 -58 -76 -85t-103 -27z" />
    <glyph glyph-name="uni04D7" unicode="&#x4d7;" 
d="M281 -12q-115 0 -170 58.5t-55 161.5q0 72 22 131t61.5 101t95.5 65t125 23q39 0 73.5 -9t60.5 -26.5t41 -44t15 -62.5q0 -31 -13 -62t-50.5 -56.5t-106 -43t-178.5 -21.5q-1 -6 -1 -9.5v-7.5q0 -42 23 -64t76 -22q21 0 38.5 4t34 14.5t33 27t36.5 42.5l91 -59
q-20 -29 -43.5 -54.5t-53.5 -45t-68 -30.5t-87 -11zM345 425q-48 0 -82 -28.5t-48 -95.5l-3 -14q69 4 108.5 13t59 21t24.5 26t5 26q0 52 -64 52zM358 570q-58 0 -96 28.5t-56 90.5l-15 50l115 43l4 -107q11 -3 28 -5t29 -2q14 0 30 2t25 5l34 107l111 -43l-30 -57
q-30 -58 -76 -85t-103 -27z" />
    <glyph glyph-name="uni04D8" unicode="&#x4d8;" 
d="M273 -12q-116 0 -174 69.5t-58 198.5q0 14 1 39.5t6 52.5l8 50h388l2 12q3 18 4 32.5t1 25.5q0 58 -23.5 90.5t-76.5 32.5q-27 0 -48 -9t-37.5 -25.5t-29 -39.5t-23.5 -51l-125 49q37 97 107 146t170 49q116 0 174 -69.5t58 -217.5q0 -80 -18 -158t-57 -139.5
t-100.5 -99.5t-148.5 -38zM278 105q64 0 99 47t49 133l1 6h-236q-4 -18 -6 -40t-2 -39q0 -49 22 -78t73 -29z" />
    <glyph glyph-name="uni04D9" unicode="&#x4d9;" 
d="M240 -12q-39 0 -73.5 9t-60.5 26.5t-41 44t-15 62.5q0 31 13 62t50.5 56.5t106 43t178.5 21.5q1 6 1 9.5v7.5q0 42 -23 64t-76 22q-21 0 -38.5 -4t-34 -14.5t-33 -27.5t-36.5 -42l-91 59q20 29 43.5 54.5t53.5 45t67.5 30.5t87.5 11q115 0 170 -58.5t55 -161.5
q0 -72 -22 -131t-61.5 -101t-95.5 -65t-125 -23zM255 91q48 0 82 28.5t48 95.5l3 14q-69 -4 -108.5 -13t-59 -21t-24.5 -26t-5 -26q0 -52 64 -52z" />
    <glyph glyph-name="uni04DC" unicode="&#x4dc;" 
d="M50 251q17 50 41.5 75t63.5 31l1 6q-30 9 -43.5 32t-14.5 70l-5 233h121l6 -290h43l48 290h126l-48 -290h43l99 290h124l-83 -242q-16 -47 -36.5 -67t-55.5 -26l-1 -6q32 -9 46 -34t16 -73l10 -250h-127l-11 298h-43l-49 -298h-126l49 298h-45l-104 -298h-133zM279 762
q-41 0 -57.5 15.5t-16.5 38.5q0 5 1 12.5t4 23.5q5 26 23 42.5t62 16.5q41 0 57.5 -15.5t16.5 -38.5q0 -5 -1 -12.5t-4 -23.5q-5 -26 -23 -42.5t-62 -16.5zM497 762q-41 0 -57.5 15.5t-16.5 38.5q0 5 1 12.5t4 23.5q5 26 23 42.5t62 16.5q41 0 57.5 -15.5t16.5 -38.5
q0 -5 -1 -12.5t-4 -23.5q-5 -26 -23 -42.5t-62 -16.5z" />
    <glyph glyph-name="uni04DD" unicode="&#x4dd;" 
d="M-17 108h69q11 26 21.5 69t17.5 91q5 35 7.5 65t2.5 55v20h-64l18 108h33q56 0 86.5 -32.5t30.5 -112.5q0 -17 -0.5 -32.5t-1.5 -26.5h47l34 204h118l-34 -204h43q12 56 28.5 97t36.5 61q24 24 52.5 35t73.5 11h29l-18 -108h-65q-11 -26 -21.5 -69t-17.5 -91
q-5 -35 -7.5 -65t-2.5 -55v-20h68l-18 -108h-37q-56 0 -86.5 32.5t-30.5 112.5q0 17 0.5 33t1.5 32h-46l-35 -210h-118l35 210h-43q-13 -60 -29.5 -102t-36.5 -62q-24 -24 -52.5 -35t-73.5 -11h-33zM251 592q-41 0 -57.5 15.5t-16.5 38.5q0 5 1.5 13t3.5 22q5 27 23 43.5
t62 16.5q41 0 57.5 -15.5t16.5 -38.5q0 -5 -1.5 -13t-3.5 -22q-5 -27 -23 -43.5t-62 -16.5zM469 592q-41 0 -57.5 15.5t-16.5 38.5q0 5 1.5 13t3.5 22q5 27 23 43.5t62 16.5q41 0 57.5 -15.5t16.5 -38.5q0 -5 -1.5 -13t-3.5 -22q-5 -27 -23 -43.5t-62 -16.5z" />
    <glyph glyph-name="uni04DE" unicode="&#x4de;" 
d="M262 -12q-84 0 -146 28t-98 79l93 94q27 -35 68 -57t92 -22q48 0 74.5 21t32.5 60l2 15q1 5 1.5 11t0.5 12q0 30 -18.5 45.5t-66.5 15.5h-88l20 119h88q48 0 71 19t31 66l2 11q2 10 2 20q0 31 -24 48t-72 17q-86 0 -145 -74l-85 86q45 53 105.5 80.5t139.5 27.5
q112 0 171 -44t59 -125q0 -37 -13 -68t-36 -54t-54.5 -37.5t-68.5 -18.5l-1 -6q71 -12 102 -47t31 -91q0 -48 -17.5 -90t-52 -73.5t-84.5 -49.5t-116 -18zM263 762q-41 0 -57.5 15.5t-16.5 38.5q0 5 1 12.5t4 23.5q5 26 23 42.5t62 16.5q41 0 57.5 -15.5t16.5 -38.5
q0 -5 -1 -12.5t-4 -23.5q-5 -26 -23 -42.5t-62 -16.5zM481 762q-41 0 -57.5 15.5t-16.5 38.5q0 5 1 12.5t4 23.5q5 26 23 42.5t62 16.5q41 0 57.5 -15.5t16.5 -38.5q0 -5 -1 -12.5t-4 -23.5q-5 -26 -23 -42.5t-62 -16.5z" />
    <glyph glyph-name="uni04DF" unicode="&#x4df;" 
d="M253 -12q-75 0 -129 22.5t-96 66.5l86 86q26 -31 59.5 -48t81.5 -17q52 0 77 15t30 50q1 5 1 7v5q0 15 -8 25t-37 10h-109l16 97h83q39 0 58 14.5t23 35.5q1 5 1 7.5v4.5q0 21 -17 35t-64 14t-78.5 -16t-60.5 -46l-75 77q21 20 44.5 37.5t52 30t63 20t77.5 7.5
q100 0 151 -37t51 -96q0 -51 -30 -85.5t-93 -47.5l-1 -5q47 -8 72.5 -31t25.5 -65q0 -78 -67 -125.5t-188 -47.5zM244 592q-41 0 -57.5 15.5t-16.5 38.5q0 5 1.5 13t3.5 22q5 27 23 43.5t62 16.5q41 0 57.5 -15.5t16.5 -38.5q0 -5 -1.5 -13t-3.5 -22q-5 -27 -23 -43.5
t-62 -16.5zM462 592q-41 0 -57.5 15.5t-16.5 38.5q0 5 1.5 13t3.5 22q5 27 23 43.5t62 16.5q41 0 57.5 -15.5t16.5 -38.5q0 -5 -1.5 -13t-3.5 -22q-5 -27 -23 -43.5t-62 -16.5z" />
    <glyph glyph-name="uni04E2" unicode="&#x4e2;" 
d="M129 698h140l-43 -259l-46 -189h9l103 157l190 291h137l-116 -698h-140l43 259l46 189h-9l-106 -162l-187 -286h-137zM249 888h305l-17 -102h-305z" />
    <glyph glyph-name="uni04E3" unicode="&#x4e3;" 
d="M362 123h-5q-29 -63 -67.5 -99t-100.5 -36q-38 0 -64.5 12t-43.5 32.5t-25 47.5t-8 57q0 22 2.5 45t8.5 59l46 275h146l-49 -292q-2 -14 -4.5 -29t-2.5 -34q0 -10 3 -21t10 -20t18.5 -14.5t28.5 -5.5q26 0 45 12t36 35q11 15 26.5 41.5t20.5 58.5l45 269h146l-86 -516
h-146zM219 718h305l-17 -102h-305z" />
    <glyph glyph-name="uni04E4" unicode="&#x4e4;" 
d="M129 698h140l-43 -259l-46 -189h9l103 157l190 291h137l-116 -698h-140l43 259l46 189h-9l-106 -162l-187 -286h-137zM276 762q-41 0 -57.5 15.5t-16.5 38.5q0 5 1 12.5t4 23.5q5 26 23 42.5t62 16.5q41 0 57.5 -15.5t16.5 -38.5q0 -5 -1 -12.5t-4 -23.5
q-5 -26 -23 -42.5t-62 -16.5zM494 762q-41 0 -57.5 15.5t-16.5 38.5q0 5 1 12.5t4 23.5q5 26 23 42.5t62 16.5q41 0 57.5 -15.5t16.5 -38.5q0 -5 -1 -12.5t-4 -23.5q-5 -26 -23 -42.5t-62 -16.5z" />
    <glyph glyph-name="uni04E5" unicode="&#x4e5;" 
d="M362 123h-5q-29 -63 -67.5 -99t-100.5 -36q-38 0 -64.5 12t-43.5 32.5t-25 47.5t-8 57q0 22 2.5 45t8.5 59l46 275h146l-49 -292q-2 -14 -4.5 -29t-2.5 -34q0 -10 3 -21t10 -20t18.5 -14.5t28.5 -5.5q26 0 45 12t36 35q11 15 26.5 41.5t20.5 58.5l45 269h146l-86 -516
h-146zM246 592q-41 0 -57.5 15.5t-16.5 38.5q0 5 1.5 13t3.5 22q5 27 23 43.5t62 16.5q41 0 57.5 -15.5t16.5 -38.5q0 -5 -1.5 -13t-3.5 -22q-5 -27 -23 -43.5t-62 -16.5zM464 592q-41 0 -57.5 15.5t-16.5 38.5q0 5 1.5 13t3.5 22q5 27 23 43.5t62 16.5q41 0 57.5 -15.5
t16.5 -38.5q0 -5 -1.5 -13t-3.5 -22q-5 -27 -23 -43.5t-62 -16.5z" />
    <glyph glyph-name="uni04E6" unicode="&#x4e6;" 
d="M279 -12q-63 0 -109 18t-76 52t-44 83t-14 110q0 89 17.5 172t55.5 146.5t97.5 102t142.5 38.5q63 0 109 -18t76 -52t44 -83t14 -110q0 -89 -17.5 -172t-55.5 -146.5t-97.5 -102t-142.5 -38.5zM279 108q63 0 92.5 47t43.5 133l20 120q6 36 6 72q0 52 -22 81t-70 29
q-63 0 -92.5 -47t-43.5 -133l-20 -120q-6 -36 -6 -72q0 -52 22 -81t70 -29zM264 762q-41 0 -57.5 15.5t-16.5 38.5q0 5 1 12.5t4 23.5q5 26 23 42.5t62 16.5q41 0 57.5 -15.5t16.5 -38.5q0 -5 -1 -12.5t-4 -23.5q-5 -26 -23 -42.5t-62 -16.5zM482 762q-41 0 -57.5 15.5
t-16.5 38.5q0 5 1 12.5t4 23.5q5 26 23 42.5t62 16.5q41 0 57.5 -15.5t16.5 -38.5q0 -5 -1 -12.5t-4 -23.5q-5 -26 -23 -42.5t-62 -16.5z" />
    <glyph glyph-name="uni04E7" unicode="&#x4e7;" 
d="M265 -12q-106 0 -164 59.5t-58 162.5q0 74 21.5 133t60 100t92 63t118.5 22q106 0 164 -59.5t58 -162.5q0 -74 -21.5 -133t-60 -100t-92 -63t-118.5 -22zM276 97q48 0 78.5 29t39.5 83l13 78q2 9 3.5 20.5t1.5 20.5q0 46 -23.5 68.5t-64.5 22.5q-48 0 -78.5 -29
t-39.5 -83l-13 -78q-2 -9 -3.5 -20.5t-1.5 -20.5q0 -46 23.5 -68.5t64.5 -22.5zM251 592q-41 0 -57.5 15.5t-16.5 38.5q0 5 1.5 13t3.5 22q5 27 23 43.5t62 16.5q41 0 57.5 -15.5t16.5 -38.5q0 -5 -1.5 -13t-3.5 -22q-5 -27 -23 -43.5t-62 -16.5zM469 592q-41 0 -57.5 15.5
t-16.5 38.5q0 5 1.5 13t3.5 22q5 27 23 43.5t62 16.5q41 0 57.5 -15.5t16.5 -38.5q0 -5 -1.5 -13t-3.5 -22q-5 -27 -23 -43.5t-62 -16.5z" />
    <glyph glyph-name="uni04E8" unicode="&#x4e8;" 
d="M279 -12q-63 0 -109 18t-76 52t-44 83t-14 110q0 89 17.5 172t55.5 146.5t97.5 102t142.5 38.5q63 0 109 -18t76 -52t44 -83t14 -110q0 -89 -17.5 -172t-55.5 -146.5t-97.5 -102t-142.5 -38.5zM278 96q33 0 57 11.5t41 34.5t29 59t20 85l1 6h-244q-4 -21 -5.5 -41
t-1.5 -40q0 -57 24.5 -86t78.5 -29zM350 602q-65 0 -97.5 -45.5t-49.5 -142.5h244q6 36 6 73q0 57 -24.5 86t-78.5 29z" />
    <glyph glyph-name="uni04E9" unicode="&#x4e9;" 
d="M265 -12q-106 0 -164 59.5t-58 162.5q0 74 21.5 133t60 100t92 63t118.5 22q106 0 164 -59.5t58 -162.5q0 -74 -21.5 -133t-60 -100t-92 -63t-118.5 -22zM275 86q54 0 86.5 31t42.5 89l1 6h-225q-3 -15 -3 -29q0 -50 25.5 -73.5t72.5 -23.5zM421 309q1 6 1.5 12.5
t0.5 11.5q0 50 -25.5 73.5t-72.5 23.5q-107 0 -130 -121h226z" />
    <glyph glyph-name="uni04EE" unicode="&#x4ee;" 
d="M88 122h114l30 57l-141 519h150l59 -248l20 -124h3l51 124l127 248h155l-309 -575q-19 -35 -38 -58.5t-40 -38t-46 -20.5t-56 -6h-99zM245 888h305l-17 -102h-305z" />
    <glyph glyph-name="uni04EF" unicode="&#x4ef;" 
d="M217 -212q-72 0 -122 15t-89 61l87 90q24 -29 54.5 -41t65.5 -12q28 0 50 6.5t39 23.5t29 46.5t20 76.5l14 86h-5q-29 -63 -67.5 -99t-100.5 -36q-38 0 -64.5 12t-43.5 32.5t-25 47.5t-8 57q0 22 2.5 45t8.5 59l43 258h146l-46 -275q-2 -14 -4.5 -29t-2.5 -34
q0 -10 3 -21t10 -20t18.5 -14.5t28.5 -5.5q26 0 45 12t36 35q11 15 26.5 41.5t20.5 58.5l42 252h146l-80 -480q-21 -126 -91.5 -187t-185.5 -61zM230 718h305l-17 -102h-305z" />
    <glyph glyph-name="uni04F0" unicode="&#x4f0;" 
d="M88 122h114l30 57l-141 519h150l59 -248l20 -124h3l51 124l127 248h155l-309 -575q-19 -35 -38 -58.5t-40 -38t-46 -20.5t-56 -6h-99zM272 762q-41 0 -57.5 15.5t-16.5 38.5q0 5 1 12.5t4 23.5q5 26 23 42.5t62 16.5q41 0 57.5 -15.5t16.5 -38.5q0 -5 -1 -12.5t-4 -23.5
q-5 -26 -23 -42.5t-62 -16.5zM490 762q-41 0 -57.5 15.5t-16.5 38.5q0 5 1 12.5t4 23.5q5 26 23 42.5t62 16.5q41 0 57.5 -15.5t16.5 -38.5q0 -5 -1 -12.5t-4 -23.5q-5 -26 -23 -42.5t-62 -16.5z" />
    <glyph glyph-name="uni04F1" unicode="&#x4f1;" 
d="M217 -212q-72 0 -122 15t-89 61l87 90q24 -29 54.5 -41t65.5 -12q28 0 50 6.5t39 23.5t29 46.5t20 76.5l14 86h-5q-29 -63 -67.5 -99t-100.5 -36q-38 0 -64.5 12t-43.5 32.5t-25 47.5t-8 57q0 22 2.5 45t8.5 59l43 258h146l-46 -275q-2 -14 -4.5 -29t-2.5 -34
q0 -10 3 -21t10 -20t18.5 -14.5t28.5 -5.5q26 0 45 12t36 35q11 15 26.5 41.5t20.5 58.5l42 252h146l-80 -480q-21 -126 -91.5 -187t-185.5 -61zM257 592q-41 0 -57.5 15.5t-16.5 38.5q0 5 1.5 13t3.5 22q5 27 23 43.5t62 16.5q41 0 57.5 -15.5t16.5 -38.5q0 -5 -1.5 -13
t-3.5 -22q-5 -27 -23 -43.5t-62 -16.5zM475 592q-41 0 -57.5 15.5t-16.5 38.5q0 5 1.5 13t3.5 22q5 27 23 43.5t62 16.5q41 0 57.5 -15.5t16.5 -38.5q0 -5 -1.5 -13t-3.5 -22q-5 -27 -23 -43.5t-62 -16.5z" />
    <glyph glyph-name="uni04F2" unicode="&#x4f2;" 
d="M88 122h114l30 57l-141 519h150l59 -248l20 -124h3l51 124l127 248h155l-309 -575q-19 -35 -38 -58.5t-40 -38t-46 -20.5t-56 -6h-99zM284 741l-78 38l108 193l108 -56zM483 741l-78 38l108 193l108 -56z" />
    <glyph glyph-name="uni04F3" unicode="&#x4f3;" 
d="M217 -212q-72 0 -122 15t-89 61l87 90q24 -29 54.5 -41t65.5 -12q28 0 50 6.5t39 23.5t29 46.5t20 76.5l14 86h-5q-29 -63 -67.5 -99t-100.5 -36q-38 0 -64.5 12t-43.5 32.5t-25 47.5t-8 57q0 22 2.5 45t8.5 59l43 258h146l-46 -275q-2 -14 -4.5 -29t-2.5 -34
q0 -10 3 -21t10 -20t18.5 -14.5t28.5 -5.5q26 0 45 12t36 35q11 15 26.5 41.5t20.5 58.5l42 252h146l-80 -480q-21 -126 -91.5 -187t-185.5 -61zM269 571l-78 38l108 193l108 -56zM468 571l-78 38l108 193l108 -56z" />
    <glyph glyph-name="uni04F4" unicode="&#x4f4;" 
d="M386 246h-6q-23 -11 -50.5 -16.5t-63.5 -5.5q-98 0 -146.5 45t-48.5 133q0 33 2.5 63t7.5 59l29 174h148l-34 -202q-5 -32 -6.5 -47.5t-1.5 -32.5q0 -33 19 -52.5t65 -19.5q28 0 54.5 4t50.5 13l56 337h148l-116 -698h-148zM265 762q-41 0 -57.5 15.5t-16.5 38.5
q0 5 1 12.5t4 23.5q5 26 23 42.5t62 16.5q41 0 57.5 -15.5t16.5 -38.5q0 -5 -1 -12.5t-4 -23.5q-5 -26 -23 -42.5t-62 -16.5zM483 762q-41 0 -57.5 15.5t-16.5 38.5q0 5 1 12.5t4 23.5q5 26 23 42.5t62 16.5q41 0 57.5 -15.5t16.5 -38.5q0 -5 -1 -12.5t-4 -23.5
q-5 -26 -23 -42.5t-62 -16.5z" />
    <glyph glyph-name="uni04F5" unicode="&#x4f5;" 
d="M374 252h-5q-30 -56 -67.5 -79.5t-91.5 -23.5q-64 0 -103 34.5t-39 100.5q0 18 1.5 33.5t3.5 30.5l28 168h146l-25 -149q-3 -18 -4 -28.5t-1 -22.5q0 -26 16.5 -40.5t48.5 -14.5q47 0 74 24t36 77l26 154h146l-86 -516h-146zM240 592q-41 0 -57.5 15.5t-16.5 38.5
q0 5 1.5 13t3.5 22q5 27 23 43.5t62 16.5q41 0 57.5 -15.5t16.5 -38.5q0 -5 -1.5 -13t-3.5 -22q-5 -27 -23 -43.5t-62 -16.5zM458 592q-41 0 -57.5 15.5t-16.5 38.5q0 5 1.5 13t3.5 22q5 27 23 43.5t62 16.5q41 0 57.5 -15.5t16.5 -38.5q0 -5 -1.5 -13t-3.5 -22
q-5 -27 -23 -43.5t-62 -16.5z" />
    <glyph glyph-name="uni04F8" unicode="&#x4f8;" 
d="M161 112q41 0 63 21t30 72l3 19q2 17 3 27.5t1 22.5q0 28 -12 44t-52 16h-28l-37 -222h29zM102 698h128l-42 -252h27q89 0 134.5 -46.5t45.5 -125.5q0 -132 -64.5 -203t-174.5 -71h-170zM518 698h128l-116 -698h-128zM279 762q-41 0 -57.5 15.5t-16.5 38.5q0 5 1 12.5
t4 23.5q5 26 23 42.5t62 16.5q41 0 57.5 -15.5t16.5 -38.5q0 -5 -1 -12.5t-4 -23.5q-5 -26 -23 -42.5t-62 -16.5zM497 762q-41 0 -57.5 15.5t-16.5 38.5q0 5 1 12.5t4 23.5q5 26 23 42.5t62 16.5q41 0 57.5 -15.5t16.5 -38.5q0 -5 -1 -12.5t-4 -23.5q-5 -26 -23 -42.5
t-62 -16.5z" />
    <glyph glyph-name="uni04F9" unicode="&#x4f9;" 
d="M182 -12q-84 0 -123 40.5t-39 117.5q0 24 2.5 51t8.5 63l44 256h123l-37 -220h6q20 42 46.5 63.5t69.5 21.5q50 0 75.5 -31.5t25.5 -99.5q0 -66 -17 -115t-45 -82t-64.5 -49t-75.5 -16zM182 88q23 0 41 19.5t27 73.5q2 10 3.5 23.5t1.5 27.5q0 49 -38 49
q-26 0 -45.5 -22.5t-25.5 -58.5q-2 -13 -4 -26.5t-2 -27.5q0 -31 11 -44.5t31 -13.5zM489 516h123l-86 -516h-123zM251 592q-41 0 -57.5 15.5t-16.5 38.5q0 5 1.5 13t3.5 22q5 27 23 43.5t62 16.5q41 0 57.5 -15.5t16.5 -38.5q0 -5 -1.5 -13t-3.5 -22q-5 -27 -23 -43.5
t-62 -16.5zM469 592q-41 0 -57.5 15.5t-16.5 38.5q0 5 1.5 13t3.5 22q5 27 23 43.5t62 16.5q41 0 57.5 -15.5t16.5 -38.5q0 -5 -1.5 -13t-3.5 -22q-5 -27 -23 -43.5t-62 -16.5z" />
    <glyph glyph-name="uni0E3F" unicode="&#xe3f;" 
d="M296 -113h-112l19 113h-178l115 698h179l19 113h112l-19 -115q78 -8 118.5 -50.5t40.5 -108.5q0 -72 -40 -117.5t-116 -60.5v-5q60 -12 92.5 -45t32.5 -92q0 -49 -16.5 -89t-47.5 -68.5t-75.5 -44t-99.5 -15.5h-5zM279 402l32 192h-56l-32 -192h56zM450 533q0 47 -47 58
l-31 -186q32 5 48.5 21t21.5 48l5 30q3 18 3 29zM229 104l33 199h-56l-33 -199h56zM422 238q0 31 -16 46.5t-51 18.5l-33 -198q39 3 62 19t29 51l5 30q2 9 3 18.5t1 14.5z" />
    <glyph glyph-name="Wgrave" unicode="&#x1e80;" 
d="M10 0l74 698h127l-48 -418l-17 -144h9l127 410h135l-6 -410h9l27 138l93 424h121l-159 -698h-190l15 386h-10l-117 -386h-190zM251 917l124 59l77 -196l-87 -39z" />
    <glyph glyph-name="wgrave" unicode="&#x1e81;" 
d="M108 -12q-50 0 -72.5 30t-22.5 79q0 14 2.5 42.5t6.5 52.5l54 324h118l-61 -329q-2 -8 -3 -22t-1 -23q0 -16 7 -25.5t24 -9.5q15 0 27.5 10.5t23.5 28.5q7 11 12.5 27t7.5 33l48 310h113l-54 -334q-2 -8 -3.5 -22t-1.5 -21q0 -14 6.5 -25t23.5 -11q18 0 36 22t31.5 58.5
t22 84t8.5 98.5q0 35 -4.5 69t-13.5 59l102 30q15 -28 24.5 -68t9.5 -91q0 -90 -23.5 -166t-64.5 -127q-32 -41 -72 -62.5t-82 -21.5q-27 0 -45.5 9t-30 24t-16 35t-3.5 42h-7q-36 -110 -127 -110zM215 747l124 59l77 -196l-87 -39z" />
    <glyph glyph-name="Wacute" unicode="&#x1e82;" 
d="M10 0l74 698h127l-48 -418l-17 -144h9l127 410h135l-6 -410h9l27 138l93 424h121l-159 -698h-190l15 386h-10l-117 -386h-190zM395 740l-86 46l115 190l114 -60z" />
    <glyph glyph-name="wacute" unicode="&#x1e83;" 
d="M108 -12q-50 0 -72.5 30t-22.5 79q0 14 2.5 42.5t6.5 52.5l54 324h118l-61 -329q-2 -8 -3 -22t-1 -23q0 -16 7 -25.5t24 -9.5q15 0 27.5 10.5t23.5 28.5q7 11 12.5 27t7.5 33l48 310h113l-54 -334q-2 -8 -3.5 -22t-1.5 -21q0 -14 6.5 -25t23.5 -11q18 0 36 22t31.5 58.5
t22 84t8.5 98.5q0 35 -4.5 69t-13.5 59l102 30q15 -28 24.5 -68t9.5 -91q0 -90 -23.5 -166t-64.5 -127q-32 -41 -72 -62.5t-82 -21.5q-27 0 -45.5 9t-30 24t-16 35t-3.5 42h-7q-36 -110 -127 -110zM359 570l-86 46l115 190l114 -60z" />
    <glyph glyph-name="Wdieresis" unicode="&#x1e84;" 
d="M10 0l74 698h127l-48 -418l-17 -144h9l127 410h135l-6 -410h9l27 138l93 424h121l-159 -698h-190l15 386h-10l-117 -386h-190zM280 762q-41 0 -57.5 15.5t-16.5 38.5q0 5 1 12.5t4 23.5q5 26 23 42.5t62 16.5q41 0 57.5 -15.5t16.5 -38.5q0 -5 -1 -12.5t-4 -23.5
q-5 -26 -23 -42.5t-62 -16.5zM498 762q-41 0 -57.5 15.5t-16.5 38.5q0 5 1 12.5t4 23.5q5 26 23 42.5t62 16.5q41 0 57.5 -15.5t16.5 -38.5q0 -5 -1 -12.5t-4 -23.5q-5 -26 -23 -42.5t-62 -16.5z" />
    <glyph glyph-name="wdieresis" unicode="&#x1e85;" 
d="M108 -12q-50 0 -72.5 30t-22.5 79q0 14 2.5 42.5t6.5 52.5l54 324h118l-61 -329q-2 -8 -3 -22t-1 -23q0 -16 7 -25.5t24 -9.5q15 0 27.5 10.5t23.5 28.5q7 11 12.5 27t7.5 33l48 310h113l-54 -334q-2 -8 -3.5 -22t-1.5 -21q0 -14 6.5 -25t23.5 -11q18 0 36 22t31.5 58.5
t22 84t8.5 98.5q0 35 -4.5 69t-13.5 59l102 30q15 -28 24.5 -68t9.5 -91q0 -90 -23.5 -166t-64.5 -127q-32 -41 -72 -62.5t-82 -21.5q-27 0 -45.5 9t-30 24t-16 35t-3.5 42h-7q-36 -110 -127 -110zM244 592q-41 0 -57.5 15.5t-16.5 38.5q0 5 1.5 13t3.5 22q5 27 23 43.5
t62 16.5q41 0 57.5 -15.5t16.5 -38.5q0 -5 -1.5 -13t-3.5 -22q-5 -27 -23 -43.5t-62 -16.5zM462 592q-41 0 -57.5 15.5t-16.5 38.5q0 5 1.5 13t3.5 22q5 27 23 43.5t62 16.5q41 0 57.5 -15.5t16.5 -38.5q0 -5 -1.5 -13t-3.5 -22q-5 -27 -23 -43.5t-62 -16.5z" />
    <glyph glyph-name="uni1E9E" unicode="&#x1e9e;" 
d="M105 698h510l-21 -129l-156 -157l-1 -6q24 -1 49.5 -9.5t46 -27t33.5 -47.5t13 -70q0 -44 -14.5 -91t-44.5 -85.5t-76.5 -63t-111.5 -24.5q-21 0 -43.5 3.5t-44 11t-41 19t-33.5 26.5l87 92q15 -20 34.5 -27.5t42.5 -7.5q21 0 36.5 7.5t26 20t17.5 29t11 34.5
q4 16 5 28.5t1 20.5q0 26 -15.5 41.5t-53.5 15.5h-84l20 117l164 167h-228l-98 -586h-147z" />
    <glyph glyph-name="uni1EA0" unicode="&#x1ea0;" 
d="M400 0l-17 169h-196l-69 -169h-155l307 698h206l76 -698h-152zM356 553h-9l-110 -264h140zM233 -202q-41 0 -56.5 15.5t-15.5 38.5q0 5 1.5 13.5t3.5 22.5q5 27 23 43t60 16q41 0 56.5 -15.5t15.5 -38.5q0 -5 -1.5 -13.5t-3.5 -22.5q-5 -27 -23 -43t-60 -16z" />
    <glyph glyph-name="uni1EA1" unicode="&#x1ea1;" 
d="M181 -12q-41 0 -68 14.5t-44 41t-24 64.5t-7 85q0 75 16 136.5t46 105.5t73.5 68.5t97.5 24.5q59 0 87.5 -28.5t39.5 -79.5h7l16 96h146l-68 -409h53l-18 -107h-75q-57 0 -85.5 28t-20.5 82l2 13h-5q-15 -30 -30.5 -54.5t-35 -42.5t-44.5 -28t-59 -10zM247 101
q26 0 47 13t38 35q11 14 25 40t19 58l14 83q7 41 -9.5 63t-63.5 22q-55 0 -81 -31.5t-36 -90.5l-10 -60q-2 -9 -3 -20.5t-1 -25.5q0 -36 13 -61t48 -25zM220 -202q-41 0 -56.5 15.5t-15.5 38.5q0 5 1.5 13.5t3.5 22.5q5 27 23 43t60 16q41 0 56.5 -15.5t15.5 -38.5
q0 -5 -1.5 -13.5t-3.5 -22.5q-5 -27 -23 -43t-60 -16z" />
    <glyph glyph-name="uni1EA2" unicode="&#x1ea2;" 
d="M400 0l-17 169h-196l-69 -169h-155l307 698h206l76 -698h-152zM356 553h-9l-110 -264h140zM295 962h147q42 0 61.5 -17t19.5 -42q0 -31 -14 -55.5t-35 -50.5l-54 -66l-71 34l50 93h-122z" />
    <glyph glyph-name="uni1EA3" unicode="&#x1ea3;" 
d="M181 -12q-41 0 -68 14.5t-44 41t-24 64.5t-7 85q0 75 16 136.5t46 105.5t73.5 68.5t97.5 24.5q59 0 87.5 -28.5t39.5 -79.5h7l16 96h146l-68 -409h53l-18 -107h-75q-57 0 -85.5 28t-20.5 82l2 13h-5q-15 -30 -30.5 -54.5t-35 -42.5t-44.5 -28t-59 -10zM247 101
q26 0 47 13t38 35q11 14 25 40t19 58l14 83q7 41 -9.5 63t-63.5 22q-55 0 -81 -31.5t-36 -90.5l-10 -60q-2 -9 -3 -20.5t-1 -25.5q0 -36 13 -61t48 -25zM253 792h147q42 0 61.5 -17t19.5 -42q0 -31 -14 -55.5t-35 -50.5l-54 -66l-71 34l50 93h-122z" />
    </font>
</defs>
</svg>
