<?xml version="1.0" standalone="no"?>
<!DOCTYPE svg PUBLIC "-//W3C//DTD SVG 1.1//EN" "http://www.w3.org/Graphics/SVG/1.1/DTD/svg11.dtd" >
<svg xmlns="http://www.w3.org/2000/svg" xmlns:xlink="http://www.w3.org/1999/xlink" version="1.1">
<metadata>
Created by FontForge 20170731 at Wed Nov  9 12:00:41 2022
 By Aleksey,,,
Copyright 2017 IBM Corp. All rights reserved.
</metadata>
<defs>
<font id="IBMPlexMono-SemiBoldItalic" horiz-adv-x="600" >
  <font-face 
    font-family="IBM Plex Mono SemiBold"
    font-weight="600"
    font-style="italic"
    font-stretch="normal"
    units-per-em="1000"
    panose-1="2 11 7 9 5 2 3 0 2 3"
    ascent="800"
    descent="-200"
    x-height="516"
    cap-height="698"
    bbox="-239 -350 716 1142"
    underline-thickness="88"
    underline-position="-244"
    slope="-9"
    unicode-range="U+000D-FB02"
  />
<missing-glyph 
d="M32 0v780h536v-780h-536zM120 88h360v604h-360v-604z" />
    <glyph glyph-name=".notdef" 
d="M32 0v780h536v-780h-536zM120 88h360v604h-360v-604z" />
    <glyph glyph-name=".null" horiz-adv-x="0" 
 />
    <glyph glyph-name=".null" horiz-adv-x="0" 
 />
    <glyph glyph-name="uni000D" unicode="&#xd;" 
 />
    <glyph glyph-name="space" unicode=" " 
 />
    <glyph glyph-name="exclam" unicode="!" 
d="M272 240l-4 253l34 205h139l-34 -205l-89 -253h-46zM257 -11q-44 0 -63 16.5t-19 40.5q0 6 1 15t5 29q5 29 27 49.5t70 20.5q44 0 63 -16.5t19 -40.5q0 -6 -1 -15t-5 -29q-5 -29 -27 -49.5t-70 -20.5z" />
    <glyph glyph-name="quotedbl" unicode="&#x22;" 
d="M169 429l51 311h114l-51 -311h-114zM376 429l51 311h114l-51 -311h-114z" />
    <glyph glyph-name="numbersign" unicode="#" 
d="M119 202h-116l16 94h132l36 106h-116l16 94h132l70 202h102l-239 -698h-102zM480 698h102l-69 -202h116l-16 -94h-132l-36 -106h116l-16 -94h-132l-70 -202h-102z" />
    <glyph glyph-name="dollar" unicode="$" 
d="M214 -8q-67 9 -117.5 38t-76.5 73l81 79q25 -36 60 -57t77 -29l36 213l-19 5q-161 42 -161 176q0 47 16.5 85.5t47.5 67t75.5 45.5t99.5 21l17 102h97l-18 -107q56 -11 96.5 -37t63.5 -61l-82 -76q-20 27 -44.5 44t-58.5 24l-33 -196l18 -5q78 -22 121.5 -63.5
t43.5 -111.5q0 -48 -16.5 -89t-48 -71t-76.5 -49t-103 -24l-17 -102h-97zM218 503q0 -32 18.5 -49t56.5 -28l29 174q-51 -7 -77.5 -33t-26.5 -64zM428 209q0 30 -18 48t-59 30l-30 -190q52 9 79.5 38t27.5 74z" />
    <glyph glyph-name="percent" unicode="%" 
d="M189 344q-64 0 -99.5 38.5t-35.5 107.5q0 49 13 89.5t37 69.5t57.5 45t74.5 16q64 0 99 -38t35 -107q0 -49 -13 -89.5t-37 -70t-57.5 -45.5t-73.5 -16zM195 420q35 0 51.5 23t22.5 57q4 23 7.5 44t3.5 32q0 58 -50 58q-36 0 -52.5 -22.5t-21.5 -56.5q-4 -23 -8 -44.5
t-4 -32.5q0 -58 51 -58zM568 698h99l-203 -300h-99zM169 300h99l-203 -300h-99zM397 -12q-64 0 -99 38t-35 107q0 49 13 89.5t37 70t57 45.5t74 16q64 0 99.5 -38.5t35.5 -107.5q0 -49 -13.5 -89.5t-37.5 -69.5t-57.5 -45t-73.5 -16zM403 64q36 0 52.5 22.5t21.5 56.5
q4 23 8 44.5t4 32.5q0 58 -51 58q-35 0 -51.5 -23t-22.5 -57q-4 -23 -7.5 -44t-3.5 -32q0 -58 50 -58z" />
    <glyph glyph-name="ampersand" unicode="&#x26;" 
d="M156 -12q-68 0 -108.5 47.5t-40.5 135.5q0 42 10 81t32.5 69.5t58.5 50.5t89 24q-14 36 -22 69.5t-8 65.5q0 39 13.5 71.5t39 56.5t62 37.5t83.5 13.5q78 0 126 -46t48 -127q0 -87 -52 -141t-144 -71l91 -221l17 -3l71 105l74 -49l-49 -85q-27 -47 -53.5 -65.5
t-63.5 -18.5q-41 0 -72.5 34t-52.5 114h-5q-10 -71 -47.5 -109.5t-96.5 -38.5zM198 98q29 0 50.5 15t34.5 55l-66 173q-24 -6 -39 -16.5t-23.5 -24t-12.5 -29.5t-6 -32q-3 -21 -3.5 -35t-0.5 -24q0 -41 17.5 -61.5t48.5 -20.5zM356 618q-37 0 -56 -24t-19 -63q0 -32 9 -64
t26 -74l5 -13q44 14 66.5 37.5t30.5 60.5q5 19 6 34t1 29q0 37 -19 57t-50 20z" />
    <glyph glyph-name="quotesingle" unicode="'" 
d="M272 429l51 311h114l-51 -311h-114z" />
    <glyph glyph-name="parenleft" unicode="(" 
d="M181 232q0 84 23.5 163t62.5 147.5t90.5 124t107.5 93.5h126q-53 -37 -100 -81t-84.5 -94t-63.5 -105t-36 -113l-16 -94q-3 -18 -4 -33.5t-1 -31.5q0 -50 13 -99.5t34.5 -94.5t49.5 -83.5t59 -68.5h-115q-31 29 -57.5 68.5t-46 87t-31 101.5t-11.5 113z" />
    <glyph glyph-name="parenright" unicode=")" 
d="M440 390q0 -84 -23.5 -163t-62.5 -147.5t-90.5 -124.5t-107.5 -93h-126q53 37 100 81t84.5 94t63.5 104.5t36 113.5l16 94q3 18 4 33.5t1 31.5q0 50 -13 99.5t-34.5 94.5t-49.5 83.5t-59 68.5h115q31 -29 57.5 -68.5t46 -87t31 -102t11.5 -112.5z" />
    <glyph glyph-name="asterisk" unicode="*" 
d="M153 45l-83 61l141 156l-166 63l47 96l168 -62l32 190h110l-32 -190l186 62l17 -99l-188 -66l90 -151l-94 -60l-90 156z" />
    <glyph glyph-name="plus" unicode="+" 
d="M213 62l32 193h-182l16 101h183l32 193h110l-32 -193h182l-16 -101h-183l-32 -193h-110z" />
    <glyph glyph-name="comma" unicode="," 
d="M219 162h169l-176 -310h-99z" />
    <glyph glyph-name="hyphen" unicode="-" 
d="M144 243l20 123h308l-20 -123h-308z" />
    <glyph glyph-name="period" unicode="." 
d="M256 -11q-45 0 -64.5 17.5t-19.5 43.5q0 13 6 45q5 32 30.5 53t73.5 21q45 0 64.5 -17.5t19.5 -43.5q0 -14 -6 -45q-5 -32 -30.5 -53t-73.5 -21z" />
    <glyph glyph-name="slash" unicode="/" 
d="M8 -138l474 898h115l-474 -898h-115z" />
    <glyph glyph-name="zero" unicode="0" 
d="M273 -12q-119 0 -174 68t-55 191q0 53 7 108.5t22.5 107t40 96.5t59.5 78.5t80 53t103 19.5q119 0 174 -68.5t55 -190.5q0 -80 -16.5 -162.5t-53.5 -149.5t-96.5 -109t-145.5 -42zM274 90q36 0 62.5 13.5t45.5 38.5t31 61.5t20 82.5l20 120q4 23 5.5 42t1.5 37
q0 58 -25.5 90.5t-79.5 32.5q-36 0 -62.5 -13.5t-45.5 -38.5t-31 -61.5t-20 -82.5l-20 -120q-4 -23 -5.5 -42t-1.5 -37q0 -58 25.5 -90.5t79.5 -32.5zM307 291q-31 0 -44 11t-13 29q0 9 3 27q4 23 19.5 36t48.5 13q31 0 44.5 -11t13.5 -29q0 -9 -3 -27q-4 -23 -20 -36
t-49 -13z" />
    <glyph glyph-name="one" unicode="1" 
d="M46 0l18 106h190l83 497h-9l-177 -181l-76 71l203 205h202l-98 -592h161l-18 -106h-479z" />
    <glyph glyph-name="two" unicode="2" 
d="M507 0h-490l20 121l257 194q36 27 60.5 49t40.5 41.5t24.5 39t12.5 42.5q3 16 3 30q0 36 -25 59t-71 23q-27 0 -48.5 -8.5t-38 -23t-29 -33.5t-21.5 -40l-111 43q17 36 41 68t56 55t72.5 36.5t90.5 13.5q104 0 162 -52t58 -138q0 -44 -14.5 -80t-42 -69t-67 -66
t-88.5 -69l-173 -128h339z" />
    <glyph glyph-name="three" unicode="3" 
d="M293 416q63 0 96 23.5t40 58.5q4 20 4 30q0 35 -27 55.5t-72 20.5q-90 0 -153 -85l-74 79q22 24 46.5 44.5t54.5 35.5t66 23.5t81 8.5q49 0 89 -11.5t68 -32.5t43.5 -51t15.5 -68q0 -67 -43.5 -114.5t-121.5 -64.5l-1 -5q55 -9 89.5 -47t34.5 -102q0 -47 -18.5 -88.5
t-53.5 -72t-87.5 -48t-119.5 -17.5q-51 0 -89.5 11t-66.5 29t-47 41.5t-31 49.5l94 66q19 -40 52 -65.5t95 -25.5q58 0 92.5 25t41.5 73q1 5 2 14t1 16q0 41 -29 63.5t-82 22.5h-77l18 108h69z" />
    <glyph glyph-name="four" unicode="4" 
d="M310 0l22 135h-323l19 114l363 449h159l-77 -462h94l-17 -101h-93l-23 -135h-124zM137 236h212l53 319h-7z" />
    <glyph glyph-name="five" unicode="5" 
d="M567 586h-318l-56 -236h7q15 23 31 41.5t35 31t43 19.5t55 7q41 0 76 -13t60 -37t39 -59.5t14 -80.5q0 -51 -18 -99.5t-54.5 -87t-90.5 -61.5t-126 -23q-52 0 -90.5 11t-67 29t-48 41.5t-31.5 49.5l103 66q17 -39 49.5 -64.5t89.5 -25.5q61 0 97 31t44 83q3 19 3 41
q0 45 -27 69.5t-78 24.5q-45 0 -74.5 -16.5t-50.5 -35.5l-103 14l91 392h415z" />
    <glyph glyph-name="six" unicode="6" 
d="M269 -12q-109 0 -167 62t-58 167q0 77 28 149t73.5 134t103.5 112.5t118 85.5h182q-69 -43 -124.5 -83.5t-99.5 -82.5t-76 -88t-53 -100l7 -2q14 20 30.5 38.5t37.5 33t47.5 23t59.5 8.5q41 0 74 -13.5t56 -38.5t35.5 -59.5t12.5 -77.5q0 -53 -19 -101.5t-55.5 -85.5
t-90 -59t-122.5 -22zM281 90q57 0 92.5 30t45.5 87q3 18 3 35q0 51 -27.5 77t-80.5 26q-57 0 -92.5 -30t-45.5 -87q-3 -18 -3 -35q0 -51 27.5 -77t80.5 -26z" />
    <glyph glyph-name="seven" unicode="7" 
d="M116 0l347 592h-248l-22 -128h-110l39 234h490l-19 -112l-337 -586h-140z" />
    <glyph glyph-name="eight" unicode="8" 
d="M265 -12q-117 0 -176.5 49t-59.5 127q0 73 45 125.5t126 72.5l1 7q-45 17 -70 52t-25 86q0 37 16 73.5t48.5 65t82 46.5t116.5 18q106 0 160 -44.5t54 -118.5q0 -62 -39 -108.5t-108 -70.5l-1 -7q54 -15 84.5 -52.5t30.5 -97.5q0 -42 -18 -82t-54 -71.5t-89.5 -50.5
t-123.5 -19zM272 89q63 0 97 28t42 73q2 13 3 20.5t1 17.5q0 39 -27.5 61.5t-81.5 22.5q-63 0 -97 -28t-42 -73q-2 -13 -3 -20.5t-1 -17.5q0 -39 27.5 -61.5t81.5 -22.5zM327 408q56 0 87.5 25t38.5 68q3 18 3 32q0 36 -25.5 56t-75.5 20q-56 0 -87.5 -25t-38.5 -68
q-3 -18 -3 -32q0 -36 25.5 -56t75.5 -20z" />
    <glyph glyph-name="nine" unicode="9" 
d="M583 481q0 -77 -28 -149t-73.5 -134.5t-104 -113t-118.5 -84.5h-181q69 43 124.5 83.5t99 82.5t76 88t53.5 100l-7 2q-14 -20 -31 -38.5t-38 -33t-47.5 -23t-59.5 -8.5q-41 0 -74 13.5t-56 38t-35.5 59.5t-12.5 78q0 53 19 101.5t55.5 85.5t90 59t122.5 22q55 0 97 -16
t70.5 -46t43.5 -72.5t15 -94.5zM312 353q57 0 92.5 30t45.5 87q3 18 3 35q0 51 -27.5 77t-80.5 26q-57 0 -92.5 -30t-45.5 -87q-3 -18 -3 -35q0 -51 27.5 -77t80.5 -26z" />
    <glyph glyph-name="colon" unicode=":" 
d="M256 -11q-45 0 -64.5 17.5t-19.5 43.5q0 13 6 45q5 32 30.5 53t73.5 21q45 0 64.5 -17.5t19.5 -43.5q0 -14 -6 -45q-5 -32 -30.5 -53t-73.5 -21zM314 346q-45 0 -64.5 17.5t-19.5 43.5q0 13 6 45q5 32 30.5 53t73.5 21q45 0 64.5 -17.5t19.5 -43.5q0 -14 -6 -45
q-5 -32 -30.5 -53t-73.5 -21z" />
    <glyph glyph-name="semicolon" unicode=";" 
d="M219 162h169l-176 -310h-99zM314 346q-45 0 -64.5 17.5t-19.5 43.5q0 13 6 45q5 32 30.5 53t73.5 21q45 0 64.5 -17.5t19.5 -43.5q0 -14 -6 -45q-5 -32 -30.5 -53t-73.5 -21z" />
    <glyph glyph-name="less" unicode="&#x3c;" 
d="M83 246l20 120l468 235l-21 -126l-342 -170l-1 -8l285 -172l-19 -114z" />
    <glyph glyph-name="equal" unicode="=" 
d="M81 365l16 101h475l-16 -101h-475zM45 144l16 101h475l-16 -101h-475z" />
    <glyph glyph-name="greater" unicode="&#x3e;" 
d="M68 137l342 170l1 8l-285 172l19 114l390 -235l-20 -120l-468 -235z" />
    <glyph glyph-name="question" unicode="?" 
d="M209 228l25 154q89 6 134.5 31t56.5 86q2 7 2 14v12q0 37 -26 57t-65 20q-45 0 -75 -26t-47 -69l-101 46q13 32 33.5 60.5t50.5 50t69 34t88 12.5q98 0 153.5 -48.5t55.5 -133.5q0 -48 -18 -86t-48 -66t-69 -45t-81 -23l-13 -80h-125zM238 -11q-44 0 -63 16.5t-19 40.5
q0 6 1 15t5 29q5 29 27 49.5t70 20.5q44 0 63 -16.5t19 -40.5q0 -6 -1 -15t-5 -29q-5 -29 -27 -49.5t-70 -20.5z" />
    <glyph glyph-name="at" unicode="@" 
d="M406 -112h-119q-132 0 -188.5 70t-56.5 206q0 45 5 95.5t13 98.5q14 79 37.5 144t60.5 111t88.5 71.5t120.5 25.5q54 0 94 -15t66.5 -41.5t40 -63.5t13.5 -81q0 -11 -1 -24t-3 -27l-61 -367h-100l14 83h-4q-18 -41 -43.5 -68t-67.5 -27q-54 0 -78.5 39.5t-24.5 117.5
q0 55 11.5 104.5t32.5 87t51.5 59t69.5 21.5t62 -22t29 -57h4l5 33q2 14 3.5 27t1.5 24q0 113 -118 113q-34 0 -64 -11t-55 -40t-44.5 -78.5t-32.5 -127.5l-22 -133q-4 -23 -5 -50t-1 -42q0 -82 35 -126.5t121 -44.5h124zM357 162q18 0 32 9.5t24 22.5q8 11 18.5 32t15.5 51
l15 90q4 23 -8.5 43.5t-45.5 20.5q-65 0 -82 -104l-7 -43q-3 -19 -4 -36.5t-1 -25.5q0 -60 43 -60z" />
    <glyph glyph-name="A" unicode="A" 
d="M412 0l-18 178h-212l-76 -178h-135l314 698h178l82 -698h-133zM359 572h-9l-124 -288h160z" />
    <glyph glyph-name="B" unicode="B" 
d="M154 698h234q89 0 135.5 -43.5t46.5 -117.5q0 -72 -36 -116.5t-105 -62.5l-1 -4q53 -12 82.5 -45t29.5 -90q0 -48 -16.5 -88t-46.5 -69t-73 -45.5t-96 -16.5h-270zM280 94q53 0 85.5 20t38.5 63l4 28q2 9 3 18.5t1 16.5q0 70 -92 70h-104l-36 -216h100zM314 400
q54 0 82 18t36 63l5 27q2 7 2.5 15t0.5 15q0 36 -23 51t-65 15h-87l-34 -204h83z" />
    <glyph glyph-name="C" unicode="C" 
d="M289 -12q-119 0 -175 68.5t-56 193.5q0 99 22 183.5t63 146t101 96t135 34.5q55 0 94.5 -14.5t66 -40.5t40.5 -61t17 -75l-122 -28q-3 24 -8.5 45t-17 36t-30.5 23.5t-47 8.5q-68 0 -105.5 -52.5t-53.5 -144.5l-18 -105q-4 -21 -6 -40t-2 -42q0 -58 26 -92t86 -34
q52 0 84.5 34t58.5 90l109 -36q-20 -47 -45 -83t-56.5 -61t-71.5 -37.5t-89 -12.5z" />
    <glyph glyph-name="D" unicode="D" 
d="M150 698h196q115 0 175 -65.5t60 -181.5q0 -109 -22 -193t-64 -141.5t-103.5 -87t-140.5 -29.5h-217zM255 104q72 0 114 43.5t57 131.5l20 117q3 18 4.5 37.5t1.5 36.5q0 124 -119 124h-72l-82 -490h76z" />
    <glyph glyph-name="E" unicode="E" 
d="M40 0l116 698h441l-18 -107h-313l-30 -184h300l-18 -107h-300l-32 -193h313l-18 -107h-441z" />
    <glyph glyph-name="F" unicode="F" 
d="M40 0l116 698h456l-18 -107h-328l-30 -184h295l-18 -107h-295l-50 -300h-128z" />
    <glyph glyph-name="G" unicode="G" 
d="M399 102h-8q-13 -23 -27.5 -44t-32.5 -36.5t-41.5 -24.5t-54.5 -9q-87 0 -135.5 64.5t-48.5 190.5q0 98 20 183t60.5 148t100.5 99.5t140 36.5q52 0 90 -15t63.5 -40.5t39.5 -61t18 -75.5l-122 -27q-3 22 -9 42.5t-17 36.5t-29 25t-46 9q-33 0 -58 -13.5t-43.5 -39
t-31.5 -61.5t-20 -80l-17 -101q-3 -18 -5.5 -42.5t-2.5 -41.5q0 -60 24 -96t78 -36q29 0 52.5 10.5t40.5 28t27.5 40.5t14.5 49l8 49h-129l15 94h244l-60 -364h-115z" />
    <glyph glyph-name="H" unicode="H" 
d="M412 301h-208l-50 -301h-128l116 698h128l-48 -291h208l48 291h128l-116 -698h-128z" />
    <glyph glyph-name="I" unicode="I" 
d="M35 0l16 97h158l84 504h-158l16 97h444l-16 -97h-158l-84 -504h158l-16 -97h-444z" />
    <glyph glyph-name="J" unicode="J" 
d="M574 698l-84 -504q-18 -106 -80.5 -156t-164.5 -50q-98 0 -150.5 50.5t-56.5 136.5l121 23q1 -22 6.5 -41t16 -33t28 -22t43.5 -8q92 0 110 108l65 389h-240l18 107h368z" />
    <glyph glyph-name="K" unicode="K" 
d="M288 301l-95 -101l-33 -200h-128l116 698h128l-53 -318h7l119 139l158 179h153l-271 -306l163 -392h-142z" />
    <glyph glyph-name="L" unicode="L" 
d="M59 0l116 698h128l-98 -591h311l-18 -107h-439z" />
    <glyph glyph-name="M" unicode="M" 
d="M451 325l39 202h-8l-197 -359l-76 359h-8l-28 -202l-54 -325h-113l116 698h150l55 -259h8l141 259h150l-116 -698h-113z" />
    <glyph glyph-name="N" unicode="N" 
d="M232 508h-9l-84 -508h-113l116 698h160l98 -508h9l84 508h113l-116 -698h-160z" />
    <glyph glyph-name="O" unicode="O" 
d="M273 -12q-119 0 -174 67.5t-55 187.5q0 82 16.5 165.5t53 150.5t96 109t146.5 42q119 0 174 -67.5t55 -187.5q0 -82 -16.5 -165.5t-53 -150.5t-96 -109t-146.5 -42zM275 94q68 0 103.5 51.5t50.5 144.5l20 117q6 40 6 76q0 57 -24 89t-77 32q-68 0 -103.5 -51.5
t-50.5 -144.5l-20 -117q-6 -41 -6 -76q0 -57 24 -89t77 -32z" />
    <glyph glyph-name="P" unicode="P" 
d="M40 0l116 698h252q46 0 80.5 -13t57.5 -37t34.5 -57t11.5 -72q0 -58 -17 -104.5t-48.5 -79t-76 -50t-100.5 -17.5h-137l-45 -268h-128zM230 374h107q100 0 115 89l5 31q1 5 1.5 13.5t0.5 16.5q0 36 -20.5 52.5t-65.5 16.5h-106z" />
    <glyph glyph-name="Q" unicode="Q" 
d="M400 -198q-34 0 -53.5 16t-35.5 39l-91 135q-91 15 -133.5 80t-42.5 171q0 82 16.5 165.5t53.5 150.5t96.5 109t145.5 42q119 0 174 -67.5t55 -187.5q0 -73 -13 -147t-41.5 -137.5t-74 -110t-111.5 -63.5l59 -90l15 -4l90 86l66 -59l-51 -55q-20 -22 -36 -36t-30.5 -22.5
t-28 -11.5t-29.5 -3zM275 94q68 0 103.5 51.5t50.5 144.5l20 117q6 40 6 76q0 57 -24 89t-77 32q-68 0 -103.5 -51.5t-50.5 -144.5l-20 -117q-6 -41 -6 -76q0 -57 24 -89t77 -32z" />
    <glyph glyph-name="R" unicode="R" 
d="M167 0h-128l116 698h252q92 0 138 -49t46 -130q0 -97 -47 -158t-132 -78l104 -283h-136l-89 272h-79zM336 374q53 0 79.5 20t34.5 65l5 30q2 7 2.5 16.5t0.5 17.5q0 35 -21.5 52.5t-62.5 17.5h-108l-37 -219h107z" />
    <glyph glyph-name="S" unicode="S" 
d="M267 -12q-88 0 -153.5 30t-97.5 82l84 80q31 -43 77 -64t98 -21q65 0 99.5 30.5t34.5 84.5q0 38 -20.5 57.5t-68.5 30.5l-71 16q-78 17 -113.5 62.5t-35.5 111.5q0 51 18.5 92t53 70t83 44.5t108.5 15.5q81 0 140 -28.5t88 -74.5l-86 -76q-25 35 -61.5 54.5t-86.5 19.5
q-61 0 -93 -28t-32 -76q0 -35 21.5 -53.5t71.5 -30.5l68 -17q78 -20 113.5 -63t35.5 -112q0 -53 -18.5 -96.5t-54 -74.5t-86.5 -48.5t-116 -17.5z" />
    <glyph glyph-name="T" unicode="T" 
d="M419 591l-98 -591h-128l98 591h-211l18 107h551l-18 -107h-212z" />
    <glyph glyph-name="U" unicode="U" 
d="M264 698l-70 -421q-5 -32 -8.5 -59t-3.5 -44q0 -37 20.5 -58.5t73.5 -21.5q37 0 60 11.5t37 33t22 52t14 68.5l73 439h128l-70 -421q-12 -69 -27.5 -122.5t-44.5 -90.5t-75.5 -56.5t-120.5 -19.5q-61 0 -102 13t-66.5 36.5t-36.5 57t-11 74.5q0 28 4 61.5t10 70.5l66 397
h128z" />
    <glyph glyph-name="V" unicode="V" 
d="M166 0l-74 698h135l29 -350l17 -224h8l91 224l142 350h139l-305 -698h-182z" />
    <glyph glyph-name="W" unicode="W" 
d="M21 0l70 698h111l-44 -404l-19 -174h9l137 417h123l2 -417h9l34 161l94 417h107l-163 -698h-169l6 396h-9l-129 -396h-169z" />
    <glyph glyph-name="X" unicode="X" 
d="M545 0h-142l-54 140l-44 121h-7l-82 -121l-101 -140h-143l266 360l-138 338h143l46 -118l42 -120h6l82 120l86 118h143l-249 -341z" />
    <glyph glyph-name="Y" unicode="Y" 
d="M194 0l42 254l-154 444h137l55 -170l39 -144h8l89 144l109 170h145l-299 -440l-43 -258h-128z" />
    <glyph glyph-name="Z" unicode="Z" 
d="M507 0h-500l19 115l417 476h-325l18 107h475l-19 -115l-417 -476h350z" />
    <glyph glyph-name="bracketleft" unicode="[" 
d="M130 -138l150 898h308l-14 -87h-205l-121 -724h205l-15 -87h-308z" />
    <glyph glyph-name="backslash" unicode="\" 
d="M344 -138l-177 898h103l177 -898h-103z" />
    <glyph glyph-name="bracketright" unicode="]" 
d="M482 760l-150 -898h-308l14 87h205l121 724h-205l15 87h308z" />
    <glyph glyph-name="asciicircum" unicode="^" 
d="M473 267l-115 315h-9l-212 -316l-94 48l259 384h136l137 -389z" />
    <glyph glyph-name="underscore" unicode="_" 
d="M-8 -185l18 106h475l-18 -106h-475z" />
    <glyph glyph-name="grave" unicode="`" 
d="M194 749l109 49l70 -190l-77 -33z" />
    <glyph glyph-name="a" unicode="a" 
d="M189 -12q-76 0 -111 52.5t-35 152.5q0 67 15.5 128t45 107t73 73t100.5 27t89 -27.5t46 -78.5h5l16 94h126l-70 -420h58l-16 -96h-70q-54 0 -79.5 27t-17.5 76l3 19h-4q-15 -30 -31.5 -54.5t-37 -42t-46.5 -27.5t-59 -10zM244 88q52 0 94 51q14 17 29.5 44.5t20.5 59.5
l15 94q7 40 -14 65.5t-72 25.5q-60 0 -90.5 -36t-40.5 -97l-11 -66q-2 -9 -3 -20t-1 -25q0 -43 17 -69.5t56 -26.5z" />
    <glyph glyph-name="b" unicode="b" 
d="M154 740h126l-58 -346h5q15 30 31.5 54.5t37.5 42t47.5 27.5t59.5 10q80 0 117 -53.5t37 -146.5q0 -69 -15.5 -131t-46 -108.5t-75.5 -73.5t-103 -27q-60 0 -93 27.5t-46 78.5h-6l-15 -94h-126zM277 88q61 0 94 36t43 97l11 66q2 9 3 20.5t1 23.5q0 43 -18.5 70t-61.5 27
q-29 0 -52.5 -13t-44.5 -38q-14 -17 -29 -43.5t-21 -60.5l-15 -94q-8 -43 15.5 -67t74.5 -24z" />
    <glyph glyph-name="c" unicode="c" 
d="M272 -12q-103 0 -156.5 58t-53.5 160q0 68 19.5 127t55.5 102.5t88 68t117 24.5q87 0 133 -36.5t61 -92.5l-103 -47q-12 37 -34 55t-67 18q-50 0 -83 -31.5t-44 -95.5l-10 -60q-2 -11 -3 -23.5t-1 -23.5q0 -48 24.5 -74t76.5 -26q16 0 31.5 3.5t33 15.5t39 34.5
t49.5 60.5l81 -51q-26 -40 -52 -71t-56 -52t-65.5 -32t-80.5 -11z" />
    <glyph glyph-name="d" unicode="d" 
d="M377 122h-4q-15 -30 -31.5 -54.5t-37.5 -42t-47.5 -27.5t-59.5 -10q-80 0 -117 53.5t-37 146.5q0 69 15.5 131t46 108.5t75.5 73.5t103 27q60 0 93 -27.5t46 -78.5h5l53 318h126l-123 -740h-126zM251 88q29 0 52.5 13t44.5 38q14 17 28.5 42.5t20.5 59.5l16 96
q8 43 -15.5 67t-74.5 24q-61 0 -94 -36t-43 -97l-11 -66q-2 -9 -3 -20.5t-1 -23.5q0 -43 18.5 -70t61.5 -27z" />
    <glyph glyph-name="e" unicode="e" 
d="M280 -12q-110 0 -164.5 57.5t-54.5 163.5q0 71 21.5 130t60.5 101t94 65t122 23q39 0 72.5 -9t59 -26.5t40 -44t14.5 -61.5q0 -30 -13 -60.5t-51 -55.5t-108.5 -42.5t-184.5 -21.5q-1 -6 -1 -10.5v-7.5q0 -46 23.5 -74t84.5 -28q24 0 43 4.5t36.5 16t35 29.5t37.5 45
l80 -51q-21 -31 -44.5 -57.5t-53 -45.5t-66 -29.5t-83.5 -10.5zM347 436q-57 0 -94.5 -32.5t-52.5 -106.5l-3 -15q77 4 121.5 14t67.5 23t29.5 28.5t6.5 29.5q0 27 -17.5 43t-57.5 16z" />
    <glyph glyph-name="f" unicode="f" 
d="M181 -212q-24 0 -44 8t-38.5 23.5t-37.5 38.5t-41 52l-47 61l86 63l118 -144l14 4l86 522h-168l17 100h168l14 87q10 59 50.5 98t114.5 39h177l-17 -100h-193l-20 -124h193l-17 -100h-193l-81 -486q-24 -142 -141 -142z" />
    <glyph glyph-name="g" unicode="g" 
d="M220 -212q-69 0 -117.5 16t-84.5 58l77 79q23 -28 54 -40.5t69 -12.5q30 0 53.5 6.5t41.5 24t31 47t21 75.5l17 101h-5q-14 -30 -30.5 -55t-37.5 -43t-47 -27.5t-60 -9.5q-41 0 -70.5 14.5t-48.5 40.5t-28 63t-9 81q0 64 15 122.5t45 103t74 70.5t102 26q61 0 95 -27.5
t46 -78.5h5l16 94h126l-81 -489q-21 -124 -90.5 -181.5t-178.5 -57.5zM255 108q29 0 52 12.5t44 36.5q13 15 29 40.5t22 63.5l13 76q7 42 -16 66.5t-75 24.5q-61 0 -93.5 -36.5t-43.5 -96.5l-8 -46q-2 -10 -3 -22t-1 -26q0 -42 19 -67.5t61 -25.5z" />
    <glyph glyph-name="h" unicode="h" 
d="M158 740h126l-57 -346h5q28 61 67.5 97.5t101.5 36.5q36 0 62.5 -11.5t43.5 -31.5t25.5 -47.5t8.5 -58.5q0 -37 -10 -96l-47 -283h-126l49 295q2 14 4.5 30t2.5 32q0 28 -15 50t-52 22q-29 0 -50 -13.5t-40 -36.5q-11 -14 -28 -42.5t-23 -64.5l-45 -272h-126z" />
    <glyph glyph-name="i" unicode="i" 
d="M340 598q-42 0 -58.5 16t-16.5 39q0 5 1 13t3 22q5 29 24.5 45.5t61.5 16.5t58.5 -16t16.5 -39q0 -5 -1 -13t-3 -22q-5 -29 -24.5 -45.5t-61.5 -16.5zM290 -12q-54 0 -82 28.5t-28 76.5q0 14 2 29t7 39l49 255h-166l17 100h293l-81 -422l19 -6l157 151l70 -63l-70 -74
q-56 -60 -98.5 -87t-88.5 -27z" />
    <glyph glyph-name="j" unicode="j" 
d="M234 -212q-26 0 -46.5 8.5t-40 25.5t-40 43t-45.5 62l-42 56l86 63l127 -159l14 5l87 524h-196l17 100h322l-96 -574q-13 -78 -48 -116t-99 -38zM432 598q-42 0 -58.5 16t-16.5 39q0 5 1 13t3 22q5 29 24.5 45.5t61.5 16.5t58.5 -16t16.5 -39q0 -5 -1 -13t-3 -22
q-5 -29 -24.5 -45.5t-61.5 -16.5z" />
    <glyph glyph-name="k" unicode="k" 
d="M158 740h126l-58 -346h6q26 58 69 96t108 38q63 0 99 -35t36 -89q0 -64 -43.5 -111.5t-143.5 -76.5l51 -123l14 -2l97 92l62 -62l-57 -60q-35 -36 -66.5 -54.5t-68.5 -18.5q-41 0 -65 23t-41 67l-59 149q100 28 146.5 61t46.5 81q0 28 -18.5 45t-53.5 17
q-25 0 -46.5 -11.5t-43.5 -39.5q-17 -21 -30 -47t-19 -62l-45 -271h-126z" />
    <glyph glyph-name="l" unicode="l" 
d="M264 -12q-56 0 -82 29t-26 77q0 14 1.5 28t6.5 37l90 481h-161l17 100h289l-122 -646l18 -6l159 152l70 -63l-74 -77q-57 -60 -99 -86t-87 -26z" />
    <glyph glyph-name="m" unicode="m" 
d="M-5 0l86 516h104l-15 -87h6q18 44 45 71.5t69 27.5q41 0 62 -26.5t16 -74.5h5q19 45 48 73t76 28q88 0 88 -97q0 -16 -2 -37t-5 -39l-59 -355h-104l57 344q5 25 5 46q0 44 -33 44q-14 0 -27 -7.5t-26 -27.5q-11 -18 -18 -37t-10 -36l-54 -326h-104l57 344q5 25 5 46
q0 44 -33 44q-14 0 -27 -7.5t-26 -27.5q-11 -18 -18 -37t-10 -36l-54 -326h-104z" />
    <glyph glyph-name="n" unicode="n" 
d="M35 0l86 516h126l-20 -122h5q28 61 67.5 97.5t101.5 36.5q36 0 62.5 -11.5t43.5 -31.5t25.5 -47.5t8.5 -58.5q0 -37 -10 -96l-47 -283h-126l49 295q2 14 4.5 30t2.5 32q0 28 -15 50t-52 22q-29 0 -50 -13.5t-40 -36.5q-11 -14 -28 -42.5t-23 -64.5l-45 -272h-126z" />
    <glyph glyph-name="o" unicode="o" 
d="M265 -12q-51 0 -91.5 15.5t-68 44.5t-42 70t-14.5 91q0 74 21 133t59 100.5t90.5 63.5t115.5 22q51 0 91.5 -15.5t68 -44.5t42 -70t14.5 -91q0 -74 -21 -133t-59 -100.5t-90.5 -63.5t-115.5 -22zM274 85q56 0 89.5 33.5t44.5 95.5l12 71q2 12 3.5 24t1.5 21
q0 51 -26.5 76t-72.5 25q-56 0 -89.5 -33.5t-44.5 -95.5l-12 -71q-2 -12 -3.5 -24t-1.5 -21q0 -51 26.5 -76t72.5 -25z" />
    <glyph glyph-name="p" unicode="p" 
d="M117 516h126l-21 -122h5q15 30 31.5 54.5t37.5 42t47.5 27.5t59.5 10q80 0 117 -53.5t37 -146.5q0 -69 -15.5 -131t-46 -108.5t-75.5 -73.5t-103 -27q-60 0 -93 27.5t-46 78.5h-6l-49 -294h-126zM277 88q61 0 94 36t43 97l10 62q2 9 3.5 22.5t1.5 25.5q0 43 -18.5 70
t-61.5 27q-29 0 -52.5 -13t-44.5 -38q-14 -17 -29 -43.5t-21 -60.5l-15 -94q-8 -43 15.5 -67t74.5 -24z" />
    <glyph glyph-name="q" unicode="q" 
d="M377 122h-4q-15 -30 -31.5 -54.5t-37.5 -42t-47.5 -27.5t-59.5 -10q-80 0 -117 53.5t-37 146.5q0 69 15.5 131t46 108.5t75.5 73.5t103 27q60 0 93 -27.5t46 -78.5h5l16 94h126l-119 -716h-126zM251 88q29 0 52.5 13t44.5 38q14 17 29 43.5t21 60.5l15 94q8 43 -15.5 67
t-74.5 24q-61 0 -94 -36t-43 -97l-11 -66q-2 -9 -3 -20.5t-1 -23.5q0 -43 18.5 -70t61.5 -27z" />
    <glyph glyph-name="r" unicode="r" 
d="M156 0l69 416h-126l17 100h252l-26 -151h6q31 71 77.5 111t122.5 40h47l-21 -126h-91q-42 0 -68 -11.5t-46 -35.5q-10 -12 -25.5 -38t-20.5 -58l-41 -247h-126z" />
    <glyph glyph-name="s" unicode="s" 
d="M261 -12q-77 0 -133 23t-85 65l75 70q24 -32 63 -49t89 -17q52 0 82 18t30 52q0 26 -16.5 36t-42.5 15l-74 15q-29 6 -55 15.5t-45.5 25t-31 39.5t-11.5 59q0 43 17.5 75t48.5 54t73 33t91 11q69 0 121.5 -20t79.5 -55l-72 -72q-17 22 -50.5 38.5t-83.5 16.5
q-48 0 -74.5 -17t-26.5 -49q0 -26 16.5 -36t42.5 -15l76 -16q30 -6 56 -15.5t45 -25t30 -38.5t11 -57q0 -42 -17.5 -75t-49.5 -56.5t-77.5 -35.5t-101.5 -12z" />
    <glyph glyph-name="t" unicode="t" 
d="M266 -12q-57 0 -84 30.5t-27 81.5q0 11 2 25t5 32l43 259h-137l17 100h89q30 0 45.5 12t20.5 44l21 126h117l-30 -182h205l-17 -100h-205l-52 -316l20 -8l176 131l62 -73l-76 -60q-33 -26 -59 -45.5t-48.5 -32t-43.5 -18.5t-44 -6z" />
    <glyph glyph-name="u" unicode="u" 
d="M373 122h-5q-29 -62 -68 -98t-101 -36q-36 0 -62.5 11.5t-43.5 31.5t-25.5 47t-8.5 59q0 37 10 96l47 283h126l-49 -295q-2 -14 -4.5 -30t-2.5 -32q0 -28 15 -50t52 -22q29 0 50 13.5t40 36.5q11 14 28 42.5t23 64.5l45 272h126l-86 -516h-126z" />
    <glyph glyph-name="v" unicode="v" 
d="M279 516l-66 -430l13 -8q52 14 89 42.5t61 66t35 81.5t11 89q0 34 -8.5 67t-23.5 62l114 40q23 -31 34 -74t11 -94q0 -77 -28.5 -144.5t-76 -117.5t-109.5 -78.5t-128 -28.5q-57 0 -84.5 29t-27.5 79q0 27 6 65l39 254h-95l17 100h217z" />
    <glyph glyph-name="w" unicode="w" 
d="M116 -11q-49 0 -71.5 29t-22.5 77q0 14 2 39t6 48l56 334h100l-55 -330q-2 -11 -4 -26.5t-2 -26.5q0 -42 36 -42q17 0 30 11t25 29q9 13 14.5 32.5t8.5 37.5l53 315h99l-56 -337q-2 -11 -3.5 -25.5t-1.5 -22.5q0 -19 7.5 -30.5t26.5 -11.5q21 0 40.5 23.5t34.5 62.5
t24 89t9 103q0 35 -5 70t-15 59l91 27q14 -28 23 -67.5t9 -88.5q0 -90 -22.5 -167.5t-62.5 -129.5q-30 -40 -68.5 -60.5t-80.5 -20.5q-51 0 -73 29.5t-19 78.5h-6q-20 -53 -51 -80.5t-76 -27.5z" />
    <glyph glyph-name="x" unicode="x" 
d="M106 -12q-51 0 -79 34t-28 100q0 16 0.5 28t2.5 24l103 11q-1 -9 -1 -16v-9q0 -42 8 -60.5t31 -18.5q30 0 50 32.5t31.5 78t16 93.5t4.5 80q0 17 -1.5 33.5t-3.5 30.5l-13 6l-139 -93l-52 71l70 52q38 28 71.5 45.5t68.5 17.5q30 0 49 -12t30 -33t15.5 -50t4.5 -64h7
q20 86 56 122.5t87 36.5t79 -34t28 -100q0 -16 -0.5 -28t-2.5 -24l-103 -11q1 9 1 16v9q0 42 -8 60.5t-31 18.5q-20 0 -35.5 -15t-27 -40t-19 -55.5t-12 -62.5t-6.5 -61t-2 -50t1 -34.5t6 -29.5l12 -6l139 96l52 -68l-50 -44q-49 -43 -87 -60t-71 -17q-54 0 -78 42t-24 117
h-7q-20 -86 -56 -122.5t-87 -36.5z" />
    <glyph glyph-name="y" unicode="y" 
d="M214 -212q-69 0 -118 16t-84 58l77 79q23 -28 54 -40.5t69 -12.5q30 0 54.5 7t43 24.5t31 47.5t19.5 75l16 97h-5q-14 -31 -30.5 -56t-37 -42.5t-45.5 -27t-56 -9.5q-36 0 -62.5 11.5t-43.5 31.5t-25.5 47t-8.5 59q0 20 2 41t7 53l45 269h126l-47 -280q-2 -14 -4 -29
t-2 -31q0 -28 15 -50t52 -22q29 0 50 13t40 36q11 14 27.5 42.5t22.5 64.5l43 256h126l-82 -491q-20 -123 -89.5 -180t-179.5 -57z" />
    <glyph glyph-name="z" unicode="z" 
d="M417 -11q-32 0 -65.5 7t-72.5 24l-124 54l-5 -3l-12 -71h-111l18 107l331 277q-38 25 -66.5 35t-59.5 10q-72 0 -72 -89h-95v10q0 86 43 132t118 46q45 0 92.5 -17.5t102.5 -64.5l7 -6l6 6l12 70h111l-18 -107l-334 -279l214 -43l11 12l-31 102l77 32l15 -31
q14 -29 21.5 -52.5t7.5 -46.5q0 -22 -8.5 -42.5t-24 -36.5t-38 -25.5t-50.5 -9.5z" />
    <glyph glyph-name="braceleft" unicode="{" 
d="M263 -138q-53 0 -74.5 21.5t-21.5 54.5q0 12 3.5 34t6.5 39q5 26 13.5 45.5t19 35t21.5 27.5t22 23q26 26 34 41.5t8 30.5q0 54 -101 54h-91l14 86h91q60 0 91 18t31 52q0 14 -4 26.5t-14 29.5q-12 20 -24 42t-12 56q0 11 3.5 36t6.5 47q7 44 38 71.5t90 27.5h175
l-14 -87h-186q-7 -38 -9.5 -57.5t-2.5 -26.5q0 -25 7 -40.5t18 -33.5q11 -19 21 -40t10 -47q0 -47 -32.5 -76.5t-98.5 -37.5l-2 -7q50 -5 74.5 -27.5t24.5 -57.5q0 -36 -20 -62.5t-45 -52.5q-19 -20 -34 -41t-22 -60l-10 -57h186l-15 -87h-176z" />
    <glyph glyph-name="bar" unicode="|" 
d="M181 -138l150 898h107l-150 -898h-107z" />
    <glyph glyph-name="braceright" unicode="}" 
d="M355 760q53 0 74.5 -21.5t21.5 -54.5q0 -12 -3.5 -34t-6.5 -39q-5 -26 -13.5 -45.5t-19 -35t-22 -27.5t-21.5 -23q-26 -26 -34 -41.5t-8 -30.5q0 -54 101 -54h91l-14 -86h-91q-60 0 -91 -18t-31 -52q0 -14 4 -26.5t14 -29.5q12 -20 24 -42t12 -56q0 -11 -3.5 -36
t-6.5 -47q-7 -44 -38 -71.5t-90 -27.5h-175l14 87h186q7 38 9.5 57.5t2.5 26.5q0 25 -7 40.5t-18 33.5q-11 19 -21 40t-10 47q0 47 32.5 76.5t98.5 37.5l2 7q-50 5 -74.5 27.5t-24.5 57.5q0 36 20 62.5t45 52.5q19 20 34 41t22 60l10 57h-186l15 87h176z" />
    <glyph glyph-name="asciitilde" unicode="~" 
d="M395 180q-37 0 -66 16t-54 55q-21 32 -34 51.5t-35 19.5q-25 0 -47 -32.5t-42 -98.5l-90 20q29 112 77.5 165t109.5 53q37 0 66 -16t54 -55q21 -32 34 -51.5t35 -19.5q25 0 47 32.5t42 98.5l90 -20q-29 -112 -77.5 -165t-109.5 -53z" />
    <glyph glyph-name="uni00A0" unicode="&#xa0;" 
 />
    <glyph glyph-name="exclamdown" unicode="&#xa1;" 
d="M155 -182l34 205l89 253h46l4 -253l-34 -205h-139zM318 356q-44 0 -63 16.5t-19 40.5q0 6 1 15t5 29q5 29 27 49.5t70 20.5q44 0 63 -16.5t19 -40.5q0 -6 -1 -15t-5 -29q-5 -29 -27 -49.5t-70 -20.5z" />
    <glyph glyph-name="cent" unicode="&#xa2;" 
d="M219 -7q-77 16 -117 71t-40 142q0 64 17 119.5t49 98t77.5 69.5t102.5 33l17 104h97l-18 -108q60 -11 94 -43.5t47 -77.5l-98 -40q-9 26 -24 42.5t-41 23.5l-57 -340q24 6 51.5 28t69.5 77l77 -46q-43 -69 -90.5 -108.5t-117.5 -47.5l-17 -104h-97zM184 191q0 -78 59 -99
l56 336q-40 -10 -66 -42.5t-34 -86.5l-10 -59q-2 -14 -3.5 -26t-1.5 -23z" />
    <glyph glyph-name="sterling" unicode="&#xa3;" 
d="M469 -12q-32 0 -68.5 9t-77.5 23l-174 57l-12 -77h-113l20 123q51 22 82 56.5t31 94.5v13t-1 12h-105l15 91h75q-4 18 -6.5 38t-2.5 40q0 53 19.5 97.5t54 76.5t81.5 50t101 18q82 0 133.5 -37t77.5 -95l-101 -58q-16 36 -43 58t-72 22q-57 0 -91 -35.5t-34 -104.5
q0 -19 2 -36t6 -34h178l-15 -91h-146q1 -3 1 -9v-8q0 -42 -24.5 -70t-62.5 -36l-4 -7l264 -70l11 12l-22 101l89 24l11 -32q11 -32 17 -56.5t6 -48.5q0 -22 -6.5 -42t-19.5 -35.5t-31.5 -24.5t-42.5 -9z" />
    <glyph glyph-name="currency" unicode="&#xa4;" 
d="M284 111q-54 0 -92 16l-84 -109l-84 54l91 118q-32 47 -32 115q0 11 1.5 24t3.5 27q8 53 27.5 93.5t48.5 69.5l-48 111l92 50l45 -107q21 8 44 11t48 3q54 0 92 -16l84 109l84 -54l-91 -118q32 -47 32 -115q0 -11 -1.5 -24t-3.5 -27q-8 -53 -27.5 -93.5t-48.5 -69.5
l48 -111l-92 -50l-45 107q-21 -8 -44 -11t-48 -3zM290 204q46 0 78 30t41 86l9 56q3 16 3 33q0 42 -22 63.5t-60 21.5q-46 0 -78 -30t-41 -86l-9 -56q-3 -17 -3 -33q0 -42 22 -63.5t60 -21.5z" />
    <glyph glyph-name="yen" unicode="&#xa5;" 
d="M40 99h174l21 126h-175l17 99h132l-127 374h131l98 -327h7l208 327h140l-252 -374h133l-17 -99h-174l-21 -126h174l-16 -99h-470z" />
    <glyph glyph-name="brokenbar" unicode="&#xa6;" 
d="M271 400l60 360h107l-60 -360h-107zM181 -138l60 360h107l-60 -360h-107z" />
    <glyph glyph-name="section" unicode="&#xa7;" 
d="M459 15q0 -41 -15 -74.5t-43 -58.5t-69 -38.5t-93 -13.5q-55 0 -108.5 16.5t-88.5 51.5l69 78q22 -25 56.5 -38.5t72.5 -13.5q45 0 76 20.5t31 54.5q0 26 -17.5 43t-64.5 33l-68 23q-72 24 -102 58t-30 76q0 59 34 97.5t107 57.5l2 11q-35 26 -50.5 58.5t-15.5 68.5
q0 40 15 74t43 59t69 38.5t93 13.5q55 0 108.5 -16.5t88.5 -51.5l-69 -78q-22 25 -56.5 38.5t-72.5 13.5q-45 0 -76 -20.5t-31 -54.5q0 -26 17.5 -43t64.5 -33l68 -23q72 -24 102 -58t30 -76q0 -59 -34 -97.5t-107 -57.5l-2 -11q35 -26 50.5 -58.5t15.5 -68.5zM422 263
q0 25 -17 47.5t-63 36.5l-70 21q-10 3 -22 8q-38 -22 -54.5 -45.5t-16.5 -53.5q0 -25 17 -47.5t63 -36.5l70 -21q10 -3 22 -8q38 22 54.5 45.5t16.5 53.5z" />
    <glyph glyph-name="dieresis" unicode="&#xa8;" 
d="M214 600q-38 0 -53 14t-15 35q0 5 1 12.5t4 19.5q6 26 22.5 40.5t53.5 14.5q38 0 53 -14t15 -35q0 -5 -1 -12.5t-4 -19.5q-6 -26 -22.5 -40.5t-53.5 -14.5zM423 600q-38 0 -53 14t-15 35q0 5 1 12.5t4 19.5q6 26 22.5 40.5t53.5 14.5q38 0 53 -14t15 -35q0 -5 -1 -12.5
t-4 -19.5q-6 -26 -22.5 -40.5t-53.5 -14.5z" />
    <glyph glyph-name="copyright" unicode="&#xa9;" 
d="M271 18q-57 0 -105 19.5t-82.5 56t-53.5 88.5t-19 118q0 84 26 154t71.5 120t109 78t138.5 28q57 0 104.5 -19.5t82 -56t54 -88.5t19.5 -118q0 -84 -26 -154t-71.5 -120t-109 -78t-138.5 -28zM276 72q52 0 97 17t80 48.5t59 75t33 96.5q7 41 9 59.5t2 29.5
q0 44 -11.5 85.5t-36 73t-63.5 50.5t-94 19q-52 0 -97 -17t-80 -48.5t-59 -75t-33 -96.5q-8 -41 -9.5 -59.5t-1.5 -29.5q0 -44 11.5 -85.5t36 -73t63.5 -50.5t94 -19zM294 159q-72 0 -113 43.5t-41 115.5q0 44 15 84.5t41 71t62.5 48.5t80.5 18q61 0 94 -26.5t46 -71.5
l-81 -36q-5 24 -19.5 38t-42.5 14q-34 0 -54.5 -21t-25.5 -53l-10 -62q-2 -8 -2 -13.5v-10.5q0 -26 14.5 -41.5t43.5 -15.5q27 0 47 14.5t35 37.5l70 -39q-23 -38 -62 -66.5t-98 -28.5z" />
    <glyph glyph-name="ordfeminine" unicode="&#xaa;" 
d="M370 345l10 62h-8q-15 -32 -40.5 -50.5t-63.5 -18.5q-50 0 -79 24t-29 66q0 63 45 93.5t133 30.5h62l3 20q1 6 1.5 11t0.5 10q0 25 -17 37t-46 12q-32 0 -54 -13.5t-39 -33.5l-45 49q20 26 56.5 46t94.5 20q64 0 102.5 -27t38.5 -80q0 -19 -3 -37l-37 -221h-86zM331 498
q-34 0 -54 -10.5t-25 -34.5q-2 -6 -2 -11v-7q0 -17 13.5 -26t37.5 -9q31 0 54.5 14.5t28.5 41.5l7 42h-60z" />
    <glyph glyph-name="guillemotleft" unicode="&#xab;" 
d="M230 47l-172 170l19 114l220 165l32 -83l-159 -146l111 -144zM467 47l-172 170l19 114l220 165l32 -83l-159 -146l111 -144z" />
    <glyph glyph-name="logicalnot" unicode="&#xac;" 
d="M387 62l32 193h-356l16 101h461l-49 -294h-104z" />
    <glyph glyph-name="uni00AD" unicode="&#xad;" 
d="M144 243l20 123h308l-20 -123h-308z" />
    <glyph glyph-name="registered" unicode="&#xae;" 
d="M309 346q-35 0 -65 11.5t-52 32.5t-34 50.5t-12 66.5q0 41 15.5 78t42.5 64.5t64.5 44t82.5 16.5q35 0 65 -11.5t51.5 -32.5t34 -50.5t12.5 -66.5q0 -41 -15.5 -78t-42.5 -65t-64.5 -44t-82.5 -16zM310 386q65 0 103 35t49 89q5 25 5 40q0 52 -28 86t-89 34
q-65 0 -103 -35t-49 -89q-5 -25 -5 -40q0 -52 28 -86t89 -34zM290 439h-50l31 185h90q29 0 43.5 -14t14.5 -37q0 -25 -13 -41.5t-33 -24.5l30 -68h-55l-23 59h-25zM334 535q27 0 30 21q1 5 1 7.5v3.5q0 17 -22 17h-29l-8 -49h28z" />
    <glyph glyph-name="macron" unicode="&#xaf;" 
d="M184 714h297l-16 -91h-296z" />
    <glyph glyph-name="degree" unicode="&#xb0;" 
d="M328 345q-37 0 -68 12t-53 34t-34 52.5t-12 66.5q0 43 16 79.5t43.5 63.5t64.5 42t80 15q37 0 68 -12t53 -34t34 -52.5t12 -66.5q0 -43 -16 -79.5t-43.5 -63.5t-64.5 -42t-80 -15zM334 429q24 0 43.5 9t33.5 24.5t21.5 36.5t7.5 44q0 35 -21.5 59t-59.5 24
q-24 0 -43.5 -9t-33.5 -24.5t-21.5 -36.5t-7.5 -44q0 -35 21.5 -59t59.5 -24z" />
    <glyph glyph-name="plusminus" unicode="&#xb1;" 
d="M232 173l29 178h-182l16 101h183l29 178h110l-29 -178h182l-16 -101h-183l-29 -178h-110zM21 0l16 101h475l-16 -101h-475z" />
    <glyph glyph-name="twosuperior" unicode="&#xb2;" 
d="M450 329h-275l13 77l135 92q23 16 45 33.5t27 44.5q2 10 2 17q0 19 -13.5 28.5t-32.5 9.5q-28 0 -43 -16t-22 -34l-74 28q17 39 51.5 67t92.5 28q28 0 52 -7t42 -20.5t28 -34t10 -46.5q0 -25 -9.5 -45t-26 -38t-38.5 -34t-48 -32l-76 -48h171z" />
    <glyph glyph-name="threesuperior" unicode="&#xb3;" 
d="M330 553q35 0 48.5 11.5t16.5 22.5q2 8 2 16q0 15 -12.5 24t-35.5 9q-22 0 -42 -10.5t-38 -33.5l-49 52q26 28 58 44t80 16q61 0 94 -25.5t33 -67.5q0 -34 -21.5 -58t-64.5 -32v-2q66 -14 66 -79q0 -50 -40 -83.5t-114 -33.5q-58 0 -91 20.5t-47 51.5l61 43
q10 -21 27.5 -34t49.5 -13q52 0 63 42q2 8 2 15q0 36 -55 36h-42l12 69h39z" />
    <glyph glyph-name="acute" unicode="&#xb4;" 
d="M322 575l-74 40l113 183l100 -54z" />
    <glyph glyph-name="mu" unicode="&#xb5;" 
d="M0 -200l119 716h126l-50 -302q-2 -12 -3 -24.5t-1 -23.5q0 -36 17 -57t52 -21q26 0 48.5 12.5t40.5 34.5q11 14 26 40t20 59l47 282h126l-86 -516h-126l20 119h-5q-11 -27 -25 -51t-32.5 -42t-41 -28t-49.5 -10q-25 0 -44 11t-30 39h-5v-126l-18 -112h-126z" />
    <glyph glyph-name="paragraph" unicode="&#xb6;" 
d="M261 246q-40 0 -74.5 13.5t-59.5 38.5t-39.5 61t-14.5 81q0 58 22 105.5t58.5 81.5t84 52.5t98.5 18.5h281l-141 -847h-102l125 749h-77l-125 -749h-102z" />
    <glyph glyph-name="periodcentered" unicode="&#xb7;" 
d="M296 216q-45 0 -64.5 17.5t-19.5 43.5q0 13 6 45q5 32 30.5 53t73.5 21q45 0 64.5 -17.5t19.5 -43.5q0 -14 -6 -45q-5 -32 -30.5 -53t-73.5 -21z" />
    <glyph glyph-name="cedilla" unicode="&#xb8;" 
d="M285 -210q-43 0 -70.5 13t-40.5 31l47 49q8 -10 23 -19t39 -9q20 0 34 7.5t14 23.5q0 11 -12.5 22t-53.5 15l-24 2l38 102h62l-31 -84l3 -4q11 4 21.5 5t18.5 1q27 0 46 -14.5t19 -46.5q0 -23 -10.5 -40.5t-28.5 -29.5t-42 -18t-52 -6z" />
    <glyph glyph-name="onesuperior" unicode="&#xb9;" 
d="M203 329l11 68h89l37 220l-87 -43l-27 62l124 62h89l-50 -301h79l-12 -68h-253z" />
    <glyph glyph-name="ordmasculine" unicode="&#xba;" 
d="M320 338q-72 0 -112 40.5t-40 109.5q0 49 14.5 90t40.5 70.5t63.5 45.5t84.5 16q72 0 112 -40.5t40 -109.5q0 -50 -14.5 -90.5t-40.5 -70t-64 -45.5t-84 -16zM330 407q37 0 60 24t30 62l10 60q1 6 1.5 11.5t0.5 10.5q0 31 -18 48.5t-53 17.5q-37 0 -60 -24t-30 -62
l-10 -60q-1 -6 -1.5 -11.5t-0.5 -10.5q0 -31 18 -48.5t53 -17.5z" />
    <glyph glyph-name="guillemotright" unicode="&#xbb;" 
d="M36 130l159 146l-111 144l51 76l172 -170l-19 -114l-220 -165zM273 130l159 146l-111 144l51 76l172 -170l-19 -114l-220 -165z" />
    <glyph glyph-name="onequarter" unicode="&#xbc;" 
d="M435 64h-157l11 69l167 202h100l-36 -215h45l-9 -56h-45l-10 -64h-77zM444 120l24 140h-5l-115 -140h96zM67 426h87l34 203l-87 -41l-20 56l112 54h86l-45 -272h77l-11 -63h-244zM573 698h96l-219 -300h-96zM182 300h96l-219 -300h-96z" />
    <glyph glyph-name="onehalf" unicode="&#xbd;" 
d="M293 70l122 83q38 26 53.5 43.5t18.5 32.5q1 4 1 8.5v6.5q0 16 -12.5 25t-30.5 9q-23 0 -39 -14t-28 -37l-63 28q17 36 49.5 61t88.5 25q58 0 88 -27t30 -65q0 -25 -11 -45t-28 -37t-38.5 -31.5t-42.5 -27.5l-71 -46h168l-10 -62h-257zM67 426h87l34 203l-87 -41l-20 56
l112 54h86l-45 -272h77l-11 -63h-244zM573 698h96l-219 -300h-96zM182 300h96l-219 -300h-96z" />
    <glyph glyph-name="threequarters" unicode="&#xbe;" 
d="M435 64h-157l11 69l167 202h100l-36 -215h45l-9 -56h-45l-10 -64h-77zM444 120l24 140h-5l-115 -140h96zM172 357q-54 0 -83.5 20t-43.5 50l57 34q8 -20 24.5 -31.5t46.5 -11.5q27 0 41 10t17 26q2 10 2 18q0 16 -15 25t-41 9h-29l10 58h32q31 0 44.5 10t16.5 24
q2 10 2 15q0 14 -12 22t-34 8t-41.5 -11t-36.5 -30l-42 45q27 26 57.5 41.5t73.5 15.5q56 0 88 -22.5t32 -59.5q0 -34 -24 -56.5t-61 -27.5v-4q32 -3 48.5 -22t16.5 -47q0 -48 -40 -78t-106 -30zM573 698h96l-219 -300h-96zM182 300h96l-219 -300h-96z" />
    <glyph glyph-name="questiondown" unicode="&#xbf;" 
d="M242 -194q-98 0 -153.5 48.5t-55.5 133.5q0 48 18 86t48 66t69 45t81 23l13 80h125l-25 -154q-89 -6 -134.5 -31t-56.5 -86q-2 -7 -2 -14v-12q0 -37 26 -57t65 -20q45 0 75 26t47 69l101 -46q-13 -32 -33.5 -60.5t-50.5 -50t-69 -34t-88 -12.5zM337 356q-44 0 -63 16.5
t-19 40.5q0 6 1 15t5 29q5 29 27 49.5t70 20.5q44 0 63 -16.5t19 -40.5q0 -6 -1 -15t-5 -29q-5 -29 -27 -49.5t-70 -20.5z" />
    <glyph glyph-name="Agrave" unicode="&#xc0;" 
d="M412 0l-18 178h-212l-76 -178h-135l314 698h178l82 -698h-133zM359 572h-9l-124 -288h160zM263 919l109 49l70 -190l-77 -33z" />
    <glyph glyph-name="Aacute" unicode="&#xc1;" 
d="M412 0l-18 178h-212l-76 -178h-135l314 698h178l82 -698h-133zM359 572h-9l-124 -288h160zM391 745l-74 40l113 183l100 -54z" />
    <glyph glyph-name="Acircumflex" unicode="&#xc2;" 
d="M412 0l-18 178h-212l-76 -178h-135l314 698h178l82 -698h-133zM359 572h-9l-124 -288h160zM468 949l102 -155l-68 -48l-102 116l-135 -116l-61 50l148 153h116z" />
    <glyph glyph-name="Atilde" unicode="&#xc3;" 
d="M412 0l-18 178h-212l-76 -178h-135l314 698h178l82 -698h-133zM359 572h-9l-124 -288h160zM465 768q-24 0 -41 7t-34 16q-18 10 -35.5 16.5t-35.5 6.5q-17 0 -31 -6.5t-32 -20.5l-36 59q20 26 49.5 43.5t66.5 17.5q24 0 41 -7t34 -16q18 -10 35.5 -16.5t35.5 -6.5
q17 0 31 6.5t32 20.5l36 -59q-20 -26 -49.5 -43.5t-66.5 -17.5z" />
    <glyph glyph-name="Adieresis" unicode="&#xc4;" 
d="M412 0l-18 178h-212l-76 -178h-135l314 698h178l82 -698h-133zM359 572h-9l-124 -288h160zM283 770q-38 0 -53 14t-15 35q0 5 1 12.5t4 19.5q6 26 22.5 40.5t53.5 14.5q38 0 53 -14t15 -35q0 -5 -1 -12.5t-4 -19.5q-6 -26 -22.5 -40.5t-53.5 -14.5zM492 770q-38 0 -53 14
t-15 35q0 5 1 12.5t4 19.5q6 26 22.5 40.5t53.5 14.5q38 0 53 -14t15 -35q0 -5 -1 -12.5t-4 -19.5q-6 -26 -22.5 -40.5t-53.5 -14.5z" />
    <glyph glyph-name="Aring" unicode="&#xc5;" 
d="M412 0l-18 178h-212l-76 -178h-135l314 698h178l82 -698h-133zM359 572h-9l-124 -288h160zM379 728q-26 0 -48 9t-38.5 24.5t-25.5 37t-9 46.5q0 33 12.5 60.5t34 47.5t50 31t60.5 11q26 0 48 -9t38.5 -25t25.5 -37t9 -46q0 -33 -12.5 -60.5t-34 -47.5t-50 -31t-60.5 -11
zM387 794q52 0 61 53q5 28 5 41q0 41 -46 41q-52 0 -61 -53q-5 -28 -5 -41q0 -41 46 -41z" />
    <glyph glyph-name="AE" unicode="&#xc6;" 
d="M305 179h-117l-71 -179h-126l289 698h390l-16 -98h-159l-33 -198h148l-16 -98h-148l-35 -206h159l-16 -98h-278zM353 608l-128 -332h97l55 332h-24z" />
    <glyph glyph-name="Ccedilla" unicode="&#xc7;" 
d="M372 604q-68 0 -106 -52.5t-53 -144.5l-18 -105q-3 -21 -5.5 -40t-2.5 -42q0 -58 26 -92t86 -34q52 0 84.5 34t58.5 90l109 -36q-38 -86 -92.5 -136t-139.5 -57l-17 -46l3 -4q11 4 21.5 5t18.5 1q28 0 46.5 -15t18.5 -44q0 -24 -10.5 -42t-28.5 -30t-42.5 -18t-52.5 -6
q-42 0 -69.5 13t-40.5 31l47 49q8 -10 23 -19t38 -9q21 0 35 7.5t14 23.5q0 11 -13 21.5t-53 15.5l-24 2l23 64q-102 11 -150 78t-48 183q0 99 22 183.5t63 146t101 96t135 34.5q55 0 94.5 -14.5t66 -40.5t40.5 -61t17 -75l-122 -28q-3 24 -8.5 45t-17 36t-30.5 23.5
t-47 8.5z" />
    <glyph glyph-name="Egrave" unicode="&#xc8;" 
d="M266 919l109 49l70 -190l-77 -33zM40 0l116 698h441l-18 -107h-313l-30 -184h300l-18 -107h-300l-32 -193h313l-18 -107h-441z" />
    <glyph glyph-name="Eacute" unicode="&#xc9;" 
d="M40 0l116 698h441l-18 -107h-313l-30 -184h300l-18 -107h-300l-32 -193h313l-18 -107h-441zM394 745l-74 40l113 183l100 -54z" />
    <glyph glyph-name="Ecircumflex" unicode="&#xca;" 
d="M471 949l102 -155l-68 -48l-102 116l-135 -116l-61 50l148 153h116zM40 0l116 698h441l-18 -107h-313l-30 -184h300l-18 -107h-300l-32 -193h313l-18 -107h-441z" />
    <glyph glyph-name="Edieresis" unicode="&#xcb;" 
d="M40 0l116 698h441l-18 -107h-313l-30 -184h300l-18 -107h-300l-32 -193h313l-18 -107h-441zM286 770q-38 0 -53 14t-15 35q0 5 1 12.5t4 19.5q6 26 22.5 40.5t53.5 14.5q38 0 53 -14t15 -35q0 -5 -1 -12.5t-4 -19.5q-6 -26 -22.5 -40.5t-53.5 -14.5zM495 770
q-38 0 -53 14t-15 35q0 5 1 12.5t4 19.5q6 26 22.5 40.5t53.5 14.5q38 0 53 -14t15 -35q0 -5 -1 -12.5t-4 -19.5q-6 -26 -22.5 -40.5t-53.5 -14.5z" />
    <glyph glyph-name="Igrave" unicode="&#xcc;" 
d="M35 0l16 97h158l84 504h-158l16 97h444l-16 -97h-158l-84 -504h158l-16 -97h-444zM264 919l109 49l70 -190l-77 -33z" />
    <glyph glyph-name="Iacute" unicode="&#xcd;" 
d="M35 0l16 97h158l84 504h-158l16 97h444l-16 -97h-158l-84 -504h158l-16 -97h-444zM392 745l-74 40l113 183l100 -54z" />
    <glyph glyph-name="Icircumflex" unicode="&#xce;" 
d="M35 0l16 97h158l84 504h-158l16 97h444l-16 -97h-158l-84 -504h158l-16 -97h-444zM469 949l102 -155l-68 -48l-102 116l-135 -116l-61 50l148 153h116z" />
    <glyph glyph-name="Idieresis" unicode="&#xcf;" 
d="M35 0l16 97h158l84 504h-158l16 97h444l-16 -97h-158l-84 -504h158l-16 -97h-444zM284 770q-38 0 -53 14t-15 35q0 5 1 12.5t4 19.5q6 26 22.5 40.5t53.5 14.5q38 0 53 -14t15 -35q0 -5 -1 -12.5t-4 -19.5q-6 -26 -22.5 -40.5t-53.5 -14.5zM493 770q-38 0 -53 14t-15 35
q0 5 1 12.5t4 19.5q6 26 22.5 40.5t53.5 14.5q38 0 53 -14t15 -35q0 -5 -1 -12.5t-4 -19.5q-6 -26 -22.5 -40.5t-53.5 -14.5z" />
    <glyph glyph-name="Eth" unicode="&#xd0;" 
d="M87 320h-64l16 97h64l47 281h196q115 0 175 -65.5t60 -181.5q0 -109 -22 -193t-64 -141.5t-103.5 -87t-140.5 -29.5h-217zM255 104q72 0 114 43.5t57 131.5l20 117q3 18 4.5 37.5t1.5 36.5q0 124 -119 124h-72l-30 -181h118l-15 -90h-118l-37 -219h76z" />
    <glyph glyph-name="Ntilde" unicode="&#xd1;" 
d="M467 768q-24 0 -41 7t-34 16q-18 10 -35.5 16.5t-35.5 6.5q-17 0 -31 -6.5t-32 -20.5l-36 59q20 26 49.5 43.5t66.5 17.5q24 0 41 -7t34 -16q18 -10 35.5 -16.5t35.5 -6.5q17 0 31 6.5t32 20.5l36 -59q-20 -26 -49.5 -43.5t-66.5 -17.5zM232 508h-9l-84 -508h-113
l116 698h160l98 -508h9l84 508h113l-116 -698h-160z" />
    <glyph glyph-name="Ograve" unicode="&#xd2;" 
d="M252 919l109 49l70 -190l-77 -33zM273 -12q-119 0 -174 67.5t-55 187.5q0 82 16.5 165.5t53 150.5t96 109t146.5 42q119 0 174 -67.5t55 -187.5q0 -82 -16.5 -165.5t-53 -150.5t-96 -109t-146.5 -42zM275 94q68 0 103.5 51.5t50.5 144.5l20 117q6 40 6 76q0 57 -24 89
t-77 32q-68 0 -103.5 -51.5t-50.5 -144.5l-20 -117q-6 -41 -6 -76q0 -57 24 -89t77 -32z" />
    <glyph glyph-name="Oacute" unicode="&#xd3;" 
d="M380 745l-74 40l113 183l100 -54zM273 -12q-119 0 -174 67.5t-55 187.5q0 82 16.5 165.5t53 150.5t96 109t146.5 42q119 0 174 -67.5t55 -187.5q0 -82 -16.5 -165.5t-53 -150.5t-96 -109t-146.5 -42zM275 94q68 0 103.5 51.5t50.5 144.5l20 117q6 40 6 76q0 57 -24 89
t-77 32q-68 0 -103.5 -51.5t-50.5 -144.5l-20 -117q-6 -41 -6 -76q0 -57 24 -89t77 -32z" />
    <glyph glyph-name="Ocircumflex" unicode="&#xd4;" 
d="M457 949l102 -155l-68 -48l-102 116l-135 -116l-61 50l148 153h116zM273 -12q-119 0 -174 67.5t-55 187.5q0 82 16.5 165.5t53 150.5t96 109t146.5 42q119 0 174 -67.5t55 -187.5q0 -82 -16.5 -165.5t-53 -150.5t-96 -109t-146.5 -42zM275 94q68 0 103.5 51.5t50.5 144.5
l20 117q6 40 6 76q0 57 -24 89t-77 32q-68 0 -103.5 -51.5t-50.5 -144.5l-20 -117q-6 -41 -6 -76q0 -57 24 -89t77 -32z" />
    <glyph glyph-name="Otilde" unicode="&#xd5;" 
d="M273 -12q-119 0 -174 67.5t-55 187.5q0 82 16.5 165.5t53 150.5t96 109t146.5 42q119 0 174 -67.5t55 -187.5q0 -82 -16.5 -165.5t-53 -150.5t-96 -109t-146.5 -42zM275 94q68 0 103.5 51.5t50.5 144.5l20 117q6 40 6 76q0 57 -24 89t-77 32q-68 0 -103.5 -51.5
t-50.5 -144.5l-20 -117q-6 -41 -6 -76q0 -57 24 -89t77 -32zM454 768q-24 0 -41 7t-34 16q-18 10 -35.5 16.5t-35.5 6.5q-17 0 -31 -6.5t-32 -20.5l-36 59q20 26 49.5 43.5t66.5 17.5q24 0 41 -7t34 -16q18 -10 35.5 -16.5t35.5 -6.5q17 0 31 6.5t32 20.5l36 -59
q-20 -26 -49.5 -43.5t-66.5 -17.5z" />
    <glyph glyph-name="Odieresis" unicode="&#xd6;" 
d="M273 -12q-119 0 -174 67.5t-55 187.5q0 82 16.5 165.5t53 150.5t96 109t146.5 42q119 0 174 -67.5t55 -187.5q0 -82 -16.5 -165.5t-53 -150.5t-96 -109t-146.5 -42zM275 94q68 0 103.5 51.5t50.5 144.5l20 117q6 40 6 76q0 57 -24 89t-77 32q-68 0 -103.5 -51.5
t-50.5 -144.5l-20 -117q-6 -41 -6 -76q0 -57 24 -89t77 -32zM272 770q-38 0 -53 14t-15 35q0 5 1 12.5t4 19.5q6 26 22.5 40.5t53.5 14.5q38 0 53 -14t15 -35q0 -5 -1 -12.5t-4 -19.5q-6 -26 -22.5 -40.5t-53.5 -14.5zM481 770q-38 0 -53 14t-15 35q0 5 1 12.5t4 19.5
q6 26 22.5 40.5t53.5 14.5q38 0 53 -14t15 -35q0 -5 -1 -12.5t-4 -19.5q-6 -26 -22.5 -40.5t-53.5 -14.5z" />
    <glyph glyph-name="multiply" unicode="&#xd7;" 
d="M300 232l-176 -150l-66 76l178 152l-124 150l82 69l124 -150l176 150l66 -76l-178 -152l124 -150l-82 -69z" />
    <glyph glyph-name="Oslash" unicode="&#xd8;" 
d="M273 -12q-90 0 -145 41l-65 -87l-79 51l85 111q-14 28 -19.5 63t-5.5 76q0 82 16.5 165.5t53 150.5t96 109t146.5 42q90 0 145 -41l65 87l79 -51l-85 -111q14 -28 19.5 -63t5.5 -76q0 -82 -16.5 -165.5t-53 -150.5t-96 -109t-146.5 -42zM179 301q-4 -21 -5.5 -37.5
t-1.5 -29.5v-5l261 343q-25 33 -79 33q-68 0 -104.5 -51t-52.5 -144zM275 93q68 0 104.5 51t52.5 144l18 109q4 21 5.5 37.5t1.5 29.5v5l-261 -343q25 -33 79 -33z" />
    <glyph glyph-name="Ugrave" unicode="&#xd9;" 
d="M261 919l109 49l70 -190l-77 -33zM264 698l-70 -421q-5 -32 -8.5 -59t-3.5 -44q0 -37 20.5 -58.5t73.5 -21.5q37 0 60 11.5t37 33t22 52t14 68.5l73 439h128l-70 -421q-12 -69 -27.5 -122.5t-44.5 -90.5t-75.5 -56.5t-120.5 -19.5q-61 0 -102 13t-66.5 36.5t-36.5 57
t-11 74.5q0 28 4 61.5t10 70.5l66 397h128z" />
    <glyph glyph-name="Uacute" unicode="&#xda;" 
d="M264 698l-70 -421q-5 -32 -8.5 -59t-3.5 -44q0 -37 20.5 -58.5t73.5 -21.5q37 0 60 11.5t37 33t22 52t14 68.5l73 439h128l-70 -421q-12 -69 -27.5 -122.5t-44.5 -90.5t-75.5 -56.5t-120.5 -19.5q-61 0 -102 13t-66.5 36.5t-36.5 57t-11 74.5q0 28 4 61.5t10 70.5l66 397
h128zM389 745l-74 40l113 183l100 -54z" />
    <glyph glyph-name="Ucircumflex" unicode="&#xdb;" 
d="M466 949l102 -155l-68 -48l-102 116l-135 -116l-61 50l148 153h116zM264 698l-70 -421q-5 -32 -8.5 -59t-3.5 -44q0 -37 20.5 -58.5t73.5 -21.5q37 0 60 11.5t37 33t22 52t14 68.5l73 439h128l-70 -421q-12 -69 -27.5 -122.5t-44.5 -90.5t-75.5 -56.5t-120.5 -19.5
q-61 0 -102 13t-66.5 36.5t-36.5 57t-11 74.5q0 28 4 61.5t10 70.5l66 397h128z" />
    <glyph glyph-name="Udieresis" unicode="&#xdc;" 
d="M264 698l-70 -421q-5 -32 -8.5 -59t-3.5 -44q0 -37 20.5 -58.5t73.5 -21.5q37 0 60 11.5t37 33t22 52t14 68.5l73 439h128l-70 -421q-12 -69 -27.5 -122.5t-44.5 -90.5t-75.5 -56.5t-120.5 -19.5q-61 0 -102 13t-66.5 36.5t-36.5 57t-11 74.5q0 28 4 61.5t10 70.5l66 397
h128zM281 770q-38 0 -53 14t-15 35q0 5 1 12.5t4 19.5q6 26 22.5 40.5t53.5 14.5q38 0 53 -14t15 -35q0 -5 -1 -12.5t-4 -19.5q-6 -26 -22.5 -40.5t-53.5 -14.5zM490 770q-38 0 -53 14t-15 35q0 5 1 12.5t4 19.5q6 26 22.5 40.5t53.5 14.5q38 0 53 -14t15 -35q0 -5 -1 -12.5
t-4 -19.5q-6 -26 -22.5 -40.5t-53.5 -14.5z" />
    <glyph glyph-name="Yacute" unicode="&#xdd;" 
d="M194 0l42 254l-154 444h137l55 -170l39 -144h8l89 144l109 170h145l-299 -440l-43 -258h-128zM385 745l-74 40l113 183l100 -54z" />
    <glyph glyph-name="Thorn" unicode="&#xde;" 
d="M38 0l116 698h128l-21 -128h123q46 0 80.5 -13t57.5 -37t34.5 -57t11.5 -72q0 -58 -17 -104.5t-48.5 -79t-76.5 -50t-101 -17.5h-136l-23 -140h-128zM207 246h105q52 0 79 19t35 64l6 36q1 5 2 14t1 17q0 36 -21 52.5t-66 16.5h-105z" />
    <glyph glyph-name="germandbls" unicode="&#xdf;" 
d="M30 0l100 603q11 66 52 101.5t110 35.5h139l-16 -99h-154l-21 -125h332l-17 -97l-180 -210q73 -12 114 -53t41 -113q0 -58 -21 -103.5t-59 -76.5t-93 -47t-122 -16h-70l16 99h61q69 0 107.5 24t47.5 80q4 23 4.5 32t0.5 14q0 43 -32.5 61t-99.5 18h-22l17 99l163 190
h-205l-69 -417h-124z" />
    <glyph glyph-name="agrave" unicode="&#xe0;" 
d="M189 -12q-76 0 -111 52.5t-35 152.5q0 67 15.5 128t45 107t73 73t100.5 27t89 -27.5t46 -78.5h5l16 94h126l-70 -420h58l-16 -96h-70q-54 0 -79.5 27t-17.5 76l3 19h-4q-15 -30 -31.5 -54.5t-37 -42t-46.5 -27.5t-59 -10zM244 88q52 0 94 51q14 17 29.5 44.5t20.5 59.5
l15 94q7 40 -14 65.5t-72 25.5q-60 0 -90.5 -36t-40.5 -97l-11 -66q-2 -9 -3 -20t-1 -25q0 -43 17 -69.5t56 -26.5zM217 749l109 49l70 -190l-77 -33z" />
    <glyph glyph-name="aacute" unicode="&#xe1;" 
d="M189 -12q-76 0 -111 52.5t-35 152.5q0 67 15.5 128t45 107t73 73t100.5 27t89 -27.5t46 -78.5h5l16 94h126l-70 -420h58l-16 -96h-70q-54 0 -79.5 27t-17.5 76l3 19h-4q-15 -30 -31.5 -54.5t-37 -42t-46.5 -27.5t-59 -10zM244 88q52 0 94 51q14 17 29.5 44.5t20.5 59.5
l15 94q7 40 -14 65.5t-72 25.5q-60 0 -90.5 -36t-40.5 -97l-11 -66q-2 -9 -3 -20t-1 -25q0 -43 17 -69.5t56 -26.5zM345 575l-74 40l113 183l100 -54z" />
    <glyph glyph-name="acircumflex" unicode="&#xe2;" 
d="M189 -12q-76 0 -111 52.5t-35 152.5q0 67 15.5 128t45 107t73 73t100.5 27t89 -27.5t46 -78.5h5l16 94h126l-70 -420h58l-16 -96h-70q-54 0 -79.5 27t-17.5 76l3 19h-4q-15 -30 -31.5 -54.5t-37 -42t-46.5 -27.5t-59 -10zM244 88q52 0 94 51q14 17 29.5 44.5t20.5 59.5
l15 94q7 40 -14 65.5t-72 25.5q-60 0 -90.5 -36t-40.5 -97l-11 -66q-2 -9 -3 -20t-1 -25q0 -43 17 -69.5t56 -26.5zM422 779l102 -155l-68 -48l-102 116l-135 -116l-61 50l148 153h116z" />
    <glyph glyph-name="atilde" unicode="&#xe3;" 
d="M189 -12q-76 0 -111 52.5t-35 152.5q0 67 15.5 128t45 107t73 73t100.5 27t89 -27.5t46 -78.5h5l16 94h126l-70 -420h58l-16 -96h-70q-54 0 -79.5 27t-17.5 76l3 19h-4q-15 -30 -31.5 -54.5t-37 -42t-46.5 -27.5t-59 -10zM244 88q52 0 94 51q14 17 29.5 44.5t20.5 59.5
l15 94q7 40 -14 65.5t-72 25.5q-60 0 -90.5 -36t-40.5 -97l-11 -66q-2 -9 -3 -20t-1 -25q0 -43 17 -69.5t56 -26.5zM413 598q-24 0 -41 7t-34 16q-18 10 -35.5 16.5t-35.5 6.5q-17 0 -31 -6.5t-32 -20.5l-36 59q20 26 49.5 43.5t66.5 17.5q24 0 41 -7t34 -16
q18 -10 35.5 -16.5t35.5 -6.5q17 0 31 6.5t32 20.5l36 -59q-20 -26 -49.5 -43.5t-66.5 -17.5z" />
    <glyph glyph-name="adieresis" unicode="&#xe4;" 
d="M189 -12q-76 0 -111 52.5t-35 152.5q0 67 15.5 128t45 107t73 73t100.5 27t89 -27.5t46 -78.5h5l16 94h126l-70 -420h58l-16 -96h-70q-54 0 -79.5 27t-17.5 76l3 19h-4q-15 -30 -31.5 -54.5t-37 -42t-46.5 -27.5t-59 -10zM244 88q52 0 94 51q14 17 29.5 44.5t20.5 59.5
l15 94q7 40 -14 65.5t-72 25.5q-60 0 -90.5 -36t-40.5 -97l-11 -66q-2 -9 -3 -20t-1 -25q0 -43 17 -69.5t56 -26.5zM237 600q-38 0 -53 14t-15 35q0 5 1 12.5t4 19.5q6 26 22.5 40.5t53.5 14.5q38 0 53 -14t15 -35q0 -5 -1 -12.5t-4 -19.5q-6 -26 -22.5 -40.5t-53.5 -14.5z
M446 600q-38 0 -53 14t-15 35q0 5 1 12.5t4 19.5q6 26 22.5 40.5t53.5 14.5q38 0 53 -14t15 -35q0 -5 -1 -12.5t-4 -19.5q-6 -26 -22.5 -40.5t-53.5 -14.5z" />
    <glyph glyph-name="aring" unicode="&#xe5;" 
d="M189 -12q-76 0 -111 52.5t-35 152.5q0 67 15.5 128t45 107t73 73t100.5 27t89 -27.5t46 -78.5h5l16 94h126l-70 -420h58l-16 -96h-70q-54 0 -79.5 27t-17.5 76l3 19h-4q-15 -30 -31.5 -54.5t-37 -42t-46.5 -27.5t-59 -10zM244 88q52 0 94 51q14 17 29.5 44.5t20.5 59.5
l15 94q7 40 -14 65.5t-72 25.5q-60 0 -90.5 -36t-40.5 -97l-11 -66q-2 -9 -3 -20t-1 -25q0 -43 17 -69.5t56 -26.5zM333 558q-26 0 -48 9t-38.5 24.5t-25.5 37t-9 46.5q0 33 12.5 60.5t34 47.5t50 31t60.5 11q26 0 48 -9t38.5 -25t25.5 -37t9 -46q0 -33 -12.5 -60.5
t-34 -47.5t-50 -31t-60.5 -11zM341 624q52 0 61 53q5 28 5 41q0 41 -46 41q-52 0 -61 -53q-5 -28 -5 -41q0 -41 46 -41z" />
    <glyph glyph-name="ae" unicode="&#xe6;" 
d="M113 -12q-52 0 -85 32.5t-33 98.5q0 84 55 131t154 49l47 1l7 46q2 11 3 19.5t1 15.5q0 33 -15 49.5t-42 16.5q-31 0 -52 -19.5t-38 -54.5l-69 43q27 58 67 85t97 27q51 0 81.5 -21.5t34.5 -63.5h4q21 38 55.5 61.5t83.5 23.5q60 0 95 -35.5t35 -94.5q0 -28 -10.5 -57
t-39 -53.5t-78.5 -40.5t-129 -18l-2 -13q-2 -14 -3 -28t-1 -24q0 -43 15.5 -67t46.5 -24t49.5 22.5t33.5 56.5l80 -35q-26 -60 -66.5 -94.5t-103.5 -34.5q-55 0 -94 29t-45 93h-5q-29 -122 -134 -122zM143 68q33 0 55.5 26.5t30.5 75.5l10 60l-37 -1q-45 -2 -73 -18.5
t-35 -57.5q-2 -14 -2.5 -22t-0.5 -11q0 -26 14.5 -39t37.5 -13zM456 448q-38 0 -63.5 -37.5t-36.5 -99.5l-2 -12q43 1 72 9.5t47 21.5t25.5 29.5t7.5 35.5q0 53 -50 53z" />
    <glyph glyph-name="ccedilla" unicode="&#xe7;" 
d="M342 528q87 0 133 -36.5t61 -92.5l-103 -47q-12 37 -34 55t-67 18q-50 0 -83 -32t-44 -95l-10 -60q-2 -11 -3 -23.5t-1 -23.5q0 -48 24.5 -74t76.5 -26q16 0 31.5 3.5t33 15.5t39 34.5t49.5 60.5l81 -51q-23 -37 -47 -66t-51 -50t-58 -33.5t-68 -15.5l-17 -46l3 -4
q11 4 21.5 5t18.5 1q28 0 46.5 -15t18.5 -44q0 -24 -10.5 -42t-28.5 -30t-42.5 -18t-52.5 -6q-42 0 -69.5 13t-40.5 31l47 49q8 -10 23 -19t38 -9q21 0 35 7.5t14 23.5q0 11 -13 22.5t-53 14.5l-24 2l24 65q-88 9 -133 65.5t-45 150.5q0 68 19.5 127t55.5 102.5t88 68
t117 24.5z" />
    <glyph glyph-name="egrave" unicode="&#xe8;" 
d="M280 -12q-110 0 -164.5 57.5t-54.5 163.5q0 71 21.5 130t60.5 101t94 65t122 23q39 0 72.5 -9t59 -26.5t40 -44t14.5 -61.5q0 -30 -13 -60.5t-51 -55.5t-108.5 -42.5t-184.5 -21.5q-1 -6 -1 -10.5v-7.5q0 -46 23.5 -74t84.5 -28q24 0 43 4.5t36.5 16t35 29.5t37.5 45
l80 -51q-21 -31 -44.5 -57.5t-53 -45.5t-66 -29.5t-83.5 -10.5zM347 436q-57 0 -94.5 -32.5t-52.5 -106.5l-3 -15q77 4 121.5 14t67.5 23t29.5 28.5t6.5 29.5q0 27 -17.5 43t-57.5 16zM240 749l109 49l70 -190l-77 -33z" />
    <glyph glyph-name="eacute" unicode="&#xe9;" 
d="M368 575l-74 40l113 183l100 -54zM280 -12q-110 0 -164.5 57.5t-54.5 163.5q0 71 21.5 130t60.5 101t94 65t122 23q39 0 72.5 -9t59 -26.5t40 -44t14.5 -61.5q0 -30 -13 -60.5t-51 -55.5t-108.5 -42.5t-184.5 -21.5q-1 -6 -1 -10.5v-7.5q0 -46 23.5 -74t84.5 -28
q24 0 43 4.5t36.5 16t35 29.5t37.5 45l80 -51q-21 -31 -44.5 -57.5t-53 -45.5t-66 -29.5t-83.5 -10.5zM347 436q-57 0 -94.5 -32.5t-52.5 -106.5l-3 -15q77 4 121.5 14t67.5 23t29.5 28.5t6.5 29.5q0 27 -17.5 43t-57.5 16z" />
    <glyph glyph-name="ecircumflex" unicode="&#xea;" 
d="M445 779l102 -155l-68 -48l-102 116l-135 -116l-61 50l148 153h116zM280 -12q-110 0 -164.5 57.5t-54.5 163.5q0 71 21.5 130t60.5 101t94 65t122 23q39 0 72.5 -9t59 -26.5t40 -44t14.5 -61.5q0 -30 -13 -60.5t-51 -55.5t-108.5 -42.5t-184.5 -21.5q-1 -6 -1 -10.5v-7.5
q0 -46 23.5 -74t84.5 -28q24 0 43 4.5t36.5 16t35 29.5t37.5 45l80 -51q-21 -31 -44.5 -57.5t-53 -45.5t-66 -29.5t-83.5 -10.5zM347 436q-57 0 -94.5 -32.5t-52.5 -106.5l-3 -15q77 4 121.5 14t67.5 23t29.5 28.5t6.5 29.5q0 27 -17.5 43t-57.5 16z" />
    <glyph glyph-name="edieresis" unicode="&#xeb;" 
d="M260 600q-38 0 -53 14t-15 35q0 5 1 12.5t4 19.5q6 26 22.5 40.5t53.5 14.5q38 0 53 -14t15 -35q0 -5 -1 -12.5t-4 -19.5q-6 -26 -22.5 -40.5t-53.5 -14.5zM469 600q-38 0 -53 14t-15 35q0 5 1 12.5t4 19.5q6 26 22.5 40.5t53.5 14.5q38 0 53 -14t15 -35q0 -5 -1 -12.5
t-4 -19.5q-6 -26 -22.5 -40.5t-53.5 -14.5zM280 -12q-110 0 -164.5 57.5t-54.5 163.5q0 71 21.5 130t60.5 101t94 65t122 23q39 0 72.5 -9t59 -26.5t40 -44t14.5 -61.5q0 -30 -13 -60.5t-51 -55.5t-108.5 -42.5t-184.5 -21.5q-1 -6 -1 -10.5v-7.5q0 -46 23.5 -74t84.5 -28
q24 0 43 4.5t36.5 16t35 29.5t37.5 45l80 -51q-21 -31 -44.5 -57.5t-53 -45.5t-66 -29.5t-83.5 -10.5zM347 436q-57 0 -94.5 -32.5t-52.5 -106.5l-3 -15q77 4 121.5 14t67.5 23t29.5 28.5t6.5 29.5q0 27 -17.5 43t-57.5 16z" />
    <glyph glyph-name="igrave" unicode="&#xec;" 
d="M290 -12q-54 0 -82 28.5t-28 76.5q0 14 2 29t7 39l49 255h-166l17 100h293l-81 -422l19 -6l157 151l70 -63l-70 -74q-56 -60 -98.5 -87t-88.5 -27zM210 749l109 49l70 -190l-77 -33z" />
    <glyph glyph-name="iacute" unicode="&#xed;" 
d="M338 575l-74 40l113 183l100 -54zM290 -12q-54 0 -82 28.5t-28 76.5q0 14 2 29t7 39l49 255h-166l17 100h293l-81 -422l19 -6l157 151l70 -63l-70 -74q-56 -60 -98.5 -87t-88.5 -27z" />
    <glyph glyph-name="icircumflex" unicode="&#xee;" 
d="M415 779l102 -155l-68 -48l-102 116l-135 -116l-61 50l148 153h116zM290 -12q-54 0 -82 28.5t-28 76.5q0 14 2 29t7 39l49 255h-166l17 100h293l-81 -422l19 -6l157 151l70 -63l-70 -74q-56 -60 -98.5 -87t-88.5 -27z" />
    <glyph glyph-name="idieresis" unicode="&#xef;" 
d="M230 600q-38 0 -53 14t-15 35q0 5 1 12.5t4 19.5q6 26 22.5 40.5t53.5 14.5q38 0 53 -14t15 -35q0 -5 -1 -12.5t-4 -19.5q-6 -26 -22.5 -40.5t-53.5 -14.5zM439 600q-38 0 -53 14t-15 35q0 5 1 12.5t4 19.5q6 26 22.5 40.5t53.5 14.5q38 0 53 -14t15 -35q0 -5 -1 -12.5
t-4 -19.5q-6 -26 -22.5 -40.5t-53.5 -14.5zM290 -12q-54 0 -82 28.5t-28 76.5q0 14 2 29t7 39l49 255h-166l17 100h293l-81 -422l19 -6l157 151l70 -63l-70 -74q-56 -60 -98.5 -87t-88.5 -27z" />
    <glyph glyph-name="eth" unicode="&#xf0;" 
d="M458 647q44 -54 72.5 -128.5t28.5 -170.5q0 -90 -22 -157.5t-61.5 -112.5t-95.5 -67.5t-124 -22.5q-103 0 -159.5 58t-56.5 156q0 64 19 119t52.5 95t79.5 62.5t100 22.5q55 0 91 -25t53 -69l7 3q-7 47 -29.5 92.5t-57.5 87.5l-103 -58l-38 56l93 52q-62 57 -140 100h194
q12 -10 24.5 -20t25.5 -23l98 56l37 -56zM271 85q57 0 93.5 33.5t47.5 96.5l9 54q2 12 3 21t1 17q0 48 -28 72t-76 24q-57 0 -93.5 -33.5t-47.5 -96.5l-9 -54q-2 -12 -3 -21t-1 -17q0 -48 28 -72t76 -24z" />
    <glyph glyph-name="ntilde" unicode="&#xf1;" 
d="M35 0l86 516h126l-20 -122h5q28 61 67.5 97.5t101.5 36.5q36 0 62.5 -11.5t43.5 -31.5t25.5 -47.5t8.5 -58.5q0 -37 -10 -96l-47 -283h-126l49 295q2 14 4.5 30t2.5 32q0 28 -15 50t-52 22q-29 0 -50 -13.5t-40 -36.5q-11 -14 -28 -42.5t-23 -64.5l-45 -272h-126z
M423 598q-24 0 -41 7t-34 16q-18 10 -35.5 16.5t-35.5 6.5q-17 0 -31 -6.5t-32 -20.5l-36 59q20 26 49.5 43.5t66.5 17.5q24 0 41 -7t34 -16q18 -10 35.5 -16.5t35.5 -6.5q17 0 31 6.5t32 20.5l36 -59q-20 -26 -49.5 -43.5t-66.5 -17.5z" />
    <glyph glyph-name="ograve" unicode="&#xf2;" 
d="M265 -12q-51 0 -91.5 15.5t-68 44.5t-42 70t-14.5 91q0 74 21 133t59 100.5t90.5 63.5t115.5 22q51 0 91.5 -15.5t68 -44.5t42 -70t14.5 -91q0 -74 -21 -133t-59 -100.5t-90.5 -63.5t-115.5 -22zM274 85q56 0 89.5 33.5t44.5 95.5l12 71q2 12 3.5 24t1.5 21
q0 51 -26.5 76t-72.5 25q-56 0 -89.5 -33.5t-44.5 -95.5l-12 -71q-2 -12 -3.5 -24t-1.5 -21q0 -51 26.5 -76t72.5 -25zM237 749l109 49l70 -190l-77 -33z" />
    <glyph glyph-name="oacute" unicode="&#xf3;" 
d="M365 575l-74 40l113 183l100 -54zM265 -12q-51 0 -91.5 15.5t-68 44.5t-42 70t-14.5 91q0 74 21 133t59 100.5t90.5 63.5t115.5 22q51 0 91.5 -15.5t68 -44.5t42 -70t14.5 -91q0 -74 -21 -133t-59 -100.5t-90.5 -63.5t-115.5 -22zM274 85q56 0 89.5 33.5t44.5 95.5l12 71
q2 12 3.5 24t1.5 21q0 51 -26.5 76t-72.5 25q-56 0 -89.5 -33.5t-44.5 -95.5l-12 -71q-2 -12 -3.5 -24t-1.5 -21q0 -51 26.5 -76t72.5 -25z" />
    <glyph glyph-name="ocircumflex" unicode="&#xf4;" 
d="M442 779l102 -155l-68 -48l-102 116l-135 -116l-61 50l148 153h116zM265 -12q-51 0 -91.5 15.5t-68 44.5t-42 70t-14.5 91q0 74 21 133t59 100.5t90.5 63.5t115.5 22q51 0 91.5 -15.5t68 -44.5t42 -70t14.5 -91q0 -74 -21 -133t-59 -100.5t-90.5 -63.5t-115.5 -22z
M274 85q56 0 89.5 33.5t44.5 95.5l12 71q2 12 3.5 24t1.5 21q0 51 -26.5 76t-72.5 25q-56 0 -89.5 -33.5t-44.5 -95.5l-12 -71q-2 -12 -3.5 -24t-1.5 -21q0 -51 26.5 -76t72.5 -25z" />
    <glyph glyph-name="otilde" unicode="&#xf5;" 
d="M265 -12q-51 0 -91.5 15.5t-68 44.5t-42 70t-14.5 91q0 74 21 133t59 100.5t90.5 63.5t115.5 22q51 0 91.5 -15.5t68 -44.5t42 -70t14.5 -91q0 -74 -21 -133t-59 -100.5t-90.5 -63.5t-115.5 -22zM274 85q56 0 89.5 33.5t44.5 95.5l12 71q2 12 3.5 24t1.5 21
q0 51 -26.5 76t-72.5 25q-56 0 -89.5 -33.5t-44.5 -95.5l-12 -71q-2 -12 -3.5 -24t-1.5 -21q0 -51 26.5 -76t72.5 -25zM433 598q-24 0 -41 7t-34 16q-18 10 -35.5 16.5t-35.5 6.5q-17 0 -31 -6.5t-32 -20.5l-36 59q20 26 49.5 43.5t66.5 17.5q24 0 41 -7t34 -16
q18 -10 35.5 -16.5t35.5 -6.5q17 0 31 6.5t32 20.5l36 -59q-20 -26 -49.5 -43.5t-66.5 -17.5z" />
    <glyph glyph-name="odieresis" unicode="&#xf6;" 
d="M257 600q-38 0 -53 14t-15 35q0 5 1 12.5t4 19.5q6 26 22.5 40.5t53.5 14.5q38 0 53 -14t15 -35q0 -5 -1 -12.5t-4 -19.5q-6 -26 -22.5 -40.5t-53.5 -14.5zM466 600q-38 0 -53 14t-15 35q0 5 1 12.5t4 19.5q6 26 22.5 40.5t53.5 14.5q38 0 53 -14t15 -35q0 -5 -1 -12.5
t-4 -19.5q-6 -26 -22.5 -40.5t-53.5 -14.5zM265 -12q-51 0 -91.5 15.5t-68 44.5t-42 70t-14.5 91q0 74 21 133t59 100.5t90.5 63.5t115.5 22q51 0 91.5 -15.5t68 -44.5t42 -70t14.5 -91q0 -74 -21 -133t-59 -100.5t-90.5 -63.5t-115.5 -22zM274 85q56 0 89.5 33.5t44.5 95.5
l12 71q2 12 3.5 24t1.5 21q0 51 -26.5 76t-72.5 25q-56 0 -89.5 -33.5t-44.5 -95.5l-12 -71q-2 -12 -3.5 -24t-1.5 -21q0 -51 26.5 -76t72.5 -25z" />
    <glyph glyph-name="divide" unicode="&#xf7;" 
d="M63 255l16 101h475l-16 -101h-475zM267 37q-39 0 -55.5 14.5t-16.5 35.5q0 6 1 15t3 20q5 27 24.5 44.5t61.5 17.5q39 0 55.5 -14.5t16.5 -35.5q0 -6 -1 -15t-3 -20q-5 -27 -24.5 -44.5t-61.5 -17.5zM332 427q-39 0 -55.5 14.5t-16.5 35.5q0 6 1 15t3 20q5 27 24.5 44.5
t61.5 17.5q39 0 55.5 -14.5t16.5 -35.5q0 -6 -1 -15t-3 -20q-5 -27 -24.5 -44.5t-61.5 -17.5z" />
    <glyph glyph-name="oslash" unicode="&#xf8;" 
d="M-10 2l86 88q-13 25 -20 54.5t-7 64.5q0 74 21 133t59 100.5t90.5 63.5t115.5 22q82 0 137 -41l77 80l61 -53l-86 -88q13 -25 20 -54.5t7 -64.5q0 -74 -21 -133t-59 -100.5t-90.5 -63.5t-115.5 -22q-82 0 -137 41l-77 -80zM326 431q-56 0 -90 -33.5t-44 -94.5l-12 -72
q-2 -10 -3.5 -22.5t-1.5 -18.5v-6l219 226q-24 21 -68 21zM274 85q57 0 90.5 33.5t43.5 94.5l12 72q2 11 3.5 23t1.5 18v6l-219 -226q24 -21 68 -21z" />
    <glyph glyph-name="ugrave" unicode="&#xf9;" 
d="M373 122h-5q-29 -62 -68 -98t-101 -36q-36 0 -62.5 11.5t-43.5 31.5t-25.5 47t-8.5 59q0 37 10 96l47 283h126l-49 -295q-2 -14 -4.5 -30t-2.5 -32q0 -28 15 -50t52 -22q29 0 50 13.5t40 36.5q11 14 28 42.5t23 64.5l45 272h126l-86 -516h-126zM232 749l109 49l70 -190
l-77 -33z" />
    <glyph glyph-name="uacute" unicode="&#xfa;" 
d="M360 575l-74 40l113 183l100 -54zM373 122h-5q-29 -62 -68 -98t-101 -36q-36 0 -62.5 11.5t-43.5 31.5t-25.5 47t-8.5 59q0 37 10 96l47 283h126l-49 -295q-2 -14 -4.5 -30t-2.5 -32q0 -28 15 -50t52 -22q29 0 50 13.5t40 36.5q11 14 28 42.5t23 64.5l45 272h126
l-86 -516h-126z" />
    <glyph glyph-name="ucircumflex" unicode="&#xfb;" 
d="M437 779l102 -155l-68 -48l-102 116l-135 -116l-61 50l148 153h116zM373 122h-5q-29 -62 -68 -98t-101 -36q-36 0 -62.5 11.5t-43.5 31.5t-25.5 47t-8.5 59q0 37 10 96l47 283h126l-49 -295q-2 -14 -4.5 -30t-2.5 -32q0 -28 15 -50t52 -22q29 0 50 13.5t40 36.5
q11 14 28 42.5t23 64.5l45 272h126l-86 -516h-126z" />
    <glyph glyph-name="udieresis" unicode="&#xfc;" 
d="M252 600q-38 0 -53 14t-15 35q0 5 1 12.5t4 19.5q6 26 22.5 40.5t53.5 14.5q38 0 53 -14t15 -35q0 -5 -1 -12.5t-4 -19.5q-6 -26 -22.5 -40.5t-53.5 -14.5zM461 600q-38 0 -53 14t-15 35q0 5 1 12.5t4 19.5q6 26 22.5 40.5t53.5 14.5q38 0 53 -14t15 -35q0 -5 -1 -12.5
t-4 -19.5q-6 -26 -22.5 -40.5t-53.5 -14.5zM373 122h-5q-29 -62 -68 -98t-101 -36q-36 0 -62.5 11.5t-43.5 31.5t-25.5 47t-8.5 59q0 37 10 96l47 283h126l-49 -295q-2 -14 -4.5 -30t-2.5 -32q0 -28 15 -50t52 -22q29 0 50 13.5t40 36.5q11 14 28 42.5t23 64.5l45 272h126
l-86 -516h-126z" />
    <glyph glyph-name="yacute" unicode="&#xfd;" 
d="M214 -212q-69 0 -118 16t-84 58l77 79q23 -28 54 -40.5t69 -12.5q30 0 54.5 7t43 24.5t31 47.5t19.5 75l16 97h-5q-14 -31 -30.5 -56t-37 -42.5t-45.5 -27t-56 -9.5q-36 0 -62.5 11.5t-43.5 31.5t-25.5 47t-8.5 59q0 20 2 41t7 53l45 269h126l-47 -280q-2 -14 -4 -29
t-2 -31q0 -28 15 -50t52 -22q29 0 50 13t40 36q11 14 27.5 42.5t22.5 64.5l43 256h126l-82 -491q-20 -123 -89.5 -180t-179.5 -57zM369 575l-74 40l113 183l100 -54z" />
    <glyph glyph-name="thorn" unicode="&#xfe;" 
d="M154 740h126l-58 -346h5q15 30 31.5 54.5t37.5 42t47.5 27.5t59.5 10q80 0 117 -53.5t37 -146.5q0 -69 -15.5 -131t-46 -108.5t-75.5 -73.5t-103 -27q-60 0 -93 27.5t-46 78.5h-6l-49 -294h-126zM277 88q61 0 94 36t43 97l10 62q2 9 3.5 22.5t1.5 25.5q0 43 -18.5 70
t-61.5 27q-29 0 -52.5 -13t-44.5 -38q-14 -17 -29 -43.5t-21 -60.5l-15 -94q-8 -43 15.5 -67t74.5 -24z" />
    <glyph glyph-name="ydieresis" unicode="&#xff;" 
d="M214 -212q-69 0 -118 16t-84 58l77 79q23 -28 54 -40.5t69 -12.5q30 0 54.5 7t43 24.5t31 47.5t19.5 75l16 97h-5q-14 -31 -30.5 -56t-37 -42.5t-45.5 -27t-56 -9.5q-36 0 -62.5 11.5t-43.5 31.5t-25.5 47t-8.5 59q0 20 2 41t7 53l45 269h126l-47 -280q-2 -14 -4 -29
t-2 -31q0 -28 15 -50t52 -22q29 0 50 13t40 36q11 14 27.5 42.5t22.5 64.5l43 256h126l-82 -491q-20 -123 -89.5 -180t-179.5 -57zM261 600q-38 0 -53 14t-15 35q0 5 1 12.5t4 19.5q6 26 22.5 40.5t53.5 14.5q38 0 53 -14t15 -35q0 -5 -1 -12.5t-4 -19.5q-6 -26 -22.5 -40.5
t-53.5 -14.5zM470 600q-38 0 -53 14t-15 35q0 5 1 12.5t4 19.5q6 26 22.5 40.5t53.5 14.5q38 0 53 -14t15 -35q0 -5 -1 -12.5t-4 -19.5q-6 -26 -22.5 -40.5t-53.5 -14.5z" />
    <glyph glyph-name="Amacron" unicode="&#x100;" 
d="M412 0l-18 178h-212l-76 -178h-135l314 698h178l82 -698h-133zM359 572h-9l-124 -288h160zM253 884h297l-16 -91h-296z" />
    <glyph glyph-name="amacron" unicode="&#x101;" 
d="M189 -12q-76 0 -111 52.5t-35 152.5q0 67 15.5 128t45 107t73 73t100.5 27t89 -27.5t46 -78.5h5l16 94h126l-70 -420h58l-16 -96h-70q-54 0 -79.5 27t-17.5 76l3 19h-4q-15 -30 -31.5 -54.5t-37 -42t-46.5 -27.5t-59 -10zM244 88q52 0 94 51q14 17 29.5 44.5t20.5 59.5
l15 94q7 40 -14 65.5t-72 25.5q-60 0 -90.5 -36t-40.5 -97l-11 -66q-2 -9 -3 -20t-1 -25q0 -43 17 -69.5t56 -26.5zM207 714h297l-16 -91h-296z" />
    <glyph glyph-name="Abreve" unicode="&#x102;" 
d="M412 0l-18 178h-212l-76 -178h-135l314 698h178l82 -698h-133zM359 572h-9l-124 -288h160zM389 748q-42 0 -70.5 15t-48 38.5t-31 52.5t-17.5 58l71 35l18 -36q18 -35 34.5 -54t48.5 -19q29 0 48.5 18.5t48.5 56.5l26 34l73 -35q-15 -29 -33 -58.5t-42 -53t-55 -38
t-71 -14.5z" />
    <glyph glyph-name="abreve" unicode="&#x103;" 
d="M189 -12q-76 0 -111 52.5t-35 152.5q0 67 15.5 128t45 107t73 73t100.5 27t89 -27.5t46 -78.5h5l16 94h126l-70 -420h58l-16 -96h-70q-54 0 -79.5 27t-17.5 76l3 19h-4q-15 -30 -31.5 -54.5t-37 -42t-46.5 -27.5t-59 -10zM244 88q52 0 94 51q14 17 29.5 44.5t20.5 59.5
l15 94q7 40 -14 65.5t-72 25.5q-60 0 -90.5 -36t-40.5 -97l-11 -66q-2 -9 -3 -20t-1 -25q0 -43 17 -69.5t56 -26.5zM343 578q-42 0 -70.5 15t-48 38.5t-31 52.5t-17.5 58l71 35l18 -36q18 -35 34.5 -54t48.5 -19q29 0 48.5 18.5t48.5 56.5l26 34l73 -35q-15 -29 -33 -58.5
t-42 -53t-55 -38t-71 -14.5z" />
    <glyph glyph-name="Aogonek" unicode="&#x104;" 
d="M285 698h178l82 -698q-40 -24 -63.5 -42t-35.5 -31.5t-15.5 -23t-3.5 -17.5q0 -14 9.5 -22t26.5 -8q15 0 29 6t25 21l50 -45q-17 -20 -45.5 -34t-69.5 -14q-49 0 -81.5 20t-32.5 61q0 39 33 71t102 53v5h-61l-18 178h-212l-76 -178h-135zM359 572h-9l-124 -288h160z" />
    <glyph glyph-name="aogonek" unicode="&#x105;" 
d="M439 -210q-49 0 -82 20t-33 61q0 39 33.5 71t102.5 53l-1 5q-54 0 -78.5 27t-16.5 76l3 19h-4q-15 -30 -31.5 -54.5t-37 -42t-46.5 -27.5t-59 -10q-76 0 -111 52.5t-35 152.5q0 67 15.5 128t45 107t73 73t100.5 27t89 -27.5t46 -78.5h5l16 94h126l-70 -420h58l-16 -96
q-39 -24 -62.5 -42t-35.5 -31.5t-15.5 -23t-3.5 -17.5q0 -14 9.5 -22t27.5 -8q14 0 28 6t25 21l50 -45q-17 -20 -45 -34t-70 -14zM244 88q52 0 94 51q14 17 29.5 44.5t20.5 59.5l15 94q7 40 -14 65.5t-72 25.5q-60 0 -90.5 -36t-40.5 -97l-11 -66q-2 -9 -3 -20t-1 -25
q0 -43 17 -69.5t56 -26.5z" />
    <glyph glyph-name="Cacute" unicode="&#x106;" 
d="M289 -12q-119 0 -175 68.5t-56 193.5q0 99 22 183.5t63 146t101 96t135 34.5q55 0 94.5 -14.5t66 -40.5t40.5 -61t17 -75l-122 -28q-3 24 -8.5 45t-17 36t-30.5 23.5t-47 8.5q-68 0 -105.5 -52.5t-53.5 -144.5l-18 -105q-4 -21 -6 -40t-2 -42q0 -58 26 -92t86 -34
q52 0 84.5 34t58.5 90l109 -36q-20 -47 -45 -83t-56.5 -61t-71.5 -37.5t-89 -12.5zM398 745l-74 40l113 183l100 -54z" />
    <glyph glyph-name="cacute" unicode="&#x107;" 
d="M361 575l-74 40l113 183l100 -54zM272 -12q-103 0 -156.5 58t-53.5 160q0 68 19.5 127t55.5 102.5t88 68t117 24.5q87 0 133 -36.5t61 -92.5l-103 -47q-12 37 -34 55t-67 18q-50 0 -83 -31.5t-44 -95.5l-10 -60q-2 -11 -3 -23.5t-1 -23.5q0 -48 24.5 -74t76.5 -26
q16 0 31.5 3.5t33 15.5t39 34.5t49.5 60.5l81 -51q-26 -40 -52 -71t-56 -52t-65.5 -32t-80.5 -11z" />
    <glyph glyph-name="Ccircumflex" unicode="&#x108;" 
d="M289 -12q-119 0 -175 68.5t-56 193.5q0 99 22 183.5t63 146t101 96t135 34.5q55 0 94.5 -14.5t66 -40.5t40.5 -61t17 -75l-122 -28q-3 24 -8.5 45t-17 36t-30.5 23.5t-47 8.5q-68 0 -105.5 -52.5t-53.5 -144.5l-18 -105q-4 -21 -6 -40t-2 -42q0 -58 26 -92t86 -34
q52 0 84.5 34t58.5 90l109 -36q-20 -47 -45 -83t-56.5 -61t-71.5 -37.5t-89 -12.5zM475 949l102 -155l-68 -48l-102 116l-135 -116l-61 50l148 153h116z" />
    <glyph glyph-name="ccircumflex" unicode="&#x109;" 
d="M438 779l102 -155l-68 -48l-102 116l-135 -116l-61 50l148 153h116zM272 -12q-103 0 -156.5 58t-53.5 160q0 68 19.5 127t55.5 102.5t88 68t117 24.5q87 0 133 -36.5t61 -92.5l-103 -47q-12 37 -34 55t-67 18q-50 0 -83 -31.5t-44 -95.5l-10 -60q-2 -11 -3 -23.5
t-1 -23.5q0 -48 24.5 -74t76.5 -26q16 0 31.5 3.5t33 15.5t39 34.5t49.5 60.5l81 -51q-26 -40 -52 -71t-56 -52t-65.5 -32t-80.5 -11z" />
    <glyph glyph-name="Cdotaccent" unicode="&#x10a;" 
d="M394 762q-42 0 -58.5 16t-16.5 39q0 6 1.5 14t3.5 21q5 29 24 45.5t61 16.5t58.5 -16t16.5 -39q0 -6 -1.5 -14t-3.5 -21q-5 -29 -24 -45.5t-61 -16.5zM289 -12q-119 0 -175 68.5t-56 193.5q0 99 22 183.5t63 146t101 96t135 34.5q55 0 94.5 -14.5t66 -40.5t40.5 -61
t17 -75l-122 -28q-3 24 -8.5 45t-17 36t-30.5 23.5t-47 8.5q-68 0 -105.5 -52.5t-53.5 -144.5l-18 -105q-4 -21 -6 -40t-2 -42q0 -58 26 -92t86 -34q52 0 84.5 34t58.5 90l109 -36q-20 -47 -45 -83t-56.5 -61t-71.5 -37.5t-89 -12.5z" />
    <glyph glyph-name="cdotaccent" unicode="&#x10b;" 
d="M272 -12q-103 0 -156.5 58t-53.5 160q0 68 19.5 127t55.5 102.5t88 68t117 24.5q87 0 133 -36.5t61 -92.5l-103 -47q-12 37 -34 55t-67 18q-50 0 -83 -31.5t-44 -95.5l-10 -60q-2 -11 -3 -23.5t-1 -23.5q0 -48 24.5 -74t76.5 -26q16 0 31.5 3.5t33 15.5t39 34.5
t49.5 60.5l81 -51q-26 -40 -52 -71t-56 -52t-65.5 -32t-80.5 -11zM356 592q-42 0 -58.5 16t-16.5 39q0 6 1.5 14t3.5 21q5 29 24 45.5t61 16.5t58.5 -16t16.5 -39q0 -6 -1.5 -14t-3.5 -21q-5 -29 -24 -45.5t-61 -16.5z" />
    <glyph glyph-name="Ccaron" unicode="&#x10c;" 
d="M289 -12q-119 0 -175 68.5t-56 193.5q0 99 22 183.5t63 146t101 96t135 34.5q55 0 94.5 -14.5t66 -40.5t40.5 -61t17 -75l-122 -28q-3 24 -8.5 45t-17 36t-30.5 23.5t-47 8.5q-68 0 -105.5 -52.5t-53.5 -144.5l-18 -105q-4 -21 -6 -40t-2 -42q0 -58 26 -92t86 -34
q52 0 84.5 34t58.5 90l109 -36q-20 -47 -45 -83t-56.5 -61t-71.5 -37.5t-89 -12.5zM333 755l-102 155l68 48l102 -116l135 116l61 -50l-148 -153h-116z" />
    <glyph glyph-name="ccaron" unicode="&#x10d;" 
d="M295 585l-102 155l68 48l102 -116l135 116l61 -50l-148 -153h-116zM272 -12q-103 0 -156.5 58t-53.5 160q0 68 19.5 127t55.5 102.5t88 68t117 24.5q87 0 133 -36.5t61 -92.5l-103 -47q-12 37 -34 55t-67 18q-50 0 -83 -31.5t-44 -95.5l-10 -60q-2 -11 -3 -23.5t-1 -23.5
q0 -48 24.5 -74t76.5 -26q16 0 31.5 3.5t33 15.5t39 34.5t49.5 60.5l81 -51q-26 -40 -52 -71t-56 -52t-65.5 -32t-80.5 -11z" />
    <glyph glyph-name="Dcaron" unicode="&#x10e;" 
d="M150 698h196q115 0 175 -65.5t60 -181.5q0 -109 -22 -193t-64 -141.5t-103.5 -87t-140.5 -29.5h-217zM255 104q72 0 114 43.5t57 131.5l20 117q3 18 4.5 37.5t1.5 36.5q0 124 -119 124h-72l-82 -490h76zM280 755l-102 155l68 48l102 -116l135 116l61 -50l-148 -153h-116z
" />
    <glyph glyph-name="dcaron" unicode="&#x10f;" 
d="M163 -12q-72 0 -105 53t-33 147q0 69 14 131t40.5 108.5t65.5 73.5t90 27q54 0 82.5 -27.5t40.5 -78.5h5l53 318h121l-123 -740h-121l17 103h-6q-12 -25 -26 -46t-30.5 -36.5t-37 -24t-47.5 -8.5zM216 88q20 0 34.5 7t30.5 23q15 15 29 40.5t19 58.5l20 121q8 44 -13 67
t-60 23q-48 0 -73.5 -36t-35.5 -95l-11 -66q-2 -14 -3.5 -27.5t-1.5 -28.5q0 -39 16.5 -63t48.5 -24zM595 740h121l-86 -203h-71z" />
    <glyph glyph-name="Dcroat" unicode="&#x110;" 
d="M87 320h-64l16 97h64l47 281h196q115 0 175 -65.5t60 -181.5q0 -109 -22 -193t-64 -141.5t-103.5 -87t-140.5 -29.5h-217zM255 104q72 0 114 43.5t57 131.5l20 117q3 18 4.5 37.5t1.5 36.5q0 124 -119 124h-72l-30 -181h118l-15 -90h-118l-37 -219h76z" />
    <glyph glyph-name="dcroat" unicode="&#x111;" 
d="M377 122h-4q-15 -30 -31.5 -54.5t-37.5 -42t-47.5 -27.5t-59.5 -10q-80 0 -117 53.5t-37 146.5q0 69 15.5 131t46 108.5t75.5 73.5t103 27q60 0 93 -27.5t46 -78.5h5l28 167h-143l16 94h143l9 57h126l-9 -57h57l-16 -94h-57l-98 -589h-126zM251 88q29 0 52.5 13t44.5 38
q14 17 28.5 42.5t20.5 59.5l16 96q8 43 -15.5 67t-74.5 24q-61 0 -94 -36t-43 -97l-11 -66q-2 -9 -3 -20.5t-1 -23.5q0 -43 18.5 -70t61.5 -27z" />
    <glyph glyph-name="Emacron" unicode="&#x112;" 
d="M40 0l116 698h441l-18 -107h-313l-30 -184h300l-18 -107h-300l-32 -193h313l-18 -107h-441zM256 884h297l-16 -91h-296z" />
    <glyph glyph-name="emacron" unicode="&#x113;" 
d="M280 -12q-110 0 -164.5 57.5t-54.5 163.5q0 71 21.5 130t60.5 101t94 65t122 23q39 0 72.5 -9t59 -26.5t40 -44t14.5 -61.5q0 -30 -13 -60.5t-51 -55.5t-108.5 -42.5t-184.5 -21.5q-1 -6 -1 -10.5v-7.5q0 -46 23.5 -74t84.5 -28q24 0 43 4.5t36.5 16t35 29.5t37.5 45
l80 -51q-21 -31 -44.5 -57.5t-53 -45.5t-66 -29.5t-83.5 -10.5zM347 436q-57 0 -94.5 -32.5t-52.5 -106.5l-3 -15q77 4 121.5 14t67.5 23t29.5 28.5t6.5 29.5q0 27 -17.5 43t-57.5 16zM230 714h297l-16 -91h-296z" />
    <glyph glyph-name="Ebreve" unicode="&#x114;" 
d="M40 0l116 698h441l-18 -107h-313l-30 -184h300l-18 -107h-300l-32 -193h313l-18 -107h-441zM392 748q-42 0 -70.5 15t-48 38.5t-31 52.5t-17.5 58l71 35l18 -36q18 -35 34.5 -54t48.5 -19q29 0 48.5 18.5t48.5 56.5l26 34l73 -35q-15 -29 -33 -58.5t-42 -53t-55 -38
t-71 -14.5z" />
    <glyph glyph-name="ebreve" unicode="&#x115;" 
d="M280 -12q-110 0 -164.5 57.5t-54.5 163.5q0 71 21.5 130t60.5 101t94 65t122 23q39 0 72.5 -9t59 -26.5t40 -44t14.5 -61.5q0 -30 -13 -60.5t-51 -55.5t-108.5 -42.5t-184.5 -21.5q-1 -6 -1 -10.5v-7.5q0 -46 23.5 -74t84.5 -28q24 0 43 4.5t36.5 16t35 29.5t37.5 45
l80 -51q-21 -31 -44.5 -57.5t-53 -45.5t-66 -29.5t-83.5 -10.5zM347 436q-57 0 -94.5 -32.5t-52.5 -106.5l-3 -15q77 4 121.5 14t67.5 23t29.5 28.5t6.5 29.5q0 27 -17.5 43t-57.5 16zM366 578q-42 0 -70.5 15t-48 38.5t-31 52.5t-17.5 58l71 35l18 -36q18 -35 34.5 -54
t48.5 -19q29 0 48.5 18.5t48.5 56.5l26 34l73 -35q-15 -29 -33 -58.5t-42 -53t-55 -38t-71 -14.5z" />
    <glyph glyph-name="Edotaccent" unicode="&#x116;" 
d="M390 762q-42 0 -58.5 16t-16.5 39q0 6 1.5 14t3.5 21q5 29 24 45.5t61 16.5t58.5 -16t16.5 -39q0 -6 -1.5 -14t-3.5 -21q-5 -29 -24 -45.5t-61 -16.5zM40 0l116 698h441l-18 -107h-313l-30 -184h300l-18 -107h-300l-32 -193h313l-18 -107h-441z" />
    <glyph glyph-name="edotaccent" unicode="&#x117;" 
d="M280 -12q-110 0 -164.5 57.5t-54.5 163.5q0 71 21.5 130t60.5 101t94 65t122 23q39 0 72.5 -9t59 -26.5t40 -44t14.5 -61.5q0 -30 -13 -60.5t-51 -55.5t-108.5 -42.5t-184.5 -21.5q-1 -6 -1 -10.5v-7.5q0 -46 23.5 -74t84.5 -28q24 0 43 4.5t36.5 16t35 29.5t37.5 45
l80 -51q-21 -31 -44.5 -57.5t-53 -45.5t-66 -29.5t-83.5 -10.5zM347 436q-57 0 -94.5 -32.5t-52.5 -106.5l-3 -15q77 4 121.5 14t67.5 23t29.5 28.5t6.5 29.5q0 27 -17.5 43t-57.5 16zM363 592q-42 0 -58.5 16t-16.5 39q0 6 1.5 14t3.5 21q5 29 24 45.5t61 16.5t58.5 -16
t16.5 -39q0 -6 -1.5 -14t-3.5 -21q-5 -29 -24 -45.5t-61 -16.5z" />
    <glyph glyph-name="Eogonek" unicode="&#x118;" 
d="M156 698h441l-18 -107h-313l-30 -184h300l-18 -107h-300l-32 -193h313l-18 -107q-39 -24 -62.5 -42t-35.5 -31.5t-15.5 -23t-3.5 -17.5q0 -14 9 -22t27 -8q14 0 28 6t26 21l49 -45q-17 -20 -45 -34t-69 -14q-49 0 -82 20t-33 61q0 39 33.5 71t102.5 53l-1 5h-369z" />
    <glyph glyph-name="eogonek" unicode="&#x119;" 
d="M324 -210q-49 0 -82 20t-33 61q0 38 30 67.5t80 48.5l-1 4q-7 -2 -17.5 -2.5t-20.5 -0.5q-110 0 -164.5 57.5t-54.5 163.5q0 71 21.5 130t60.5 101t94 65t122 23q39 0 72.5 -9t59 -26.5t40 -44t14.5 -61.5q0 -30 -13 -60.5t-51 -55.5t-108.5 -42.5t-184.5 -21.5
q-1 -5 -1 -10v-9q0 -45 24 -73t84 -28q24 0 43 4.5t36.5 16t35 29.5t37.5 45l80 -51q-23 -34 -48.5 -61t-68.5 -54q-33 -22 -54.5 -40t-34 -33.5t-17.5 -28.5t-5 -24q0 -19 10 -26.5t26 -7.5q14 0 28 6t26 21l49 -45q-17 -20 -45 -34t-69 -14zM347 436q-57 0 -94.5 -32.5
t-52.5 -106.5l-3 -15q77 4 121.5 14t67.5 23t29.5 28.5t6.5 29.5q0 27 -17.5 43t-57.5 16z" />
    <glyph glyph-name="Ecaron" unicode="&#x11a;" 
d="M40 0l116 698h441l-18 -107h-313l-30 -184h300l-18 -107h-300l-32 -193h313l-18 -107h-441zM329 755l-102 155l68 48l102 -116l135 116l61 -50l-148 -153h-116z" />
    <glyph glyph-name="ecaron" unicode="&#x11b;" 
d="M302 585l-102 155l68 48l102 -116l135 116l61 -50l-148 -153h-116zM280 -12q-110 0 -164.5 57.5t-54.5 163.5q0 71 21.5 130t60.5 101t94 65t122 23q39 0 72.5 -9t59 -26.5t40 -44t14.5 -61.5q0 -30 -13 -60.5t-51 -55.5t-108.5 -42.5t-184.5 -21.5q-1 -6 -1 -10.5v-7.5
q0 -46 23.5 -74t84.5 -28q24 0 43 4.5t36.5 16t35 29.5t37.5 45l80 -51q-21 -31 -44.5 -57.5t-53 -45.5t-66 -29.5t-83.5 -10.5zM347 436q-57 0 -94.5 -32.5t-52.5 -106.5l-3 -15q77 4 121.5 14t67.5 23t29.5 28.5t6.5 29.5q0 27 -17.5 43t-57.5 16z" />
    <glyph glyph-name="Gcircumflex" unicode="&#x11c;" 
d="M463 949l102 -155l-68 -48l-102 116l-135 -116l-61 50l148 153h116zM399 102h-8q-13 -23 -27.5 -44t-32.5 -36.5t-41.5 -24.5t-54.5 -9q-87 0 -135.5 64.5t-48.5 190.5q0 98 20 183t60.5 148t100.5 99.5t140 36.5q52 0 90 -15t63.5 -40.5t39.5 -61t18 -75.5l-122 -27
q-3 22 -9 42.5t-17 36.5t-29 25t-46 9q-33 0 -58 -13.5t-43.5 -39t-31.5 -61.5t-20 -80l-17 -101q-3 -18 -5.5 -42.5t-2.5 -41.5q0 -60 24 -96t78 -36q29 0 52.5 10.5t40.5 28t27.5 40.5t14.5 49l8 49h-129l15 94h244l-60 -364h-115z" />
    <glyph glyph-name="gcircumflex" unicode="&#x11d;" 
d="M428 779l102 -155l-68 -48l-102 116l-135 -116l-61 50l148 153h116zM220 -212q-69 0 -117.5 16t-84.5 58l77 79q23 -28 54 -40.5t69 -12.5q30 0 53.5 6.5t41.5 24t31 47t21 75.5l17 101h-5q-14 -30 -30.5 -55t-37.5 -43t-47 -27.5t-60 -9.5q-41 0 -70.5 14.5t-48.5 40.5
t-28 63t-9 81q0 64 15 122.5t45 103t74 70.5t102 26q61 0 95 -27.5t46 -78.5h5l16 94h126l-81 -489q-21 -124 -90.5 -181.5t-178.5 -57.5zM255 108q29 0 52 12.5t44 36.5q13 15 29 40.5t22 63.5l13 76q7 42 -16 66.5t-75 24.5q-61 0 -93.5 -36.5t-43.5 -96.5l-8 -46
q-2 -10 -3 -22t-1 -26q0 -42 19 -67.5t61 -25.5z" />
    <glyph glyph-name="Gbreve" unicode="&#x11e;" 
d="M399 102h-8q-13 -23 -27.5 -44t-32.5 -36.5t-41.5 -24.5t-54.5 -9q-87 0 -135.5 64.5t-48.5 190.5q0 98 20 183t60.5 148t100.5 99.5t140 36.5q52 0 90 -15t63.5 -40.5t39.5 -61t18 -75.5l-122 -27q-3 22 -9 42.5t-17 36.5t-29 25t-46 9q-33 0 -58 -13.5t-43.5 -39
t-31.5 -61.5t-20 -80l-17 -101q-3 -18 -5.5 -42.5t-2.5 -41.5q0 -60 24 -96t78 -36q29 0 52.5 10.5t40.5 28t27.5 40.5t14.5 49l8 49h-129l15 94h244l-60 -364h-115zM384 748q-42 0 -70.5 15t-48 38.5t-31 52.5t-17.5 58l71 35l18 -36q18 -35 34.5 -54t48.5 -19
q29 0 48.5 18.5t48.5 56.5l26 34l73 -35q-15 -29 -33 -58.5t-42 -53t-55 -38t-71 -14.5z" />
    <glyph glyph-name="gbreve" unicode="&#x11f;" 
d="M220 -212q-69 0 -117.5 16t-84.5 58l77 79q23 -28 54 -40.5t69 -12.5q30 0 53.5 6.5t41.5 24t31 47t21 75.5l17 101h-5q-14 -30 -30.5 -55t-37.5 -43t-47 -27.5t-60 -9.5q-41 0 -70.5 14.5t-48.5 40.5t-28 63t-9 81q0 64 15 122.5t45 103t74 70.5t102 26q61 0 95 -27.5
t46 -78.5h5l16 94h126l-81 -489q-21 -124 -90.5 -181.5t-178.5 -57.5zM255 108q29 0 52 12.5t44 36.5q13 15 29 40.5t22 63.5l13 76q7 42 -16 66.5t-75 24.5q-61 0 -93.5 -36.5t-43.5 -96.5l-8 -46q-2 -10 -3 -22t-1 -26q0 -42 19 -67.5t61 -25.5zM349 578q-42 0 -70.5 15
t-48 38.5t-31 52.5t-17.5 58l71 35l18 -36q18 -35 34.5 -54t48.5 -19q29 0 48.5 18.5t48.5 56.5l26 34l73 -35q-15 -29 -33 -58.5t-42 -53t-55 -38t-71 -14.5z" />
    <glyph glyph-name="Gdotaccent" unicode="&#x120;" 
d="M382 762q-42 0 -58.5 16t-16.5 39q0 6 1.5 14t3.5 21q5 29 24 45.5t61 16.5t58.5 -16t16.5 -39q0 -6 -1.5 -14t-3.5 -21q-5 -29 -24 -45.5t-61 -16.5zM399 102h-8q-13 -23 -27.5 -44t-32.5 -36.5t-41.5 -24.5t-54.5 -9q-87 0 -135.5 64.5t-48.5 190.5q0 98 20 183
t60.5 148t100.5 99.5t140 36.5q52 0 90 -15t63.5 -40.5t39.5 -61t18 -75.5l-122 -27q-3 22 -9 42.5t-17 36.5t-29 25t-46 9q-33 0 -58 -13.5t-43.5 -39t-31.5 -61.5t-20 -80l-17 -101q-3 -18 -5.5 -42.5t-2.5 -41.5q0 -60 24 -96t78 -36q29 0 52.5 10.5t40.5 28t27.5 40.5
t14.5 49l8 49h-129l15 94h244l-60 -364h-115z" />
    <glyph glyph-name="gdotaccent" unicode="&#x121;" 
d="M220 -212q-69 0 -117.5 16t-84.5 58l77 79q23 -28 54 -40.5t69 -12.5q30 0 53.5 6.5t41.5 24t31 47t21 75.5l17 101h-5q-14 -30 -30.5 -55t-37.5 -43t-47 -27.5t-60 -9.5q-41 0 -70.5 14.5t-48.5 40.5t-28 63t-9 81q0 64 15 122.5t45 103t74 70.5t102 26q61 0 95 -27.5
t46 -78.5h5l16 94h126l-81 -489q-21 -124 -90.5 -181.5t-178.5 -57.5zM255 108q29 0 52 12.5t44 36.5q13 15 29 40.5t22 63.5l13 76q7 42 -16 66.5t-75 24.5q-61 0 -93.5 -36.5t-43.5 -96.5l-8 -46q-2 -10 -3 -22t-1 -26q0 -42 19 -67.5t61 -25.5zM346 592q-42 0 -58.5 16
t-16.5 39q0 6 1.5 14t3.5 21q5 29 24 45.5t61 16.5t58.5 -16t16.5 -39q0 -6 -1.5 -14t-3.5 -21q-5 -29 -24 -45.5t-61 -16.5z" />
    <glyph glyph-name="Gcommaaccent" unicode="&#x122;" 
d="M215 -57h142l-116 -206h-80zM399 102h-8q-13 -23 -27.5 -44t-32.5 -36.5t-41.5 -24.5t-54.5 -9q-87 0 -135.5 64.5t-48.5 190.5q0 98 20 183t60.5 148t100.5 99.5t140 36.5q52 0 90 -15t63.5 -40.5t39.5 -61t18 -75.5l-122 -27q-3 22 -9 42.5t-17 36.5t-29 25t-46 9
q-33 0 -58 -13.5t-43.5 -39t-31.5 -61.5t-20 -80l-17 -101q-3 -18 -5.5 -42.5t-2.5 -41.5q0 -60 24 -96t78 -36q29 0 52.5 10.5t40.5 28t27.5 40.5t14.5 49l8 49h-129l15 94h244l-60 -364h-115z" />
    <glyph glyph-name="gcommaaccent" unicode="&#x123;" 
d="M220 -212q-69 0 -117.5 16t-84.5 58l77 79q23 -28 54 -40.5t69 -12.5q30 0 53.5 6.5t41.5 24t31 47t21 75.5l17 101h-5q-14 -30 -30.5 -55t-37.5 -43t-47 -27.5t-60 -9.5q-41 0 -70.5 14.5t-48.5 40.5t-28 63t-9 81q0 64 15 122.5t45 103t74 70.5t102 26q61 0 95 -27.5
t46 -78.5h5l16 94h126l-81 -489q-21 -124 -90.5 -181.5t-178.5 -57.5zM255 108q29 0 52 12.5t44 36.5q13 15 29 40.5t22 63.5l13 76q7 42 -16 66.5t-75 24.5q-61 0 -93.5 -36.5t-43.5 -96.5l-8 -46q-2 -10 -3 -22t-1 -26q0 -42 19 -67.5t61 -25.5zM384 788h80l-54 -206h-142
z" />
    <glyph glyph-name="Hcircumflex" unicode="&#x124;" 
d="M412 301h-208l-50 -301h-128l116 698h128l-48 -291h208l48 291h128l-116 -698h-128zM469 949l102 -155l-68 -48l-102 116l-135 -116l-61 50l148 153h116z" />
    <glyph glyph-name="hcircumflex" unicode="&#x125;" 
d="M313 961l102 -155l-68 -48l-102 116l-135 -116l-61 50l148 153h116zM158 740h126l-57 -346h5q28 61 67.5 97.5t101.5 36.5q36 0 62.5 -11.5t43.5 -31.5t25.5 -47.5t8.5 -58.5q0 -37 -10 -96l-47 -283h-126l49 295q2 14 4.5 30t2.5 32q0 28 -15 50t-52 22q-29 0 -50 -13.5
t-40 -36.5q-11 -14 -28 -42.5t-23 -64.5l-45 -272h-126z" />
    <glyph glyph-name="Hbar" unicode="&#x126;" 
d="M412 301h-208l-50 -301h-128l85 510h-58l16 98h58l15 90h128l-16 -95h208l16 95h128l-15 -90h57l-16 -98h-57l-85 -510h-129zM430 407l18 108h-208l-18 -108h208z" />
    <glyph glyph-name="hbar" unicode="&#x127;" 
d="M133 589h-60l16 94h60l9 57h126l-9 -57h140l-16 -94h-140l-32 -195h5q28 61 67.5 97.5t101.5 36.5q36 0 62.5 -11.5t43.5 -31.5t25.5 -47.5t8.5 -58.5q0 -37 -10 -96l-47 -283h-126l49 295q2 14 4.5 30t2.5 32q0 28 -15 50t-52 22q-29 0 -50 -13.5t-40 -36.5
q-11 -14 -28 -42.5t-23 -64.5l-45 -272h-126z" />
    <glyph glyph-name="Itilde" unicode="&#x128;" 
d="M35 0l16 97h158l84 504h-158l16 97h444l-16 -97h-158l-84 -504h158l-16 -97h-444zM468 768q-24 0 -41 7t-34 16q-18 10 -35.5 16.5t-35.5 6.5q-17 0 -31 -6.5t-32 -20.5l-36 59q20 26 49.5 43.5t66.5 17.5q24 0 41 -7t34 -16q18 -10 35.5 -16.5t35.5 -6.5q17 0 31 6.5
t32 20.5l36 -59q-20 -26 -49.5 -43.5t-66.5 -17.5z" />
    <glyph glyph-name="itilde" unicode="&#x129;" 
d="M290 -12q-54 0 -82 28.5t-28 76.5q0 14 2 29t7 39l49 255h-166l17 100h293l-81 -422l19 -6l157 151l70 -63l-70 -74q-56 -60 -98.5 -87t-88.5 -27zM406 598q-24 0 -41 7t-34 16q-18 10 -35.5 16.5t-35.5 6.5q-17 0 -31 -6.5t-32 -20.5l-36 59q20 26 49.5 43.5t66.5 17.5
q24 0 41 -7t34 -16q18 -10 35.5 -16.5t35.5 -6.5q17 0 31 6.5t32 20.5l36 -59q-20 -26 -49.5 -43.5t-66.5 -17.5z" />
    <glyph glyph-name="Imacron" unicode="&#x12a;" 
d="M35 0l16 97h158l84 504h-158l16 97h444l-16 -97h-158l-84 -504h158l-16 -97h-444zM254 884h297l-16 -91h-296z" />
    <glyph glyph-name="imacron" unicode="&#x12b;" 
d="M290 -12q-54 0 -82 28.5t-28 76.5q0 14 2 29t7 39l49 255h-166l17 100h293l-81 -422l19 -6l157 151l70 -63l-70 -74q-56 -60 -98.5 -87t-88.5 -27zM200 714h297l-16 -91h-296z" />
    <glyph glyph-name="Ibreve" unicode="&#x12c;" 
d="M35 0l16 97h158l84 504h-158l16 97h444l-16 -97h-158l-84 -504h158l-16 -97h-444zM390 748q-42 0 -70.5 15t-48 38.5t-31 52.5t-17.5 58l71 35l18 -36q18 -35 34.5 -54t48.5 -19q29 0 48.5 18.5t48.5 56.5l26 34l73 -35q-15 -29 -33 -58.5t-42 -53t-55 -38t-71 -14.5z
" />
    <glyph glyph-name="ibreve" unicode="&#x12d;" 
d="M290 -12q-54 0 -82 28.5t-28 76.5q0 14 2 29t7 39l49 255h-166l17 100h293l-81 -422l19 -6l157 151l70 -63l-70 -74q-56 -60 -98.5 -87t-88.5 -27zM336 578q-42 0 -70.5 15t-48 38.5t-31 52.5t-17.5 58l71 35l18 -36q18 -35 34.5 -54t48.5 -19q29 0 48.5 18.5t48.5 56.5
l26 34l73 -35q-15 -29 -33 -58.5t-42 -53t-55 -38t-71 -14.5z" />
    <glyph glyph-name="Iogonek" unicode="&#x12e;" 
d="M51 97h158l84 504h-158l16 97h444l-16 -97h-158l-84 -504h158l-16 -97q-39 -24 -62.5 -42t-35.5 -31.5t-15.5 -23t-3.5 -17.5q0 -14 9.5 -22t27.5 -8q14 0 28 6t25 21l50 -45q-17 -20 -45 -34t-70 -14q-48 0 -81 20t-33 61q0 39 33.5 71t102.5 53l-1 5h-373z" />
    <glyph glyph-name="iogonek" unicode="&#x12f;" 
d="M314 -210q-48 0 -81 20t-33 61q0 39 29 65.5t74 48.5l-2 5q-5 -1 -8 -1h-9q-53 0 -78.5 29t-25.5 75q0 14 2 29t7 39l49 255h-166l17 100h293l-81 -422l19 -6l157 151l70 -63l-158 -155q-27 -26 -46 -45.5t-31 -35t-17.5 -28t-5.5 -25.5q0 -31 37 -31q14 0 28 6t25 21
l50 -45q-17 -20 -45 -34t-70 -14zM340 598q-42 0 -58.5 16t-16.5 39q0 5 1 13t3 22q5 29 24.5 45.5t61.5 16.5t58.5 -16t16.5 -39q0 -5 -1 -13t-3 -22q-5 -29 -24.5 -45.5t-61.5 -16.5z" />
    <glyph glyph-name="Idotaccent" unicode="&#x130;" 
d="M35 0l16 97h158l84 504h-158l16 97h444l-16 -97h-158l-84 -504h158l-16 -97h-444zM388 762q-42 0 -58.5 16t-16.5 39q0 6 1.5 14t3.5 21q5 29 24 45.5t61 16.5t58.5 -16t16.5 -39q0 -6 -1.5 -14t-3.5 -21q-5 -29 -24 -45.5t-61 -16.5z" />
    <glyph glyph-name="dotlessi" unicode="&#x131;" 
d="M290 -12q-54 0 -82 28.5t-28 76.5q0 14 2 29t7 39l49 255h-166l17 100h293l-81 -422l19 -6l157 151l70 -63l-70 -74q-56 -60 -98.5 -87t-88.5 -27z" />
    <glyph glyph-name="IJ" unicode="&#x132;" 
d="M625 698l-84 -503q-18 -108 -82.5 -157.5t-166.5 -49.5q-100 0 -152.5 50.5t-57.5 136.5l121 23q2 -22 7 -41t16.5 -33t29.5 -22t45 -8q47 0 75.5 26.5t38.5 84.5l82 493h128zM175 698h128l-65 -395h-129z" />
    <glyph glyph-name="ij" unicode="&#x133;" 
d="M126 516h126l-86 -516h-126zM312 -212q-45 0 -79 26.5t-66 67.5l-30 39l84 65l90 -99l14 5l104 624h126l-96 -574q-12 -73 -47.5 -113.5t-99.5 -40.5zM210 598q-42 0 -58.5 16t-16.5 39q0 5 1 13t3 22q5 29 24.5 45.5t61.5 16.5t58.5 -16t16.5 -39q0 -5 -1 -13t-3 -22
q-5 -29 -24.5 -45.5t-61.5 -16.5zM513 598q-42 0 -58.5 16t-16.5 39q0 5 1 13t3 22q5 29 24.5 45.5t61.5 16.5t58.5 -16t16.5 -39q0 -5 -1 -13t-3 -22q-5 -29 -24.5 -45.5t-61.5 -16.5z" />
    <glyph glyph-name="Jcircumflex" unicode="&#x134;" 
d="M574 698l-84 -504q-18 -106 -80.5 -156t-164.5 -50q-98 0 -150.5 50.5t-56.5 136.5l121 23q1 -22 6.5 -41t16 -33t28 -22t43.5 -8q92 0 110 108l65 389h-240l18 107h368zM486 949l102 -155l-68 -48l-102 116l-135 -116l-61 50l148 153h116z" />
    <glyph glyph-name="jcircumflex" unicode="&#x135;" 
d="M234 -212q-26 0 -46.5 8.5t-40 25.5t-40 43t-45.5 62l-42 56l86 63l127 -159l14 5l87 524h-196l17 100h322l-96 -574q-13 -78 -48 -116t-99 -38zM512 779l102 -155l-68 -48l-102 116l-135 -116l-61 50l148 153h116z" />
    <glyph glyph-name="Kcommaaccent" unicode="&#x136;" 
d="M192 -57h142l-116 -206h-80zM288 301l-95 -101l-33 -200h-128l116 698h128l-53 -318h7l119 139l158 179h153l-271 -306l163 -392h-142z" />
    <glyph glyph-name="kcommaaccent" unicode="&#x137;" 
d="M169 -57h142l-116 -206h-80zM158 740h126l-58 -346h6q26 58 69 96t108 38q63 0 99 -35t36 -89q0 -64 -43.5 -111.5t-143.5 -76.5l51 -123l14 -2l97 92l62 -62l-57 -60q-35 -36 -66.5 -54.5t-68.5 -18.5q-41 0 -65 23t-41 67l-59 149q100 28 146.5 61t46.5 81
q0 28 -18.5 45t-53.5 17q-25 0 -46.5 -11.5t-43.5 -39.5q-17 -21 -30 -47t-19 -62l-45 -271h-126z" />
    <glyph glyph-name="kgreenlandic" unicode="&#x138;" 
d="M272 231l-84 -74l-26 -157h-126l86 516h126l-37 -219h8l89 86l145 133h148l-231 -213l168 -303h-142z" />
    <glyph glyph-name="Lacute" unicode="&#x139;" 
d="M258 745l-74 40l113 183l100 -54zM59 0l116 698h128l-98 -591h311l-18 -107h-439z" />
    <glyph glyph-name="lacute" unicode="&#x13a;" 
d="M349 757l-74 40l113 183l100 -54zM264 -12q-56 0 -82 29t-26 77q0 14 1.5 28t6.5 37l90 481h-161l17 100h289l-122 -646l18 -6l159 152l70 -63l-74 -77q-57 -60 -99 -86t-87 -26z" />
    <glyph glyph-name="Lcommaaccent" unicode="&#x13b;" 
d="M199 -57h142l-116 -206h-80zM59 0l116 698h128l-98 -591h311l-18 -107h-439z" />
    <glyph glyph-name="lcommaaccent" unicode="&#x13c;" 
d="M184 -57h142l-116 -206h-80zM264 -12q-56 0 -82 29t-26 77q0 14 1.5 28t6.5 37l90 481h-161l17 100h289l-122 -646l18 -6l159 152l70 -63l-74 -77q-57 -60 -99 -86t-87 -26z" />
    <glyph glyph-name="Lcaron" unicode="&#x13d;" 
d="M442 533h-85l39 207h141zM59 0l116 698h128l-98 -591h311l-18 -107h-439z" />
    <glyph glyph-name="lcaron" unicode="&#x13e;" 
d="M520 533h-85l39 207h141zM264 -12q-56 0 -82 29t-26 77q0 14 1.5 28t6.5 37l90 481h-161l17 100h289l-122 -646l18 -6l159 152l70 -63l-74 -77q-57 -60 -99 -86t-87 -26z" />
    <glyph glyph-name="Ldot" unicode="&#x13f;" 
d="M59 0l116 698h128l-98 -591h311l-18 -107h-439zM446 253q-42 0 -58.5 16t-16.5 39q0 6 1.5 14t3.5 21q5 29 24 45.5t61 16.5t58.5 -16t16.5 -39q0 -6 -1.5 -14t-3.5 -21q-5 -29 -24 -45.5t-61 -16.5z" />
    <glyph glyph-name="ldot" unicode="&#x140;" 
d="M264 -12q-56 0 -82 29t-26 77q0 14 1.5 28t6.5 37l90 481h-161l17 100h289l-122 -646l18 -6l159 152l70 -63l-74 -77q-57 -60 -99 -86t-87 -26zM488 312q-42 0 -58.5 16t-16.5 39q0 6 1.5 14t3.5 21q5 29 24 45.5t61 16.5t58.5 -16t16.5 -39q0 -6 -1.5 -14t-3.5 -21
q-5 -29 -24 -45.5t-61 -16.5z" />
    <glyph glyph-name="Lslash" unicode="&#x141;" 
d="M504 0h-430l43 254l-79 -24l17 100l78 23l57 345h128l-50 -306l202 63l-17 -100l-202 -64l-31 -184h302z" />
    <glyph glyph-name="lslash" unicode="&#x142;" 
d="M264 -12q-56 0 -82 29t-26 77q0 14 1.5 28t6.5 37l24 127l-134 -42l16 96l136 41l48 259h-161l17 100h289l-61 -321l149 45l-16 -96l-151 -46l-43 -228l18 -6l159 152l70 -63l-74 -77q-57 -60 -99 -86t-87 -26z" />
    <glyph glyph-name="Nacute" unicode="&#x143;" 
d="M392 745l-74 40l113 183l100 -54zM232 508h-9l-84 -508h-113l116 698h160l98 -508h9l84 508h113l-116 -698h-160z" />
    <glyph glyph-name="nacute" unicode="&#x144;" 
d="M355 575l-74 40l113 183l100 -54zM35 0l86 516h126l-20 -122h5q28 61 67.5 97.5t101.5 36.5q36 0 62.5 -11.5t43.5 -31.5t25.5 -47.5t8.5 -58.5q0 -37 -10 -96l-47 -283h-126l49 295q2 14 4.5 30t2.5 32q0 28 -15 50t-52 22q-29 0 -50 -13.5t-40 -36.5q-11 -14 -28 -42.5
t-23 -64.5l-45 -272h-126z" />
    <glyph glyph-name="Ncommaaccent" unicode="&#x145;" 
d="M177 -57h142l-116 -206h-80zM232 508h-9l-84 -508h-113l116 698h160l98 -508h9l84 508h113l-116 -698h-160z" />
    <glyph glyph-name="ncommaaccent" unicode="&#x146;" 
d="M179 -57h142l-116 -206h-80zM35 0l86 516h126l-20 -122h5q28 61 67.5 97.5t101.5 36.5q36 0 62.5 -11.5t43.5 -31.5t25.5 -47.5t8.5 -58.5q0 -37 -10 -96l-47 -283h-126l49 295q2 14 4.5 30t2.5 32q0 28 -15 50t-52 22q-29 0 -50 -13.5t-40 -36.5q-11 -14 -28 -42.5
t-23 -64.5l-45 -272h-126z" />
    <glyph glyph-name="Ncaron" unicode="&#x147;" 
d="M232 508h-9l-84 -508h-113l116 698h160l98 -508h9l84 508h113l-116 -698h-160zM327 755l-102 155l68 48l102 -116l135 116l61 -50l-148 -153h-116z" />
    <glyph glyph-name="ncaron" unicode="&#x148;" 
d="M289 585l-102 155l68 48l102 -116l135 116l61 -50l-148 -153h-116zM35 0l86 516h126l-20 -122h5q28 61 67.5 97.5t101.5 36.5q36 0 62.5 -11.5t43.5 -31.5t25.5 -47.5t8.5 -58.5q0 -37 -10 -96l-47 -283h-126l49 295q2 14 4.5 30t2.5 32q0 28 -15 50t-52 22
q-29 0 -50 -13.5t-40 -36.5q-11 -14 -28 -42.5t-23 -64.5l-45 -272h-126z" />
    <glyph glyph-name="napostrophe" unicode="&#x149;" 
d="M160 516h121l-19 -112h5q27 57 63.5 90.5t95.5 33.5q34 0 58.5 -11t41 -30t24.5 -45.5t8 -56.5q0 -20 -2 -41t-7 -53l-49 -291h-121l50 298q3 18 4 32.5t1 29.5q0 27 -14 47.5t-47 20.5q-26 0 -44.5 -10t-36.5 -31q-11 -12 -27 -39t-22 -63l-48 -285h-121zM94 740h117
l-89 -202h-67z" />
    <glyph glyph-name="Eng" unicode="&#x14a;" 
d="M26 0l116 698h160l98 -508h9l84 508h113l-127 -762q-13 -76 -43.5 -112t-85.5 -36q-23 0 -40 6t-33 18t-32.5 30t-37.5 42l-33 37l78 64l91 -97l16 4l19 108h-48l-98 508h-9l-84 -508h-113z" />
    <glyph glyph-name="eng" unicode="&#x14b;" 
d="M327 -212q-45 0 -77 28t-63 68l-23 30l81 62l81 -89l14 5l67 403q2 14 4.5 30t2.5 32q0 28 -15 50t-52 22q-29 0 -50 -13.5t-40 -36.5q-11 -14 -28 -42.5t-23 -64.5l-45 -272h-126l86 516h126l-20 -122h5q28 61 67.5 97.5t101.5 36.5q36 0 62.5 -11.5t43.5 -31.5
t25.5 -47.5t8.5 -58.5q0 -37 -10 -96l-56 -341q-12 -73 -48 -113.5t-100 -40.5z" />
    <glyph glyph-name="Omacron" unicode="&#x14c;" 
d="M273 -12q-119 0 -174 67.5t-55 187.5q0 82 16.5 165.5t53 150.5t96 109t146.5 42q119 0 174 -67.5t55 -187.5q0 -82 -16.5 -165.5t-53 -150.5t-96 -109t-146.5 -42zM275 94q68 0 103.5 51.5t50.5 144.5l20 117q6 40 6 76q0 57 -24 89t-77 32q-68 0 -103.5 -51.5
t-50.5 -144.5l-20 -117q-6 -41 -6 -76q0 -57 24 -89t77 -32zM242 884h297l-16 -91h-296z" />
    <glyph glyph-name="omacron" unicode="&#x14d;" 
d="M227 714h297l-16 -91h-296zM265 -12q-51 0 -91.5 15.5t-68 44.5t-42 70t-14.5 91q0 74 21 133t59 100.5t90.5 63.5t115.5 22q51 0 91.5 -15.5t68 -44.5t42 -70t14.5 -91q0 -74 -21 -133t-59 -100.5t-90.5 -63.5t-115.5 -22zM274 85q56 0 89.5 33.5t44.5 95.5l12 71
q2 12 3.5 24t1.5 21q0 51 -26.5 76t-72.5 25q-56 0 -89.5 -33.5t-44.5 -95.5l-12 -71q-2 -12 -3.5 -24t-1.5 -21q0 -51 26.5 -76t72.5 -25z" />
    <glyph glyph-name="Obreve" unicode="&#x14e;" 
d="M273 -12q-119 0 -174 67.5t-55 187.5q0 82 16.5 165.5t53 150.5t96 109t146.5 42q119 0 174 -67.5t55 -187.5q0 -82 -16.5 -165.5t-53 -150.5t-96 -109t-146.5 -42zM275 94q68 0 103.5 51.5t50.5 144.5l20 117q6 40 6 76q0 57 -24 89t-77 32q-68 0 -103.5 -51.5
t-50.5 -144.5l-20 -117q-6 -41 -6 -76q0 -57 24 -89t77 -32zM378 748q-42 0 -70.5 15t-48 38.5t-31 52.5t-17.5 58l71 35l18 -36q18 -35 34.5 -54t48.5 -19q29 0 48.5 18.5t48.5 56.5l26 34l73 -35q-15 -29 -33 -58.5t-42 -53t-55 -38t-71 -14.5z" />
    <glyph glyph-name="obreve" unicode="&#x14f;" 
d="M265 -12q-51 0 -91.5 15.5t-68 44.5t-42 70t-14.5 91q0 74 21 133t59 100.5t90.5 63.5t115.5 22q51 0 91.5 -15.5t68 -44.5t42 -70t14.5 -91q0 -74 -21 -133t-59 -100.5t-90.5 -63.5t-115.5 -22zM274 85q56 0 89.5 33.5t44.5 95.5l12 71q2 12 3.5 24t1.5 21
q0 51 -26.5 76t-72.5 25q-56 0 -89.5 -33.5t-44.5 -95.5l-12 -71q-2 -12 -3.5 -24t-1.5 -21q0 -51 26.5 -76t72.5 -25zM363 578q-42 0 -70.5 15t-48 38.5t-31 52.5t-17.5 58l71 35l18 -36q18 -35 34.5 -54t48.5 -19q29 0 48.5 18.5t48.5 56.5l26 34l73 -35
q-15 -29 -33 -58.5t-42 -53t-55 -38t-71 -14.5z" />
    <glyph glyph-name="Ohungarumlaut" unicode="&#x150;" 
d="M284 746l-68 34l108 185l95 -51zM472 746l-68 34l108 185l95 -51zM273 -12q-119 0 -174 67.5t-55 187.5q0 82 16.5 165.5t53 150.5t96 109t146.5 42q119 0 174 -67.5t55 -187.5q0 -82 -16.5 -165.5t-53 -150.5t-96 -109t-146.5 -42zM275 94q68 0 103.5 51.5t50.5 144.5
l20 117q6 40 6 76q0 57 -24 89t-77 32q-68 0 -103.5 -51.5t-50.5 -144.5l-20 -117q-6 -41 -6 -76q0 -57 24 -89t77 -32z" />
    <glyph glyph-name="ohungarumlaut" unicode="&#x151;" 
d="M269 576l-68 34l108 185l95 -51zM457 576l-68 34l108 185l95 -51zM265 -12q-51 0 -91.5 15.5t-68 44.5t-42 70t-14.5 91q0 74 21 133t59 100.5t90.5 63.5t115.5 22q51 0 91.5 -15.5t68 -44.5t42 -70t14.5 -91q0 -74 -21 -133t-59 -100.5t-90.5 -63.5t-115.5 -22zM274 85
q56 0 89.5 33.5t44.5 95.5l12 71q2 12 3.5 24t1.5 21q0 51 -26.5 76t-72.5 25q-56 0 -89.5 -33.5t-44.5 -95.5l-12 -71q-2 -12 -3.5 -24t-1.5 -21q0 -51 26.5 -76t72.5 -25z" />
    <glyph glyph-name="OE" unicode="&#x152;" 
d="M272 0q-111 0 -165 65t-54 185q0 102 21 184.5t63 141t104 90.5t143 32h295l-16 -98h-158l-33 -198h148l-16 -98h-149l-34 -206h158l-16 -98h-291zM386 600h-11q-72 0 -115 -43.5t-59 -141.5l-20 -119q-3 -18 -4.5 -36t-1.5 -33q0 -129 121 -129h6z" />
    <glyph glyph-name="oe" unicode="&#x153;" 
d="M402 -12q-47 0 -78.5 21.5t-42.5 66.5h-5q-5 -16 -15.5 -31.5t-26.5 -28t-37 -20.5t-47 -8q-66 0 -102 47.5t-36 142.5q0 74 14 138t40.5 111t65.5 74t89 27q45 0 73 -22.5t36 -57.5h4q23 38 58.5 59t80.5 21q60 0 96.5 -35.5t36.5 -90.5q0 -29 -10.5 -59t-38.5 -55
t-78.5 -41t-129.5 -18l-2 -13q-2 -14 -3 -28t-1 -25q0 -42 16 -66t48 -24q30 0 51 23.5t35 55.5l80 -35q-24 -58 -66 -93.5t-105 -35.5zM162 72q31 0 52.5 29t32.5 95l20 120q3 17 3.5 30t0.5 22q0 38 -14.5 57t-39.5 19q-31 0 -52.5 -29t-32.5 -95l-20 -120
q-3 -17 -3.5 -30t-0.5 -22q0 -38 14.5 -57t39.5 -19zM463 448q-38 0 -63.5 -36.5t-36.5 -100.5l-2 -12q43 1 72 9.5t47 21.5t25.5 29.5t7.5 35.5q0 53 -50 53z" />
    <glyph glyph-name="Racute" unicode="&#x154;" 
d="M167 0h-128l116 698h252q92 0 138 -49t46 -130q0 -97 -47 -158t-132 -78l104 -283h-136l-89 272h-79zM336 374q53 0 79.5 20t34.5 65l5 30q2 7 2.5 16.5t0.5 17.5q0 35 -21.5 52.5t-62.5 17.5h-108l-37 -219h107zM374 745l-74 40l113 183l100 -54z" />
    <glyph glyph-name="racute" unicode="&#x155;" 
d="M381 575l-74 40l113 183l100 -54zM156 0l69 416h-126l17 100h252l-26 -151h6q31 71 77.5 111t122.5 40h47l-21 -126h-91q-42 0 -68 -11.5t-46 -35.5q-10 -12 -25.5 -38t-20.5 -58l-41 -247h-126z" />
    <glyph glyph-name="Rcommaaccent" unicode="&#x156;" 
d="M192 -57h142l-116 -206h-80zM167 0h-128l116 698h252q92 0 138 -49t46 -130q0 -97 -47 -158t-132 -78l104 -283h-136l-89 272h-79zM336 374q53 0 79.5 20t34.5 65l5 30q2 7 2.5 16.5t0.5 17.5q0 35 -21.5 52.5t-62.5 17.5h-108l-37 -219h107z" />
    <glyph glyph-name="rcommaaccent" unicode="&#x157;" 
d="M138 -57h142l-116 -206h-80zM156 0l69 416h-126l17 100h252l-26 -151h6q31 71 77.5 111t122.5 40h47l-21 -126h-91q-42 0 -68 -11.5t-46 -35.5q-10 -12 -25.5 -38t-20.5 -58l-41 -247h-126z" />
    <glyph glyph-name="Rcaron" unicode="&#x158;" 
d="M167 0h-128l116 698h252q92 0 138 -49t46 -130q0 -97 -47 -158t-132 -78l104 -283h-136l-89 272h-79zM336 374q53 0 79.5 20t34.5 65l5 30q2 7 2.5 16.5t0.5 17.5q0 35 -21.5 52.5t-62.5 17.5h-108l-37 -219h107zM309 755l-102 155l68 48l102 -116l135 116l61 -50
l-148 -153h-116z" />
    <glyph glyph-name="rcaron" unicode="&#x159;" 
d="M315 585l-102 155l68 48l102 -116l135 116l61 -50l-148 -153h-116zM156 0l69 416h-126l17 100h252l-26 -151h6q31 71 77.5 111t122.5 40h47l-21 -126h-91q-42 0 -68 -11.5t-46 -35.5q-10 -12 -25.5 -38t-20.5 -58l-41 -247h-126z" />
    <glyph glyph-name="Sacute" unicode="&#x15a;" 
d="M267 -12q-88 0 -153.5 30t-97.5 82l84 80q31 -43 77 -64t98 -21q65 0 99.5 30.5t34.5 84.5q0 38 -20.5 57.5t-68.5 30.5l-71 16q-78 17 -113.5 62.5t-35.5 111.5q0 51 18.5 92t53 70t83 44.5t108.5 15.5q81 0 140 -28.5t88 -74.5l-86 -76q-25 35 -61.5 54.5t-86.5 19.5
q-61 0 -93 -28t-32 -76q0 -35 21.5 -53.5t71.5 -30.5l68 -17q78 -20 113.5 -63t35.5 -112q0 -53 -18.5 -96.5t-54 -74.5t-86.5 -48.5t-116 -17.5zM383 745l-74 40l113 183l100 -54z" />
    <glyph glyph-name="sacute" unicode="&#x15b;" 
d="M357 575l-74 40l113 183l100 -54zM261 -12q-77 0 -133 23t-85 65l75 70q24 -32 63 -49t89 -17q52 0 82 18t30 52q0 26 -16.5 36t-42.5 15l-74 15q-29 6 -55 15.5t-45.5 25t-31 39.5t-11.5 59q0 43 17.5 75t48.5 54t73 33t91 11q69 0 121.5 -20t79.5 -55l-72 -72
q-17 22 -50.5 38.5t-83.5 16.5q-48 0 -74.5 -17t-26.5 -49q0 -26 16.5 -36t42.5 -15l76 -16q30 -6 56 -15.5t45 -25t30 -38.5t11 -57q0 -42 -17.5 -75t-49.5 -56.5t-77.5 -35.5t-101.5 -12z" />
    <glyph glyph-name="Scircumflex" unicode="&#x15c;" 
d="M267 -12q-88 0 -153.5 30t-97.5 82l84 80q31 -43 77 -64t98 -21q65 0 99.5 30.5t34.5 84.5q0 38 -20.5 57.5t-68.5 30.5l-71 16q-78 17 -113.5 62.5t-35.5 111.5q0 51 18.5 92t53 70t83 44.5t108.5 15.5q81 0 140 -28.5t88 -74.5l-86 -76q-25 35 -61.5 54.5t-86.5 19.5
q-61 0 -93 -28t-32 -76q0 -35 21.5 -53.5t71.5 -30.5l68 -17q78 -20 113.5 -63t35.5 -112q0 -53 -18.5 -96.5t-54 -74.5t-86.5 -48.5t-116 -17.5zM460 949l102 -155l-68 -48l-102 116l-135 -116l-61 50l148 153h116z" />
    <glyph glyph-name="scircumflex" unicode="&#x15d;" 
d="M434 779l102 -155l-68 -48l-102 116l-135 -116l-61 50l148 153h116zM261 -12q-77 0 -133 23t-85 65l75 70q24 -32 63 -49t89 -17q52 0 82 18t30 52q0 26 -16.5 36t-42.5 15l-74 15q-29 6 -55 15.5t-45.5 25t-31 39.5t-11.5 59q0 43 17.5 75t48.5 54t73 33t91 11
q69 0 121.5 -20t79.5 -55l-72 -72q-17 22 -50.5 38.5t-83.5 16.5q-48 0 -74.5 -17t-26.5 -49q0 -26 16.5 -36t42.5 -15l76 -16q30 -6 56 -15.5t45 -25t30 -38.5t11 -57q0 -42 -17.5 -75t-49.5 -56.5t-77.5 -35.5t-101.5 -12z" />
    <glyph glyph-name="Scedilla" unicode="&#x15e;" 
d="M252 -210q-42 0 -69 13t-40 31l47 49q8 -10 22.5 -19t37.5 -9q22 0 36 7.5t14 23.5q0 12 -13.5 23t-52.5 14l-24 2l23 64q-76 6 -132.5 35t-84.5 76l84 80q31 -43 77 -64t98 -21q65 0 99.5 30.5t34.5 84.5q0 38 -20.5 57.5t-68.5 30.5l-71 16q-78 17 -113.5 62.5
t-35.5 111.5q0 51 18.5 92t53 70t83 44.5t108.5 15.5q81 0 140 -28.5t88 -74.5l-86 -76q-25 35 -61.5 54.5t-86.5 19.5q-61 0 -93 -28t-32 -76q0 -35 21.5 -53.5t71.5 -30.5l68 -17q78 -20 113.5 -63t35.5 -112q0 -50 -16.5 -91.5t-48 -72.5t-77.5 -49.5t-104 -22.5l-17 -46
l3 -4q11 4 21.5 5t19.5 1q28 0 46 -15t18 -43q0 -25 -10.5 -43t-29 -30t-43 -18t-52.5 -6z" />
    <glyph glyph-name="scedilla" unicode="&#x15f;" 
d="M249 -210q-42 0 -69 13t-41 31l48 49q8 -10 22.5 -19t37.5 -9q22 0 36 7.5t14 23.5q0 12 -13.5 23t-52.5 14l-25 2l24 64q-66 5 -113.5 27t-73.5 60l75 70q24 -32 63 -49t90 -17t81 18t30 52q0 25 -16.5 35.5t-42.5 15.5l-74 15q-30 6 -56 15.5t-45.5 25.5t-30.5 39.5
t-11 57.5q0 43 17.5 75.5t48.5 54.5t73 33t91 11q69 0 121.5 -20t79.5 -55l-72 -72q-17 22 -50.5 38.5t-83.5 16.5q-48 0 -74.5 -17.5t-26.5 -49.5q0 -25 16 -34.5t43 -15.5l76 -16q30 -6 55.5 -15.5t45 -25t30.5 -38.5t11 -56q0 -80 -58 -126t-157 -53l-16 -46l3 -4
q11 4 21.5 5t18.5 1q28 0 46 -15t18 -43q0 -25 -10.5 -43t-28.5 -30t-42.5 -18t-52.5 -6z" />
    <glyph glyph-name="Scaron" unicode="&#x160;" 
d="M267 -12q-88 0 -153.5 30t-97.5 82l84 80q31 -43 77 -64t98 -21q65 0 99.5 30.5t34.5 84.5q0 38 -20.5 57.5t-68.5 30.5l-71 16q-78 17 -113.5 62.5t-35.5 111.5q0 51 18.5 92t53 70t83 44.5t108.5 15.5q81 0 140 -28.5t88 -74.5l-86 -76q-25 35 -61.5 54.5t-86.5 19.5
q-61 0 -93 -28t-32 -76q0 -35 21.5 -53.5t71.5 -30.5l68 -17q78 -20 113.5 -63t35.5 -112q0 -53 -18.5 -96.5t-54 -74.5t-86.5 -48.5t-116 -17.5zM318 755l-102 155l68 48l102 -116l135 116l61 -50l-148 -153h-116z" />
    <glyph glyph-name="scaron" unicode="&#x161;" 
d="M291 585l-102 155l68 48l102 -116l135 116l61 -50l-148 -153h-116zM261 -12q-77 0 -133 23t-85 65l75 70q24 -32 63 -49t89 -17q52 0 82 18t30 52q0 26 -16.5 36t-42.5 15l-74 15q-29 6 -55 15.5t-45.5 25t-31 39.5t-11.5 59q0 43 17.5 75t48.5 54t73 33t91 11
q69 0 121.5 -20t79.5 -55l-72 -72q-17 22 -50.5 38.5t-83.5 16.5q-48 0 -74.5 -17t-26.5 -49q0 -26 16.5 -36t42.5 -15l76 -16q30 -6 56 -15.5t45 -25t30 -38.5t11 -57q0 -42 -17.5 -75t-49.5 -56.5t-77.5 -35.5t-101.5 -12z" />
    <glyph glyph-name="uni0162" unicode="&#x162;" 
d="M243 -210q-43 0 -70.5 13t-40.5 31l47 49q8 -10 23 -19t39 -9q20 0 34 7.5t14 23.5q0 11 -12.5 22t-53.5 15l-24 2l28 75h-34l98 591h-211l18 107h551l-18 -107h-212l-98 -591h-32l-21 -57l3 -4q11 4 21.5 5t18.5 1q27 0 46 -14.5t19 -46.5q0 -23 -10.5 -40.5
t-28.5 -29.5t-42 -18t-52 -6z" />
    <glyph glyph-name="uni0163" unicode="&#x163;" 
d="M252 -210q-43 0 -70.5 13t-40.5 31l47 49q8 -10 23 -19t39 -9q20 0 34 7.5t14 23.5q0 11 -12.5 22t-53.5 15l-24 2l24 67q-39 8 -58 36.5t-19 71.5q0 11 2 25t5 32l43 259h-137l17 100h89q30 0 45.5 12t20.5 44l21 126h117l-30 -182h205l-17 -100h-205l-52 -316l20 -8
l176 131l62 -73l-76 -60q-56 -44 -93 -68.5t-74 -30.5l-17 -48l3 -4q11 4 21.5 5t18.5 1q27 0 46 -14.5t19 -46.5q0 -23 -10.5 -40.5t-28.5 -29.5t-42 -18t-52 -6z" />
    <glyph glyph-name="Tcaron" unicode="&#x164;" 
d="M419 591l-98 -591h-128l98 591h-211l18 107h551l-18 -107h-212zM326 755l-102 155l68 48l102 -116l135 116l61 -50l-148 -153h-116z" />
    <glyph glyph-name="tcaron" unicode="&#x165;" 
d="M513 566h-85l39 207h141zM266 -12q-57 0 -84 30.5t-27 81.5q0 11 2 25t5 32l43 259h-137l17 100h89q30 0 45.5 12t20.5 44l21 126h117l-30 -182h205l-17 -100h-205l-52 -316l20 -8l176 131l62 -73l-76 -60q-33 -26 -59 -45.5t-48.5 -32t-43.5 -18.5t-44 -6z" />
    <glyph glyph-name="Tbar" unicode="&#x166;" 
d="M371 300l-50 -300h-128l50 300h-150l16 97h150l32 194h-211l18 107h551l-18 -107h-212l-32 -194h150l-16 -97h-150z" />
    <glyph glyph-name="tbar" unicode="&#x167;" 
d="M268 -12q-58 0 -85.5 30.5t-27.5 81.5q0 11 2 25.5t5 31.5l15 94h-94l15 88h94l13 77h-137l17 100h89q30 0 45.5 12t20.5 44l21 126h117l-30 -182h205l-17 -100h-205l-13 -77h146l-15 -88h-145l-25 -152l17 -10l171 108l58 -75l-77 -54q-59 -41 -99.5 -60.5t-80.5 -19.5z
" />
    <glyph glyph-name="Utilde" unicode="&#x168;" 
d="M264 698l-70 -421q-5 -32 -8.5 -59t-3.5 -44q0 -37 20.5 -58.5t73.5 -21.5q37 0 60 11.5t37 33t22 52t14 68.5l73 439h128l-70 -421q-12 -69 -27.5 -122.5t-44.5 -90.5t-75.5 -56.5t-120.5 -19.5q-61 0 -102 13t-66.5 36.5t-36.5 57t-11 74.5q0 28 4 61.5t10 70.5l66 397
h128zM464 768q-24 0 -41 7t-34 16q-18 10 -35.5 16.5t-35.5 6.5q-17 0 -31 -6.5t-32 -20.5l-36 59q20 26 49.5 43.5t66.5 17.5q24 0 41 -7t34 -16q18 -10 35.5 -16.5t35.5 -6.5q17 0 31 6.5t32 20.5l36 -59q-20 -26 -49.5 -43.5t-66.5 -17.5z" />
    <glyph glyph-name="utilde" unicode="&#x169;" 
d="M373 122h-5q-29 -62 -68 -98t-101 -36q-36 0 -62.5 11.5t-43.5 31.5t-25.5 47t-8.5 59q0 37 10 96l47 283h126l-49 -295q-2 -14 -4.5 -30t-2.5 -32q0 -28 15 -50t52 -22q29 0 50 13.5t40 36.5q11 14 28 42.5t23 64.5l45 272h126l-86 -516h-126zM428 598q-24 0 -41 7
t-34 16q-18 10 -35.5 16.5t-35.5 6.5q-17 0 -31 -6.5t-32 -20.5l-36 59q20 26 49.5 43.5t66.5 17.5q24 0 41 -7t34 -16q18 -10 35.5 -16.5t35.5 -6.5q17 0 31 6.5t32 20.5l36 -59q-20 -26 -49.5 -43.5t-66.5 -17.5z" />
    <glyph glyph-name="Umacron" unicode="&#x16a;" 
d="M264 698l-70 -421q-5 -32 -8.5 -59t-3.5 -44q0 -37 20.5 -58.5t73.5 -21.5q37 0 60 11.5t37 33t22 52t14 68.5l73 439h128l-70 -421q-12 -69 -27.5 -122.5t-44.5 -90.5t-75.5 -56.5t-120.5 -19.5q-61 0 -102 13t-66.5 36.5t-36.5 57t-11 74.5q0 28 4 61.5t10 70.5l66 397
h128zM251 884h297l-16 -91h-296z" />
    <glyph glyph-name="umacron" unicode="&#x16b;" 
d="M373 122h-5q-29 -62 -68 -98t-101 -36q-36 0 -62.5 11.5t-43.5 31.5t-25.5 47t-8.5 59q0 37 10 96l47 283h126l-49 -295q-2 -14 -4.5 -30t-2.5 -32q0 -28 15 -50t52 -22q29 0 50 13.5t40 36.5q11 14 28 42.5t23 64.5l45 272h126l-86 -516h-126zM222 714h297l-16 -91h-296
z" />
    <glyph glyph-name="Ubreve" unicode="&#x16c;" 
d="M264 698l-70 -421q-5 -32 -8.5 -59t-3.5 -44q0 -37 20.5 -58.5t73.5 -21.5q37 0 60 11.5t37 33t22 52t14 68.5l73 439h128l-70 -421q-12 -69 -27.5 -122.5t-44.5 -90.5t-75.5 -56.5t-120.5 -19.5q-61 0 -102 13t-66.5 36.5t-36.5 57t-11 74.5q0 28 4 61.5t10 70.5l66 397
h128zM387 748q-42 0 -70.5 15t-48 38.5t-31 52.5t-17.5 58l71 35l18 -36q18 -35 34.5 -54t48.5 -19q29 0 48.5 18.5t48.5 56.5l26 34l73 -35q-15 -29 -33 -58.5t-42 -53t-55 -38t-71 -14.5z" />
    <glyph glyph-name="ubreve" unicode="&#x16d;" 
d="M373 122h-5q-29 -62 -68 -98t-101 -36q-36 0 -62.5 11.5t-43.5 31.5t-25.5 47t-8.5 59q0 37 10 96l47 283h126l-49 -295q-2 -14 -4.5 -30t-2.5 -32q0 -28 15 -50t52 -22q29 0 50 13.5t40 36.5q11 14 28 42.5t23 64.5l45 272h126l-86 -516h-126zM358 578q-42 0 -70.5 15
t-48 38.5t-31 52.5t-17.5 58l71 35l18 -36q18 -35 34.5 -54t48.5 -19q29 0 48.5 18.5t48.5 56.5l26 34l73 -35q-15 -29 -33 -58.5t-42 -53t-55 -38t-71 -14.5z" />
    <glyph glyph-name="Uring" unicode="&#x16e;" 
d="M377 728q-26 0 -48 9t-38.5 24.5t-25.5 37t-9 46.5q0 33 12.5 60.5t34 47.5t50 31t60.5 11q26 0 48 -9t38.5 -25t25.5 -37t9 -46q0 -33 -12.5 -60.5t-34 -47.5t-50 -31t-60.5 -11zM385 794q52 0 61 53q5 28 5 41q0 41 -46 41q-52 0 -61 -53q-5 -28 -5 -41q0 -41 46 -41z
M264 698l-70 -421q-5 -32 -8.5 -59t-3.5 -44q0 -37 20.5 -58.5t73.5 -21.5q37 0 60 11.5t37 33t22 52t14 68.5l73 439h128l-70 -421q-12 -69 -27.5 -122.5t-44.5 -90.5t-75.5 -56.5t-120.5 -19.5q-61 0 -102 13t-66.5 36.5t-36.5 57t-11 74.5q0 28 4 61.5t10 70.5l66 397
h128z" />
    <glyph glyph-name="uring" unicode="&#x16f;" 
d="M348 558q-26 0 -48 9t-38.5 24.5t-25.5 37t-9 46.5q0 33 12.5 60.5t34 47.5t50 31t60.5 11q26 0 48 -9t38.5 -25t25.5 -37t9 -46q0 -33 -12.5 -60.5t-34 -47.5t-50 -31t-60.5 -11zM356 624q52 0 61 53q5 28 5 41q0 41 -46 41q-52 0 -61 -53q-5 -28 -5 -41q0 -41 46 -41z
M373 122h-5q-29 -62 -68 -98t-101 -36q-36 0 -62.5 11.5t-43.5 31.5t-25.5 47t-8.5 59q0 37 10 96l47 283h126l-49 -295q-2 -14 -4.5 -30t-2.5 -32q0 -28 15 -50t52 -22q29 0 50 13.5t40 36.5q11 14 28 42.5t23 64.5l45 272h126l-86 -516h-126z" />
    <glyph glyph-name="Uhungarumlaut" unicode="&#x170;" 
d="M293 746l-68 34l108 185l95 -51zM481 746l-68 34l108 185l95 -51zM264 698l-70 -421q-5 -32 -8.5 -59t-3.5 -44q0 -37 20.5 -58.5t73.5 -21.5q37 0 60 11.5t37 33t22 52t14 68.5l73 439h128l-70 -421q-12 -69 -27.5 -122.5t-44.5 -90.5t-75.5 -56.5t-120.5 -19.5
q-61 0 -102 13t-66.5 36.5t-36.5 57t-11 74.5q0 28 4 61.5t10 70.5l66 397h128z" />
    <glyph glyph-name="uhungarumlaut" unicode="&#x171;" 
d="M373 122h-5q-29 -62 -68 -98t-101 -36q-36 0 -62.5 11.5t-43.5 31.5t-25.5 47t-8.5 59q0 37 10 96l47 283h126l-49 -295q-2 -14 -4.5 -30t-2.5 -32q0 -28 15 -50t52 -22q29 0 50 13.5t40 36.5q11 14 28 42.5t23 64.5l45 272h126l-86 -516h-126zM264 576l-68 34l108 185
l95 -51zM452 576l-68 34l108 185l95 -51z" />
    <glyph glyph-name="Uogonek" unicode="&#x172;" 
d="M264 698l-70 -421q-5 -32 -8.5 -59t-3.5 -44q0 -37 20 -58.5t73 -21.5q38 0 61.5 11.5t37.5 33t21.5 52t13.5 68.5l73 439h128l-70 -420q-9 -51 -19 -92.5t-25.5 -74.5t-40 -58.5t-61.5 -44.5q-35 -18 -56.5 -36.5t-33.5 -34.5t-16.5 -29t-4.5 -22q0 -14 9.5 -22t27.5 -8
q14 0 28 6t25 21l50 -45q-17 -20 -45 -34t-70 -14q-49 0 -82 20t-33 61q0 70 105 113l-2 5q-8 -1 -14 -1h-13q-60 0 -100.5 13t-65.5 36.5t-36 57t-11 74.5q0 28 4 61.5t10 70.5l66 397h128z" />
    <glyph glyph-name="uogonek" unicode="&#x173;" 
d="M479 0q-40 -24 -63.5 -42t-35.5 -31.5t-15.5 -23t-3.5 -17.5q0 -14 9.5 -22t27.5 -8q14 0 28 6t25 21l50 -45q-17 -20 -45 -34t-70 -14q-49 0 -82 20t-33 61q0 39 33.5 71t102.5 53v5h-54l20 122h-5q-29 -62 -68 -98t-101 -36q-36 0 -62.5 11.5t-43.5 31.5t-25.5 47
t-8.5 59q0 37 10 96l47 283h126l-49 -295q-2 -14 -4.5 -30t-2.5 -32q0 -28 15 -50t52 -22q29 0 50 13.5t40 36.5q11 14 28 42.5t23 64.5l45 272h126z" />
    <glyph glyph-name="Wcircumflex" unicode="&#x174;" 
d="M467 949l102 -155l-68 -48l-102 116l-135 -116l-61 50l148 153h116zM21 0l70 698h111l-44 -404l-19 -174h9l137 417h123l2 -417h9l34 161l94 417h107l-163 -698h-169l6 396h-9l-129 -396h-169z" />
    <glyph glyph-name="wcircumflex" unicode="&#x175;" 
d="M438 779l102 -155l-68 -48l-102 116l-135 -116l-61 50l148 153h116zM116 -11q-49 0 -71.5 29t-22.5 77q0 14 2 39t6 48l56 334h100l-55 -330q-2 -11 -4 -26.5t-2 -26.5q0 -42 36 -42q17 0 30 11t25 29q9 13 14.5 32.5t8.5 37.5l53 315h99l-56 -337q-2 -11 -3.5 -25.5
t-1.5 -22.5q0 -19 7.5 -30.5t26.5 -11.5q21 0 40.5 23.5t34.5 62.5t24 89t9 103q0 35 -5 70t-15 59l91 27q14 -28 23 -67.5t9 -88.5q0 -90 -22.5 -167.5t-62.5 -129.5q-30 -40 -68.5 -60.5t-80.5 -20.5q-51 0 -73 29.5t-19 78.5h-6q-20 -53 -51 -80.5t-76 -27.5z" />
    <glyph glyph-name="Ycircumflex" unicode="&#x176;" 
d="M194 0l42 254l-154 444h137l55 -170l39 -144h8l89 144l109 170h145l-299 -440l-43 -258h-128zM462 949l102 -155l-68 -48l-102 116l-135 -116l-61 50l148 153h116z" />
    <glyph glyph-name="ycircumflex" unicode="&#x177;" 
d="M214 -212q-69 0 -118 16t-84 58l77 79q23 -28 54 -40.5t69 -12.5q30 0 54.5 7t43 24.5t31 47.5t19.5 75l16 97h-5q-14 -31 -30.5 -56t-37 -42.5t-45.5 -27t-56 -9.5q-36 0 -62.5 11.5t-43.5 31.5t-25.5 47t-8.5 59q0 20 2 41t7 53l45 269h126l-47 -280q-2 -14 -4 -29
t-2 -31q0 -28 15 -50t52 -22q29 0 50 13t40 36q11 14 27.5 42.5t22.5 64.5l43 256h126l-82 -491q-20 -123 -89.5 -180t-179.5 -57zM446 779l102 -155l-68 -48l-102 116l-135 -116l-61 50l148 153h116z" />
    <glyph glyph-name="Ydieresis" unicode="&#x178;" 
d="M194 0l42 254l-154 444h137l55 -170l39 -144h8l89 144l109 170h145l-299 -440l-43 -258h-128zM277 770q-38 0 -53 14t-15 35q0 5 1 12.5t4 19.5q6 26 22.5 40.5t53.5 14.5q38 0 53 -14t15 -35q0 -5 -1 -12.5t-4 -19.5q-6 -26 -22.5 -40.5t-53.5 -14.5zM486 770
q-38 0 -53 14t-15 35q0 5 1 12.5t4 19.5q6 26 22.5 40.5t53.5 14.5q38 0 53 -14t15 -35q0 -5 -1 -12.5t-4 -19.5q-6 -26 -22.5 -40.5t-53.5 -14.5z" />
    <glyph glyph-name="Zacute" unicode="&#x179;" 
d="M507 0h-500l19 115l417 476h-325l18 107h475l-19 -115l-417 -476h350zM384 745l-74 40l113 183l100 -54z" />
    <glyph glyph-name="zacute" unicode="&#x17a;" 
d="M345 575l-74 40l113 183l100 -54zM417 -11q-32 0 -65.5 7t-72.5 24l-124 54l-5 -3l-12 -71h-111l18 107l331 277q-38 25 -66.5 35t-59.5 10q-72 0 -72 -89h-95v10q0 86 43 132t118 46q45 0 92.5 -17.5t102.5 -64.5l7 -6l6 6l12 70h111l-18 -107l-334 -279l214 -43l11 12
l-31 102l77 32l15 -31q14 -29 21.5 -52.5t7.5 -46.5q0 -22 -8.5 -42.5t-24 -36.5t-38 -25.5t-50.5 -9.5z" />
    <glyph glyph-name="Zdotaccent" unicode="&#x17b;" 
d="M380 762q-42 0 -58.5 16t-16.5 39q0 6 1.5 14t3.5 21q5 29 24 45.5t61 16.5t58.5 -16t16.5 -39q0 -6 -1.5 -14t-3.5 -21q-5 -29 -24 -45.5t-61 -16.5zM507 0h-500l19 115l417 476h-325l18 107h475l-19 -115l-417 -476h350z" />
    <glyph glyph-name="zdotaccent" unicode="&#x17c;" 
d="M417 -11q-32 0 -65.5 7t-72.5 24l-124 54l-5 -3l-12 -71h-111l18 107l331 277q-38 25 -66.5 35t-59.5 10q-72 0 -72 -89h-95v10q0 86 43 132t118 46q45 0 92.5 -17.5t102.5 -64.5l7 -6l6 6l12 70h111l-18 -107l-334 -279l214 -43l11 12l-31 102l77 32l15 -31
q14 -29 21.5 -52.5t7.5 -46.5q0 -22 -8.5 -42.5t-24 -36.5t-38 -25.5t-50.5 -9.5zM340 592q-42 0 -58.5 16t-16.5 39q0 6 1.5 14t3.5 21q5 29 24 45.5t61 16.5t58.5 -16t16.5 -39q0 -6 -1.5 -14t-3.5 -21q-5 -29 -24 -45.5t-61 -16.5z" />
    <glyph glyph-name="Zcaron" unicode="&#x17d;" 
d="M507 0h-500l19 115l417 476h-325l18 107h475l-19 -115l-417 -476h350zM319 755l-102 155l68 48l102 -116l135 116l61 -50l-148 -153h-116z" />
    <glyph glyph-name="zcaron" unicode="&#x17e;" 
d="M279 585l-102 155l68 48l102 -116l135 116l61 -50l-148 -153h-116zM417 -11q-32 0 -65.5 7t-72.5 24l-124 54l-5 -3l-12 -71h-111l18 107l331 277q-38 25 -66.5 35t-59.5 10q-72 0 -72 -89h-95v10q0 86 43 132t118 46q45 0 92.5 -17.5t102.5 -64.5l7 -6l6 6l12 70h111
l-18 -107l-334 -279l214 -43l11 12l-31 102l77 32l15 -31q14 -29 21.5 -52.5t7.5 -46.5q0 -22 -8.5 -42.5t-24 -36.5t-38 -25.5t-50.5 -9.5z" />
    <glyph glyph-name="uni017F" unicode="&#x17f;" 
d="M181 -212q-24 0 -44 8t-38.5 23.5t-37.5 38.5t-41 52l-47 61l86 63l118 -144l14 4l86 522h-168l17 100h168l14 87q10 59 50.5 98t114.5 39h177l-17 -100h-193l-118 -710q-24 -142 -141 -142z" />
    <glyph glyph-name="uni018F" unicode="&#x18f;" 
d="M267 -12q-111 0 -166 67t-55 191q0 17 1.5 45.5t6.5 57.5l7 41h392l2 12q4 21 5.5 40.5t1.5 32.5q0 62 -25.5 96t-82.5 34q-29 0 -52 -9t-41.5 -26t-33 -41t-26.5 -53l-106 44q36 91 104 140.5t167 49.5q113 0 167.5 -67t54.5 -208q0 -75 -16.5 -154t-54.5 -144
t-99.5 -107t-150.5 -42zM273 91q70 0 109 53t54 145l1 6h-259q-5 -20 -6.5 -43t-1.5 -40q0 -54 23 -87.5t80 -33.5z" />
    <glyph glyph-name="florin" unicode="&#x192;" 
d="M129 -212q-26 0 -45.5 7.5t-37.5 22.5t-35.5 36.5t-38.5 49.5l-51 68l84 60l114 -142l18 6l110 442h-148l16 100h157l32 128q15 62 60 97t119 35h162l-17 -100h-189l-40 -160h173l-16 -100h-181l-103 -411q-18 -72 -52.5 -105.5t-90.5 -33.5z" />
    <glyph glyph-name="Ohorn" unicode="&#x1a0;" 
d="M646 709q-7 -41 -28 -64.5t-73 -23.5h-2q23 -32 32.5 -73.5t9.5 -92.5q0 -82 -16.5 -165.5t-53 -150.5t-96 -109t-146.5 -42q-119 0 -174 67.5t-55 187.5q0 82 16.5 165.5t53 150.5t96 109t146.5 42q49 0 87 -12h94l19 114h107zM275 94q68 0 103.5 51.5t50.5 144.5
l20 117q6 40 6 76q0 57 -24 89t-77 32q-68 0 -103.5 -51.5t-50.5 -144.5l-20 -117q-6 -41 -6 -76q0 -57 24 -89t77 -32z" />
    <glyph glyph-name="ohorn" unicode="&#x1a1;" 
d="M265 -12q-51 0 -91.5 15.5t-68 44.5t-42 70t-14.5 91q0 74 21 133t59 100.5t90.5 63.5t114.5 22q44 0 82 -12h85l19 114h108l-17 -103q-8 -42 -29 -62.5t-73 -21.5q21 -26 31.5 -58.5t10.5 -77.5q0 -74 -21 -133t-59 -100.5t-90.5 -63.5t-115.5 -22zM274 85
q56 0 89.5 33.5t44.5 95.5l12 71q2 12 3.5 24t1.5 21q0 51 -26.5 76t-72.5 25q-56 0 -89.5 -33.5t-44.5 -95.5l-12 -71q-2 -12 -3.5 -24t-1.5 -21q0 -51 26.5 -76t72.5 -25z" />
    <glyph glyph-name="Uhorn" unicode="&#x1af;" 
d="M264 698l-70 -421q-5 -32 -8.5 -59t-3.5 -44q0 -37 20.5 -58.5t73.5 -21.5q37 0 60 11.5t37 33t22 52t14 68.5l73 439h80l19 114h107l-17 -103q-6 -35 -21.5 -57t-51.5 -28l-58 -347q-12 -69 -27.5 -122.5t-44.5 -90.5t-75.5 -56.5t-120.5 -19.5q-61 0 -102 13
t-66.5 36.5t-36.5 57t-11 74.5q0 28 4 61.5t10 70.5l66 397h128z" />
    <glyph glyph-name="uhorn" unicode="&#x1b0;" 
d="M199 -12q-36 0 -62.5 11.5t-43.5 31.5t-25.5 47t-8.5 59q0 37 10 96l47 283h126l-49 -295q-2 -14 -4.5 -30t-2.5 -32q0 -28 15 -50t52 -22q29 0 50 13.5t40 36.5q11 14 28 42.5t23 64.5l45 272h86l20 114h107l-17 -103q-7 -38 -24.5 -60.5t-58.5 -25.5l-73 -441h-126
l20 122h-5q-29 -62 -68 -98t-101 -36z" />
    <glyph glyph-name="uni01CD" unicode="&#x1cd;" 
d="M412 0l-18 178h-212l-76 -178h-135l314 698h178l82 -698h-133zM359 572h-9l-124 -288h160zM326 755l-102 155l68 48l102 -116l135 116l61 -50l-148 -153h-116z" />
    <glyph glyph-name="uni01CE" unicode="&#x1ce;" 
d="M189 -12q-76 0 -111 52.5t-35 152.5q0 67 15.5 128t45 107t73 73t100.5 27t89 -27.5t46 -78.5h5l16 94h126l-70 -420h58l-16 -96h-70q-54 0 -79.5 27t-17.5 76l3 19h-4q-15 -30 -31.5 -54.5t-37 -42t-46.5 -27.5t-59 -10zM244 88q52 0 94 51q14 17 29.5 44.5t20.5 59.5
l15 94q7 40 -14 65.5t-72 25.5q-60 0 -90.5 -36t-40.5 -97l-11 -66q-2 -9 -3 -20t-1 -25q0 -43 17 -69.5t56 -26.5zM279 585l-102 155l68 48l102 -116l135 116l61 -50l-148 -153h-116z" />
    <glyph glyph-name="uni01CF" unicode="&#x1cf;" 
d="M35 0l16 97h158l84 504h-158l16 97h444l-16 -97h-158l-84 -504h158l-16 -97h-444zM328 755l-102 155l68 48l102 -116l135 116l61 -50l-148 -153h-116z" />
    <glyph glyph-name="uni01D0" unicode="&#x1d0;" 
d="M290 -12q-54 0 -82 28.5t-28 76.5q0 14 2 29t7 39l49 255h-166l17 100h293l-81 -422l19 -6l157 151l70 -63l-70 -74q-56 -60 -98.5 -87t-88.5 -27zM273 585l-102 155l68 48l102 -116l135 116l61 -50l-148 -153h-116z" />
    <glyph glyph-name="uni01D1" unicode="&#x1d1;" 
d="M273 -12q-119 0 -174 67.5t-55 187.5q0 82 16.5 165.5t53 150.5t96 109t146.5 42q119 0 174 -67.5t55 -187.5q0 -82 -16.5 -165.5t-53 -150.5t-96 -109t-146.5 -42zM275 94q68 0 103.5 51.5t50.5 144.5l20 117q6 40 6 76q0 57 -24 89t-77 32q-68 0 -103.5 -51.5
t-50.5 -144.5l-20 -117q-6 -41 -6 -76q0 -57 24 -89t77 -32zM315 755l-102 155l68 48l102 -116l135 116l61 -50l-148 -153h-116z" />
    <glyph glyph-name="uni01D2" unicode="&#x1d2;" 
d="M265 -12q-51 0 -91.5 15.5t-68 44.5t-42 70t-14.5 91q0 74 21 133t59 100.5t90.5 63.5t115.5 22q51 0 91.5 -15.5t68 -44.5t42 -70t14.5 -91q0 -74 -21 -133t-59 -100.5t-90.5 -63.5t-115.5 -22zM274 85q56 0 89.5 33.5t44.5 95.5l12 71q2 12 3.5 24t1.5 21
q0 51 -26.5 76t-72.5 25q-56 0 -89.5 -33.5t-44.5 -95.5l-12 -71q-2 -12 -3.5 -24t-1.5 -21q0 -51 26.5 -76t72.5 -25zM299 585l-102 155l68 48l102 -116l135 116l61 -50l-148 -153h-116z" />
    <glyph glyph-name="uni01D3" unicode="&#x1d3;" 
d="M264 698l-70 -421q-5 -32 -8.5 -59t-3.5 -44q0 -37 20.5 -58.5t73.5 -21.5q37 0 60 11.5t37 33t22 52t14 68.5l73 439h128l-70 -421q-12 -69 -27.5 -122.5t-44.5 -90.5t-75.5 -56.5t-120.5 -19.5q-61 0 -102 13t-66.5 36.5t-36.5 57t-11 74.5q0 28 4 61.5t10 70.5l66 397
h128zM325 755l-102 155l68 48l102 -116l135 116l61 -50l-148 -153h-116z" />
    <glyph glyph-name="uni01D4" unicode="&#x1d4;" 
d="M373 122h-5q-29 -62 -68 -98t-101 -36q-36 0 -62.5 11.5t-43.5 31.5t-25.5 47t-8.5 59q0 37 10 96l47 283h126l-49 -295q-2 -14 -4.5 -30t-2.5 -32q0 -28 15 -50t52 -22q29 0 50 13.5t40 36.5q11 14 28 42.5t23 64.5l45 272h126l-86 -516h-126zM295 585l-102 155l68 48
l102 -116l135 116l61 -50l-148 -153h-116z" />
    <glyph glyph-name="uni01D5" unicode="&#x1d5;" 
d="M264 698l-70 -421q-5 -32 -8.5 -59t-3.5 -44q0 -37 20.5 -58.5t73.5 -21.5q37 0 60 11.5t37 33t22 52t14 68.5l73 439h128l-70 -421q-12 -69 -27.5 -122.5t-44.5 -90.5t-75.5 -56.5t-120.5 -19.5q-61 0 -102 13t-66.5 36.5t-36.5 57t-11 74.5q0 28 4 61.5t10 70.5l66 397
h128zM277 1034h296l-16 -92h-296zM278 755q-38 0 -53 14t-15 35q0 5 1 12.5t4 19.5q6 26 22.5 40.5t53.5 14.5q38 0 53 -14t15 -35q0 -5 -1 -12.5t-4 -19.5q-6 -26 -22.5 -40.5t-53.5 -14.5zM490 755q-38 0 -53 14t-15 35q0 5 1 12.5t4 19.5q6 26 22.5 40.5t53.5 14.5
q38 0 53 -14t15 -35q0 -5 -1 -12.5t-4 -19.5q-6 -26 -22.5 -40.5t-53.5 -14.5z" />
    <glyph glyph-name="uni01D6" unicode="&#x1d6;" 
d="M373 122h-5q-29 -62 -68 -98t-101 -36q-36 0 -62.5 11.5t-43.5 31.5t-25.5 47t-8.5 59q0 37 10 96l47 283h126l-49 -295q-2 -14 -4.5 -30t-2.5 -32q0 -28 15 -50t52 -22q29 0 50 13.5t40 36.5q11 14 28 42.5t23 64.5l45 272h126l-86 -516h-126zM247 864h296l-16 -92h-296
zM248 585q-38 0 -53 14t-15 35q0 5 1 12.5t4 19.5q6 26 22.5 40.5t53.5 14.5q38 0 53 -14t15 -35q0 -5 -1 -12.5t-4 -19.5q-6 -26 -22.5 -40.5t-53.5 -14.5zM460 585q-38 0 -53 14t-15 35q0 5 1 12.5t4 19.5q6 26 22.5 40.5t53.5 14.5q38 0 53 -14t15 -35q0 -5 -1 -12.5
t-4 -19.5q-6 -26 -22.5 -40.5t-53.5 -14.5z" />
    <glyph glyph-name="uni01D7" unicode="&#x1d7;" 
d="M264 698l-70 -421q-5 -32 -8.5 -59t-3.5 -44q0 -37 20.5 -58.5t73.5 -21.5q37 0 60 11.5t37 33t22 52t14 68.5l73 439h128l-70 -421q-12 -69 -27.5 -122.5t-44.5 -90.5t-75.5 -56.5t-120.5 -19.5q-61 0 -102 13t-66.5 36.5t-36.5 57t-11 74.5q0 28 4 61.5t10 70.5l66 397
h128zM409 888l-69 36l105 186l96 -52zM278 755q-38 0 -53 14t-15 35q0 5 1 12.5t4 19.5q6 26 22.5 40.5t53.5 14.5q38 0 53 -14t15 -35q0 -5 -1 -12.5t-4 -19.5q-6 -26 -22.5 -40.5t-53.5 -14.5zM490 755q-38 0 -53 14t-15 35q0 5 1 12.5t4 19.5q6 26 22.5 40.5t53.5 14.5
q38 0 53 -14t15 -35q0 -5 -1 -12.5t-4 -19.5q-6 -26 -22.5 -40.5t-53.5 -14.5z" />
    <glyph glyph-name="uni01D8" unicode="&#x1d8;" 
d="M373 122h-5q-29 -62 -68 -98t-101 -36q-36 0 -62.5 11.5t-43.5 31.5t-25.5 47t-8.5 59q0 37 10 96l47 283h126l-49 -295q-2 -14 -4.5 -30t-2.5 -32q0 -28 15 -50t52 -22q29 0 50 13.5t40 36.5q11 14 28 42.5t23 64.5l45 272h126l-86 -516h-126zM379 718l-69 36l105 186
l96 -52zM248 585q-38 0 -53 14t-15 35q0 5 1 12.5t4 19.5q6 26 22.5 40.5t53.5 14.5q38 0 53 -14t15 -35q0 -5 -1 -12.5t-4 -19.5q-6 -26 -22.5 -40.5t-53.5 -14.5zM460 585q-38 0 -53 14t-15 35q0 5 1 12.5t4 19.5q6 26 22.5 40.5t53.5 14.5q38 0 53 -14t15 -35
q0 -5 -1 -12.5t-4 -19.5q-6 -26 -22.5 -40.5t-53.5 -14.5z" />
    <glyph glyph-name="uni01D9" unicode="&#x1d9;" 
d="M264 698l-70 -421q-5 -32 -8.5 -59t-3.5 -44q0 -37 20.5 -58.5t73.5 -21.5q37 0 60 11.5t37 33t22 52t14 68.5l73 439h128l-70 -421q-12 -69 -27.5 -122.5t-44.5 -90.5t-75.5 -56.5t-120.5 -19.5q-61 0 -102 13t-66.5 36.5t-36.5 57t-11 74.5q0 28 4 61.5t10 70.5l66 397
h128zM356 912l-111 148l62 53l103 -108l140 108l58 -55l-159 -146h-93zM278 755q-38 0 -53 14t-15 35q0 5 1 12.5t4 19.5q6 26 22.5 40.5t53.5 14.5q38 0 53 -14t15 -35q0 -5 -1 -12.5t-4 -19.5q-6 -26 -22.5 -40.5t-53.5 -14.5zM490 755q-38 0 -53 14t-15 35q0 5 1 12.5
t4 19.5q6 26 22.5 40.5t53.5 14.5q38 0 53 -14t15 -35q0 -5 -1 -12.5t-4 -19.5q-6 -26 -22.5 -40.5t-53.5 -14.5z" />
    <glyph glyph-name="uni01DA" unicode="&#x1da;" 
d="M373 122h-5q-29 -62 -68 -98t-101 -36q-36 0 -62.5 11.5t-43.5 31.5t-25.5 47t-8.5 59q0 37 10 96l47 283h126l-49 -295q-2 -14 -4.5 -30t-2.5 -32q0 -28 15 -50t52 -22q29 0 50 13.5t40 36.5q11 14 28 42.5t23 64.5l45 272h126l-86 -516h-126zM326 742l-111 148l62 53
l103 -108l140 108l58 -55l-159 -146h-93zM248 585q-38 0 -53 14t-15 35q0 5 1 12.5t4 19.5q6 26 22.5 40.5t53.5 14.5q38 0 53 -14t15 -35q0 -5 -1 -12.5t-4 -19.5q-6 -26 -22.5 -40.5t-53.5 -14.5zM460 585q-38 0 -53 14t-15 35q0 5 1 12.5t4 19.5q6 26 22.5 40.5
t53.5 14.5q38 0 53 -14t15 -35q0 -5 -1 -12.5t-4 -19.5q-6 -26 -22.5 -40.5t-53.5 -14.5z" />
    <glyph glyph-name="uni01DB" unicode="&#x1db;" 
d="M264 698l-70 -421q-5 -32 -8.5 -59t-3.5 -44q0 -37 20.5 -58.5t73.5 -21.5q37 0 60 11.5t37 33t22 52t14 68.5l73 439h128l-70 -421q-12 -69 -27.5 -122.5t-44.5 -90.5t-75.5 -56.5t-120.5 -19.5q-61 0 -102 13t-66.5 36.5t-36.5 57t-11 74.5q0 28 4 61.5t10 70.5l66 397
h128zM288 1063l105 48l64 -188l-71 -32zM278 755q-38 0 -53 14t-15 35q0 5 1 12.5t4 19.5q6 26 22.5 40.5t53.5 14.5q38 0 53 -14t15 -35q0 -5 -1 -12.5t-4 -19.5q-6 -26 -22.5 -40.5t-53.5 -14.5zM490 755q-38 0 -53 14t-15 35q0 5 1 12.5t4 19.5q6 26 22.5 40.5t53.5 14.5
q38 0 53 -14t15 -35q0 -5 -1 -12.5t-4 -19.5q-6 -26 -22.5 -40.5t-53.5 -14.5z" />
    <glyph glyph-name="uni01DC" unicode="&#x1dc;" 
d="M373 122h-5q-29 -62 -68 -98t-101 -36q-36 0 -62.5 11.5t-43.5 31.5t-25.5 47t-8.5 59q0 37 10 96l47 283h126l-49 -295q-2 -14 -4.5 -30t-2.5 -32q0 -28 15 -50t52 -22q29 0 50 13.5t40 36.5q11 14 28 42.5t23 64.5l45 272h126l-86 -516h-126zM258 893l105 48l64 -188
l-71 -32zM248 585q-38 0 -53 14t-15 35q0 5 1 12.5t4 19.5q6 26 22.5 40.5t53.5 14.5q38 0 53 -14t15 -35q0 -5 -1 -12.5t-4 -19.5q-6 -26 -22.5 -40.5t-53.5 -14.5zM460 585q-38 0 -53 14t-15 35q0 5 1 12.5t4 19.5q6 26 22.5 40.5t53.5 14.5q38 0 53 -14t15 -35
q0 -5 -1 -12.5t-4 -19.5q-6 -26 -22.5 -40.5t-53.5 -14.5z" />
    <glyph glyph-name="Aringacute" unicode="&#x1fa;" 
d="M412 0l-18 178h-212l-76 -178h-135l314 698h178l82 -698h-133zM359 572h-9l-124 -288h160zM415 979l-46 47l127 116l61 -67zM376 730q-53 0 -88.5 27.5t-35.5 75.5q0 30 12.5 54t34 41.5t49.5 26.5t60 9q53 0 88.5 -27.5t35.5 -75.5q0 -30 -12.5 -54t-34 -41.5t-50 -26.5
t-59.5 -9zM383 792q53 0 62 47q3 18 3 26q0 37 -47 37q-53 0 -62 -47q-3 -18 -3 -26q0 -37 47 -37z" />
    <glyph glyph-name="aringacute" unicode="&#x1fb;" 
d="M189 -12q-76 0 -111 52.5t-35 152.5q0 67 15.5 128t45 107t73 73t100.5 27t89 -27.5t46 -78.5h5l16 94h126l-70 -420h58l-16 -96h-70q-54 0 -79.5 27t-17.5 76l3 19h-4q-15 -30 -31.5 -54.5t-37 -42t-46.5 -27.5t-59 -10zM244 88q52 0 94 51q14 17 29.5 44.5t20.5 59.5
l15 94q7 40 -14 65.5t-72 25.5q-60 0 -90.5 -36t-40.5 -97l-11 -66q-2 -9 -3 -20t-1 -25q0 -43 17 -69.5t56 -26.5zM371 809l-46 47l127 116l61 -67zM332 560q-53 0 -88.5 27.5t-35.5 75.5q0 30 12.5 54t34 41.5t49.5 26.5t60 9q53 0 88.5 -27.5t35.5 -75.5q0 -30 -12.5 -54
t-34 -41.5t-50 -26.5t-59.5 -9zM339 622q53 0 62 47q3 18 3 26q0 37 -47 37q-53 0 -62 -47q-3 -18 -3 -26q0 -37 47 -37z" />
    <glyph glyph-name="AEacute" unicode="&#x1fc;" 
d="M305 179h-117l-71 -179h-126l289 698h390l-16 -98h-159l-33 -198h148l-16 -98h-148l-35 -206h159l-16 -98h-278zM353 608l-128 -332h97l55 332h-24zM463 745l-74 40l113 183l100 -54z" />
    <glyph glyph-name="aeacute" unicode="&#x1fd;" 
d="M359 575l-74 40l113 183l100 -54zM113 -12q-52 0 -85 32.5t-33 98.5q0 84 55 131t154 49l47 1l7 46q2 11 3 19.5t1 15.5q0 33 -15 49.5t-42 16.5q-31 0 -52 -19.5t-38 -54.5l-69 43q27 58 67 85t97 27q51 0 81.5 -21.5t34.5 -63.5h4q21 38 55.5 61.5t83.5 23.5
q60 0 95 -35.5t35 -94.5q0 -28 -10.5 -57t-39 -53.5t-78.5 -40.5t-129 -18l-2 -13q-2 -14 -3 -28t-1 -24q0 -43 15.5 -67t46.5 -24t49.5 22.5t33.5 56.5l80 -35q-26 -60 -66.5 -94.5t-103.5 -34.5q-55 0 -94 29t-45 93h-5q-29 -122 -134 -122zM143 68q33 0 55.5 26.5
t30.5 75.5l10 60l-37 -1q-45 -2 -73 -18.5t-35 -57.5q-2 -14 -2.5 -22t-0.5 -11q0 -26 14.5 -39t37.5 -13zM456 448q-38 0 -63.5 -37.5t-36.5 -99.5l-2 -12q43 1 72 9.5t47 21.5t25.5 29.5t7.5 35.5q0 53 -50 53z" />
    <glyph glyph-name="Oslashacute" unicode="&#x1fe;" 
d="M273 -12q-90 0 -145 41l-65 -87l-79 51l85 111q-14 28 -19.5 63t-5.5 76q0 82 16.5 165.5t53 150.5t96 109t146.5 42q90 0 145 -41l65 87l79 -51l-85 -111q14 -28 19.5 -63t5.5 -76q0 -82 -16.5 -165.5t-53 -150.5t-96 -109t-146.5 -42zM179 301q-4 -21 -5.5 -37.5
t-1.5 -29.5v-5l261 343q-25 33 -79 33q-68 0 -104.5 -51t-52.5 -144zM275 93q68 0 104.5 51t52.5 144l18 109q4 21 5.5 37.5t1.5 29.5v5l-261 -343q25 -33 79 -33zM378 745l-74 40l113 183l100 -54z" />
    <glyph glyph-name="oslashacute" unicode="&#x1ff;" 
d="M-10 2l86 88q-13 25 -20 54.5t-7 64.5q0 74 21 133t59 100.5t90.5 63.5t115.5 22q82 0 137 -41l77 80l61 -53l-86 -88q13 -25 20 -54.5t7 -64.5q0 -74 -21 -133t-59 -100.5t-90.5 -63.5t-115.5 -22q-82 0 -137 41l-77 -80zM326 431q-56 0 -90 -33.5t-44 -94.5l-12 -72
q-2 -10 -3.5 -22.5t-1.5 -18.5v-6l219 226q-24 21 -68 21zM274 85q57 0 90.5 33.5t43.5 94.5l12 72q2 11 3.5 23t1.5 18v6l-219 -226q24 -21 68 -21zM334 575l-74 40l113 183l100 -54z" />
    <glyph glyph-name="Scommaaccent" unicode="&#x218;" 
d="M190 -57h142l-116 -206h-80zM267 -12q-88 0 -153.5 30t-97.5 82l84 80q31 -43 77 -64t98 -21q65 0 99.5 30.5t34.5 84.5q0 38 -20.5 57.5t-68.5 30.5l-71 16q-78 17 -113.5 62.5t-35.5 111.5q0 51 18.5 92t53 70t83 44.5t108.5 15.5q81 0 140 -28.5t88 -74.5l-86 -76
q-25 35 -61.5 54.5t-86.5 19.5q-61 0 -93 -28t-32 -76q0 -35 21.5 -53.5t71.5 -30.5l68 -17q78 -20 113.5 -63t35.5 -112q0 -53 -18.5 -96.5t-54 -74.5t-86.5 -48.5t-116 -17.5z" />
    <glyph glyph-name="scommaaccent" unicode="&#x219;" 
d="M186 -57h142l-116 -206h-80zM261 -12q-77 0 -133 23t-85 65l75 70q24 -32 63 -49t89 -17q52 0 82 18t30 52q0 26 -16.5 36t-42.5 15l-74 15q-29 6 -55 15.5t-45.5 25t-31 39.5t-11.5 59q0 43 17.5 75t48.5 54t73 33t91 11q69 0 121.5 -20t79.5 -55l-72 -72
q-17 22 -50.5 38.5t-83.5 16.5q-48 0 -74.5 -17t-26.5 -49q0 -26 16.5 -36t42.5 -15l76 -16q30 -6 56 -15.5t45 -25t30 -38.5t11 -57q0 -42 -17.5 -75t-49.5 -56.5t-77.5 -35.5t-101.5 -12z" />
    <glyph glyph-name="uni021A" unicode="&#x21a;" 
d="M179 -57h142l-116 -206h-80zM419 591l-98 -591h-128l98 591h-211l18 107h551l-18 -107h-212z" />
    <glyph glyph-name="uni021B" unicode="&#x21b;" 
d="M187 -57h142l-116 -206h-80zM266 -12q-57 0 -84 30.5t-27 81.5q0 11 2 25t5 32l43 259h-137l17 100h89q30 0 45.5 12t20.5 44l21 126h117l-30 -182h205l-17 -100h-205l-52 -316l20 -8l176 131l62 -73l-76 -60q-33 -26 -59 -45.5t-48.5 -32t-43.5 -18.5t-44 -6z" />
    <glyph glyph-name="uni0237" unicode="&#x237;" 
d="M234 -212q-26 0 -46.5 8.5t-40 25.5t-40 43t-45.5 62l-42 56l86 63l127 -159l14 5l87 524h-196l17 100h322l-96 -574q-13 -78 -48 -116t-99 -38z" />
    <glyph glyph-name="uni0259" unicode="&#x259;" 
d="M241 -12q-39 0 -72.5 9t-59 26.5t-40 44t-14.5 61.5q0 30 13 60.5t51 55.5t108.5 42.5t184.5 21.5q1 6 1 10.5v7.5q0 46 -23.5 74t-84.5 28q-24 0 -43 -4.5t-36.5 -16t-35 -29.5t-37.5 -45l-80 51q21 31 44.5 57.5t53 45.5t66 29.5t83.5 10.5q110 0 164.5 -57.5
t54.5 -163.5q0 -71 -21.5 -130t-60.5 -101t-94 -65t-122 -23zM253 80q57 0 94.5 32.5t52.5 106.5l3 15q-77 -4 -121.5 -14t-67.5 -23t-29.5 -28.5t-6.5 -29.5q0 -27 17.5 -43t57.5 -16z" />
    <glyph glyph-name="uni02BB" unicode="&#x2bb;" 
d="M355 788h80l-54 -206h-142z" />
    <glyph glyph-name="uni02BC" unicode="&#x2bc;" 
d="M205 533h-85l39 207h141z" />
    <glyph glyph-name="circumflex" unicode="&#x2c6;" 
d="M399 779l102 -155l-68 -48l-102 116l-135 -116l-61 50l148 153h116z" />
    <glyph glyph-name="caron" unicode="&#x2c7;" 
d="M256 585l-102 155l68 48l102 -116l135 116l61 -50l-148 -153h-116z" />
    <glyph glyph-name="breve" unicode="&#x2d8;" 
d="M320 578q-42 0 -70.5 15t-48 38.5t-31 52.5t-17.5 58l71 35l18 -36q18 -35 34.5 -54t48.5 -19q29 0 48.5 18.5t48.5 56.5l26 34l73 -35q-15 -29 -33 -58.5t-42 -53t-55 -38t-71 -14.5z" />
    <glyph glyph-name="dotaccent" unicode="&#x2d9;" 
d="M317 592q-42 0 -58.5 16t-16.5 39q0 6 1.5 14t3.5 21q5 29 24 45.5t61 16.5t58.5 -16t16.5 -39q0 -6 -1.5 -14t-3.5 -21q-5 -29 -24 -45.5t-61 -16.5z" />
    <glyph glyph-name="ring" unicode="&#x2da;" 
d="M310 558q-26 0 -48 9t-38.5 24.5t-25.5 37t-9 46.5q0 33 12.5 60.5t34 47.5t50 31t60.5 11q26 0 48 -9t38.5 -25t25.5 -37t9 -46q0 -33 -12.5 -60.5t-34 -47.5t-50 -31t-60.5 -11zM318 624q52 0 61 53q5 28 5 41q0 41 -46 41q-52 0 -61 -53q-5 -28 -5 -41q0 -41 46 -41z
" />
    <glyph glyph-name="ogonek" unicode="&#x2db;" 
d="M207 -210q-48 0 -81 20t-33 61q0 39 33 71t103 53l-4 17l58 6l17 -18q-40 -24 -63.5 -42t-35.5 -31.5t-15.5 -23t-3.5 -16.5q0 -31 37 -31q14 0 28 6t25 21l50 -45q-17 -20 -45 -34t-70 -14z" />
    <glyph glyph-name="tilde" unicode="&#x2dc;" 
d="M390 598q-24 0 -41 7t-34 16q-18 10 -35.5 16.5t-35.5 6.5q-17 0 -31 -6.5t-32 -20.5l-36 59q20 26 49.5 43.5t66.5 17.5q24 0 41 -7t34 -16q18 -10 35.5 -16.5t35.5 -6.5q17 0 31 6.5t32 20.5l36 -59q-20 -26 -49.5 -43.5t-66.5 -17.5z" />
    <glyph glyph-name="hungarumlaut" unicode="&#x2dd;" 
d="M226 576l-68 34l108 185l95 -51zM414 576l-68 34l108 185l95 -51z" />
    <glyph glyph-name="uni0300" unicode="&#x300;" horiz-adv-x="0" 
d="M-105 749l109 49l70 -190l-77 -33z" />
    <glyph glyph-name="uni0301" unicode="&#x301;" horiz-adv-x="0" 
d="M23 575l-74 40l113 183l100 -54z" />
    <glyph glyph-name="uni0302" unicode="&#x302;" horiz-adv-x="0" 
d="M100 779l102 -155l-68 -48l-102 116l-135 -116l-61 50l148 153h116z" />
    <glyph glyph-name="uni0303" unicode="&#x303;" horiz-adv-x="0" 
d="M91 598q-24 0 -41 7t-34 16q-18 10 -35.5 16.5t-35.5 6.5q-17 0 -31 -6.5t-32 -20.5l-36 59q20 26 49.5 43.5t66.5 17.5q24 0 41 -7t34 -16q18 -10 35.5 -16.5t35.5 -6.5q17 0 31 6.5t32 20.5l36 -59q-20 -26 -49.5 -43.5t-66.5 -17.5z" />
    <glyph glyph-name="uni0304" unicode="&#x304;" horiz-adv-x="0" 
d="M-115 714h297l-16 -91h-296z" />
    <glyph glyph-name="uni0306" unicode="&#x306;" horiz-adv-x="0" 
d="M21 578q-42 0 -70.5 15t-48 38.5t-31 52.5t-17.5 58l71 35l18 -36q18 -35 34.5 -54t48.5 -19q29 0 48.5 18.5t48.5 56.5l26 34l73 -35q-15 -29 -33 -58.5t-42 -53t-55 -38t-71 -14.5z" />
    <glyph glyph-name="uni0307" unicode="&#x307;" horiz-adv-x="0" 
d="M18 592q-42 0 -58.5 16t-16.5 39q0 6 1.5 14t3.5 21q5 29 24 45.5t61 16.5t58.5 -16t16.5 -39q0 -6 -1.5 -14t-3.5 -21q-5 -29 -24 -45.5t-61 -16.5z" />
    <glyph glyph-name="uni0308" unicode="&#x308;" horiz-adv-x="0" 
d="M-85 600q-38 0 -53 14t-15 35q0 5 1 12.5t4 19.5q6 26 22.5 40.5t53.5 14.5q38 0 53 -14t15 -35q0 -5 -1 -12.5t-4 -19.5q-6 -26 -22.5 -40.5t-53.5 -14.5zM124 600q-38 0 -53 14t-15 35q0 5 1 12.5t4 19.5q6 26 22.5 40.5t53.5 14.5q38 0 53 -14t15 -35q0 -5 -1 -12.5
t-4 -19.5q-6 -26 -22.5 -40.5t-53.5 -14.5z" />
    <glyph glyph-name="uni0309" unicode="&#x309;" horiz-adv-x="0" 
d="M-64 784h134q39 0 58 -16.5t19 -40.5q0 -29 -13.5 -53t-36.5 -50l-50 -58l-63 32l57 95h-120z" />
    <glyph glyph-name="uni030A" unicode="&#x30a;" horiz-adv-x="0" 
d="M11 558q-26 0 -48 9t-38.5 24.5t-25.5 37t-9 46.5q0 33 12.5 60.5t34 47.5t50 31t60.5 11q26 0 48 -9t38.5 -25t25.5 -37t9 -46q0 -33 -12.5 -60.5t-34 -47.5t-50 -31t-60.5 -11zM19 624q52 0 61 53q5 28 5 41q0 41 -46 41q-52 0 -61 -53q-5 -28 -5 -41q0 -41 46 -41z
" />
    <glyph glyph-name="uni030B" unicode="&#x30b;" horiz-adv-x="0" 
d="M-73 576l-68 34l108 185l95 -51zM115 576l-68 34l108 185l95 -51z" />
    <glyph glyph-name="uni030C" unicode="&#x30c;" horiz-adv-x="0" 
d="M-43 585l-102 155l68 48l102 -116l135 116l61 -50l-148 -153h-116z" />
    <glyph glyph-name="uni0312" unicode="&#x312;" horiz-adv-x="0" 
d="M56 788h80l-54 -206h-142z" />
    <glyph glyph-name="uni0315" unicode="&#x315;" horiz-adv-x="0" 
d="M53 533h-85l39 207h141z" />
    <glyph glyph-name="uni031B" unicode="&#x31b;" horiz-adv-x="0" 
d="M109 527q-8 -42 -29 -65t-72 -23h-134l14 77h112l19 114h107z" />
    <glyph glyph-name="uni0323" unicode="&#x323;" horiz-adv-x="0" 
d="M-27 -193q-36 0 -51 14.5t-15 35.5q0 5 1 13.5t3 16.5q5 26 22 41t54 15q36 0 51 -14.5t15 -35.5q0 -5 -1 -13.5t-3 -16.5q-5 -26 -22 -41t-54 -15z" />
    <glyph glyph-name="uni0326" unicode="&#x326;" horiz-adv-x="0" 
d="M-79 -57h142l-116 -206h-80z" />
    <glyph glyph-name="uni0327" unicode="&#x327;" horiz-adv-x="0" 
d="M-14 -210q-43 0 -70.5 13t-40.5 31l47 49q8 -10 23 -19t39 -9q20 0 34 7.5t14 23.5q0 11 -12.5 22t-53.5 15l-24 2l38 102h62l-31 -84l3 -4q11 4 21.5 5t18.5 1q27 0 46 -14.5t19 -46.5q0 -23 -10.5 -40.5t-28.5 -29.5t-42 -18t-52 -6z" />
    <glyph glyph-name="uni0328" unicode="&#x328;" horiz-adv-x="0" 
d="M-92 -210q-48 0 -81 20t-33 61q0 39 33 71t103 53l-4 17l58 6l17 -18q-40 -24 -63.5 -42t-35.5 -31.5t-15.5 -23t-3.5 -16.5q0 -31 37 -31q14 0 28 6t25 21l50 -45q-17 -20 -45 -34t-70 -14z" />
    <glyph glyph-name="pi" unicode="&#x3c0;" 
d="M115 416h-77l17 100h549l-17 -100h-86l-57 -329l18 -6l79 58l49 -54l-24 -24q-22 -20 -40 -34t-34.5 -22.5t-33 -12.5t-35.5 -4q-47 0 -71.5 25.5t-24.5 72.5q0 15 2.5 35t7.5 52l40 243h-139l-70 -416h-122z" />
    <glyph glyph-name="uni0400" unicode="&#x400;" 
d="M40 0l116 698h441l-18 -107h-313l-30 -184h300l-18 -107h-300l-32 -193h313l-18 -107h-441zM267 919l109 49l70 -190l-77 -33z" />
    <glyph glyph-name="uni0401" unicode="&#x401;" 
d="M40 0l116 698h441l-18 -107h-313l-30 -184h300l-18 -107h-300l-32 -193h313l-18 -107h-441zM287 770q-38 0 -53 14t-15 35q0 5 1 12.5t4 19.5q6 26 22.5 40.5t53.5 14.5q38 0 53 -14t15 -35q0 -5 -1 -12.5t-4 -19.5q-6 -26 -22.5 -40.5t-53.5 -14.5zM496 770
q-38 0 -53 14t-15 35q0 5 1 12.5t4 19.5q6 26 22.5 40.5t53.5 14.5q38 0 53 -14t15 -35q0 -5 -1 -12.5t-4 -19.5q-6 -26 -22.5 -40.5t-53.5 -14.5z" />
    <glyph glyph-name="uni0402" unicode="&#x402;" 
d="M365 -198q-35 0 -64.5 18t-61.5 60l-26 33l82 65l68 -76l15 4l50 296q5 28 7 45t2 30q0 59 -68 59q-46 0 -82 -15l-54 -321h-128l99 591h-140l18 107h408l-18 -107h-140l-28 -167h5q45 18 103 18q71 0 111 -39t40 -111q0 -26 -3.5 -57.5t-8.5 -62.5l-36 -216
q-13 -77 -49.5 -115.5t-100.5 -38.5z" />
    <glyph glyph-name="uni0403" unicode="&#x403;" 
d="M189 698h411l-18 -107h-282l-98 -591h-129zM415 745l-74 40l113 183l100 -54z" />
    <glyph glyph-name="uni0404" unicode="&#x404;" 
d="M287 -12q-115 0 -173.5 66t-58.5 196q0 102 23.5 186.5t66 145.5t101.5 94.5t130 33.5q193 0 225 -179l-123 -30q-10 55 -35 79t-73 24q-127 0 -160 -197h189l-17 -107h-190q-5 -28 -6.5 -45.5t-1.5 -34.5q0 -126 113 -126q45 0 77 24t61 80l106 -41q-22 -44 -47.5 -76
t-56.5 -52.5t-68 -30.5t-82 -10z" />
    <glyph glyph-name="uni0405" unicode="&#x405;" 
d="M267 -12q-88 0 -153.5 30t-97.5 82l84 80q31 -43 77 -64t98 -21q65 0 99.5 30.5t34.5 84.5q0 38 -20.5 57.5t-68.5 30.5l-71 16q-78 17 -113.5 62.5t-35.5 111.5q0 51 18.5 92t53 70t83 44.5t108.5 15.5q81 0 140 -28.5t88 -74.5l-86 -76q-25 35 -61.5 54.5t-86.5 19.5
q-61 0 -93 -28t-32 -76q0 -35 21.5 -53.5t71.5 -30.5l68 -17q78 -20 113.5 -63t35.5 -112q0 -53 -18.5 -96.5t-54 -74.5t-86.5 -48.5t-116 -17.5z" />
    <glyph glyph-name="uni0406" unicode="&#x406;" 
d="M35 0l16 97h158l84 504h-158l16 97h444l-16 -97h-158l-84 -504h158l-16 -97h-444z" />
    <glyph glyph-name="uni0407" unicode="&#x407;" 
d="M35 0l16 97h158l84 504h-158l16 97h444l-16 -97h-158l-84 -504h158l-16 -97h-444zM285 770q-38 0 -53 14t-15 35q0 5 1 12.5t4 19.5q6 26 22.5 40.5t53.5 14.5q38 0 53 -14t15 -35q0 -5 -1 -12.5t-4 -19.5q-6 -26 -22.5 -40.5t-53.5 -14.5zM494 770q-38 0 -53 14t-15 35
q0 5 1 12.5t4 19.5q6 26 22.5 40.5t53.5 14.5q38 0 53 -14t15 -35q0 -5 -1 -12.5t-4 -19.5q-6 -26 -22.5 -40.5t-53.5 -14.5z" />
    <glyph glyph-name="uni0408" unicode="&#x408;" 
d="M574 698l-84 -504q-18 -106 -80.5 -156t-164.5 -50q-98 0 -150.5 50.5t-56.5 136.5l121 23q1 -22 6.5 -41t16 -33t28 -22t43.5 -8q92 0 110 108l65 389h-240l18 107h368z" />
    <glyph glyph-name="uni0409" unicode="&#x409;" 
d="M-25 101h41q16 15 30.5 39t29.5 70.5t31.5 121.5t35.5 192l30 174h287l-43 -260h19q77 0 116.5 -45.5t39.5 -119.5q0 -133 -62 -203t-167 -70h-133l99 597h-69l-14 -84q-20 -117 -37.5 -196t-34.5 -131.5t-35.5 -84t-40.5 -53.5q-29 -29 -60.5 -40.5t-65.5 -11.5h-14z
M378 100q33 0 56 21.5t32 75.5l3 21q2 16 3 27.5t1 27.5q0 31 -13.5 48t-42.5 17h-18l-39 -238h18z" />
    <glyph glyph-name="uni040A" unicode="&#x40a;" 
d="M109 698h114l-49 -294h107l49 294h113l-43 -260h16q87 0 131.5 -46t44.5 -124q0 -129 -64 -198.5t-172 -69.5h-143l51 303h-106l-51 -303h-114zM361 100q45 0 71 23t34 74l3 21q2 16 3 27t1 24q0 34 -15.5 51.5t-57.5 17.5h-17l-40 -238h18z" />
    <glyph glyph-name="uni040B" unicode="&#x40b;" 
d="M204 591h-140l18 107h408l-18 -107h-140l-28 -167h5q45 18 103 18q71 0 111 -39t40 -111q0 -26 -3.5 -57.5t-8.5 -62.5l-29 -172h-128l34 202q5 28 7 45t2 30q0 59 -68 59q-46 0 -82 -15l-54 -321h-128z" />
    <glyph glyph-name="uni040C" unicode="&#x40c;" 
d="M149 698h129l-48 -292h98l165 292h132l-151 -267q-20 -35 -40.5 -50t-46.5 -20l-1 -5q23 -7 36.5 -24.5t24.5 -58.5l42 -166h58l-17 -107h-63q-44 0 -68 21t-37 71l-53 209h-97l-50 -301h-129zM393 745l-74 40l113 183l100 -54z" />
    <glyph glyph-name="uni040D" unicode="&#x40d;" 
d="M137 698h123l-47 -283l-48 -196h8l110 166l208 313h120l-116 -698h-123l47 283l48 196h-8l-97 -146l-221 -333h-120zM261 919l109 49l70 -190l-77 -33z" />
    <glyph glyph-name="uni040E" unicode="&#x40e;" 
d="M96 107h110l35 67l-140 524h129l65 -266l23 -128h3l56 127l139 267h134l-317 -587q-17 -32 -34 -53.5t-36.5 -34t-43 -18t-53.5 -5.5h-88zM381 747q-110 0 -144 112l-17 52l103 37l10 -107q10 -3 27 -5t28 -2q14 0 30 2t26 5l41 107l99 -37l-32 -57q-30 -56 -73.5 -81.5
t-97.5 -25.5z" />
    <glyph glyph-name="uni040F" unicode="&#x40f;" 
d="M199 0h-173l116 698h128l-97 -591h205l99 591h128l-116 -698h-174l-25 -150h-116z" />
    <glyph glyph-name="uni0410" unicode="&#x410;" 
d="M412 0l-18 178h-212l-76 -178h-135l314 698h178l82 -698h-133zM359 572h-9l-124 -288h160z" />
    <glyph glyph-name="uni0411" unicode="&#x411;" 
d="M152 698h411l-18 -107h-283l-28 -167h132q46 0 80.5 -13t57.5 -36.5t35 -56t12 -70.5q0 -57 -17 -103t-49 -78t-77.5 -49.5t-101.5 -17.5h-272zM294 105q53 0 80.5 21.5t35.5 69.5l4 22q3 16 3 35q0 66 -88 66h-112l-36 -214h113z" />
    <glyph glyph-name="uni0412" unicode="&#x412;" 
d="M154 698h234q89 0 135.5 -43.5t46.5 -117.5q0 -72 -36 -116.5t-105 -62.5l-1 -4q53 -12 82.5 -45t29.5 -90q0 -48 -16.5 -88t-46.5 -69t-73 -45.5t-96 -16.5h-270zM280 94q53 0 85.5 20t38.5 63l4 28q2 9 3 18.5t1 16.5q0 70 -92 70h-104l-36 -216h100zM314 400
q54 0 82 18t36 63l5 27q2 7 2.5 15t0.5 15q0 36 -23 51t-65 15h-87l-34 -204h83z" />
    <glyph glyph-name="uni0413" unicode="&#x413;" 
d="M189 698h411l-18 -107h-282l-98 -591h-129z" />
    <glyph glyph-name="uni0414" unicode="&#x414;" 
d="M-6 107h52q23 22 43.5 55t39.5 80.5t35.5 112t30.5 149.5l33 194h355l-98 -591h72l-43 -257h-116l25 150h-329l-25 -150h-118zM359 107l81 487h-116l-19 -112q-13 -80 -27.5 -140.5t-30.5 -105.5t-33.5 -76.5t-36.5 -52.5h182z" />
    <glyph glyph-name="uni0415" unicode="&#x415;" 
d="M40 0l116 698h441l-18 -107h-313l-30 -184h300l-18 -107h-300l-32 -193h313l-18 -107h-441z" />
    <glyph glyph-name="uni0416" unicode="&#x416;" 
d="M63 258q17 46 40 69t58 29l1 5q-27 9 -39 30.5t-14 64.5l-13 242h107l15 -295h51l49 295h112l-49 -295h51l109 295h111l-93 -250q-15 -43 -34.5 -62t-50.5 -25l-1 -5q28 -9 41 -31.5t17 -67.5l19 -257h-113l-22 304h-51l-51 -304h-112l51 304h-52l-117 -304h-120z" />
    <glyph glyph-name="uni0417" unicode="&#x417;" 
d="M258 -12q-82 0 -142 30t-95 82l84 80q29 -39 70 -63t93 -24q54 0 85.5 25.5t37.5 71.5l2 15q1 6 1.5 12.5t0.5 11.5q0 34 -21.5 52.5t-76.5 18.5h-89l18 106h89q54 0 80.5 21.5t35.5 72.5l2 11q2 10 2 20q0 35 -26 54.5t-77 19.5q-46 0 -82 -18.5t-67 -56.5l-76 72
q45 53 103 80.5t136 27.5q107 0 163 -43t56 -121q0 -39 -13 -70.5t-35.5 -55t-53 -38t-66.5 -18.5l-1 -6q68 -11 99 -45.5t31 -90.5q0 -50 -18.5 -92.5t-53 -74t-84 -49.5t-112.5 -18z" />
    <glyph glyph-name="uni0418" unicode="&#x418;" 
d="M137 698h123l-47 -283l-48 -196h8l110 166l208 313h120l-116 -698h-123l47 283l48 196h-8l-97 -146l-221 -333h-120z" />
    <glyph glyph-name="uni0419" unicode="&#x419;" 
d="M137 698h123l-47 -283l-48 -196h8l110 166l208 313h120l-116 -698h-123l47 283l48 196h-8l-97 -146l-221 -333h-120zM382 747q-110 0 -144 112l-17 52l103 37l10 -107q10 -3 27 -5t28 -2q14 0 30 2t26 5l41 107l99 -37l-32 -57q-30 -56 -73.5 -81.5t-97.5 -25.5z" />
    <glyph glyph-name="uni041A" unicode="&#x41a;" 
d="M149 698h129l-48 -292h98l165 292h132l-151 -267q-20 -35 -40.5 -50t-46.5 -20l-1 -5q23 -7 36.5 -24.5t24.5 -58.5l42 -166h58l-17 -107h-63q-44 0 -68 21t-37 71l-53 209h-97l-50 -301h-129z" />
    <glyph glyph-name="uni041B" unicode="&#x41b;" 
d="M-15 108h69q21 19 39 48t34 73.5t31 107.5t29 150l35 211h385l-116 -698h-129l99 592h-137l-20 -120q-15 -93 -32 -161t-35.5 -117t-38 -81t-39.5 -52q-35 -35 -72 -50t-90 -15h-31z" />
    <glyph glyph-name="uni041C" unicode="&#x41c;" 
d="M451 325l39 202h-8l-197 -359l-76 359h-8l-28 -202l-54 -325h-113l116 698h150l55 -259h8l141 259h150l-116 -698h-113z" />
    <glyph glyph-name="uni041D" unicode="&#x41d;" 
d="M412 301h-208l-50 -301h-128l116 698h128l-48 -291h208l48 291h128l-116 -698h-128z" />
    <glyph glyph-name="uni041E" unicode="&#x41e;" 
d="M273 -12q-119 0 -174 67.5t-55 187.5q0 82 16.5 165.5t53 150.5t96 109t146.5 42q119 0 174 -67.5t55 -187.5q0 -82 -16.5 -165.5t-53 -150.5t-96 -109t-146.5 -42zM275 94q68 0 103.5 51.5t50.5 144.5l20 117q6 40 6 76q0 57 -24 89t-77 32q-68 0 -103.5 -51.5
t-50.5 -144.5l-20 -117q-6 -41 -6 -76q0 -57 24 -89t77 -32z" />
    <glyph glyph-name="uni041F" unicode="&#x41f;" 
d="M143 698h462l-116 -698h-129l99 591h-205l-99 -591h-129z" />
    <glyph glyph-name="uni0420" unicode="&#x420;" 
d="M40 0l116 698h252q46 0 80.5 -13t57.5 -37t34.5 -57t11.5 -72q0 -58 -17 -104.5t-48.5 -79t-76 -50t-100.5 -17.5h-137l-45 -268h-128zM230 374h107q100 0 115 89l5 31q1 5 1.5 13.5t0.5 16.5q0 36 -20.5 52.5t-65.5 16.5h-106z" />
    <glyph glyph-name="uni0421" unicode="&#x421;" 
d="M289 -12q-119 0 -175 68.5t-56 193.5q0 99 22 183.5t63 146t101 96t135 34.5q55 0 94.5 -14.5t66 -40.5t40.5 -61t17 -75l-122 -28q-3 24 -8.5 45t-17 36t-30.5 23.5t-47 8.5q-68 0 -105.5 -52.5t-53.5 -144.5l-18 -105q-4 -21 -6 -40t-2 -42q0 -58 26 -92t86 -34
q52 0 84.5 34t58.5 90l109 -36q-20 -47 -45 -83t-56.5 -61t-71.5 -37.5t-89 -12.5z" />
    <glyph glyph-name="uni0422" unicode="&#x422;" 
d="M419 591l-98 -591h-128l98 591h-211l18 107h551l-18 -107h-212z" />
    <glyph glyph-name="uni0423" unicode="&#x423;" 
d="M96 107h110l35 67l-140 524h129l65 -266l23 -128h3l56 127l139 267h134l-317 -587q-17 -32 -34 -53.5t-36.5 -34t-43 -18t-53.5 -5.5h-88z" />
    <glyph glyph-name="uni0424" unicode="&#x424;" 
d="M205 53q-81 11 -125 62t-44 142q0 85 18 154t52.5 119t84.5 79t113 34l14 86h122l-14 -86q81 -11 125 -62t44 -142q0 -85 -18.5 -154t-53 -119t-84 -79t-112.5 -34l-14 -86h-122zM293 549q-48 -8 -81.5 -48t-45.5 -111l-13 -77q-2 -15 -3.5 -29.5t-1.5 -26.5
q0 -91 78 -110zM338 147q48 8 81.5 48t45.5 111l13 77q2 15 3.5 29.5t1.5 26.5q0 91 -78 110z" />
    <glyph glyph-name="uni0425" unicode="&#x425;" 
d="M545 0h-142l-54 140l-44 121h-7l-82 -121l-101 -140h-143l266 360l-138 338h143l46 -118l42 -120h6l82 120l86 118h143l-249 -341z" />
    <glyph glyph-name="uni0426" unicode="&#x426;" 
d="M420 -190q-39 0 -79.5 14.5t-99.5 44.5l-9 -5l-8 -50h-102l6 38q17 102 103 102q15 0 29.5 -3t43.5 -11l123 -33l9 5l23 88h-441l116 698h129l-98 -591h182l98 591h129l-98 -591h80l-31 -187q-11 -61 -37 -85.5t-68 -24.5z" />
    <glyph glyph-name="uni0427" unicode="&#x427;" 
d="M399 255h-5q-25 -11 -54.5 -17t-66.5 -6q-100 0 -146.5 45.5t-46.5 132.5q0 30 2.5 58.5t6.5 56.5l29 173h129l-34 -198q-5 -28 -6 -45t-1 -34q0 -45 22.5 -64t70.5 -19q33 0 62 5t55 14l57 341h129l-116 -698h-129z" />
    <glyph glyph-name="uni0428" unicode="&#x428;" 
d="M109 698h113l-99 -597h95l99 597h113l-99 -597h95l99 597h113l-116 -698h-529z" />
    <glyph glyph-name="uni0429" unicode="&#x429;" 
d="M429 -190q-14 0 -26.5 2.5t-29.5 9t-40 18t-56 29.5l-9 -5l-8 -50h-102l6 38q17 102 103 102q14 0 27 -3t38 -11l104 -33l10 5l23 88h-476l116 698h108l-99 -597h84l99 597h108l-99 -597h84l99 597h108l-99 -597h63l-31 -181q-10 -61 -36 -85.5t-69 -24.5z" />
    <glyph glyph-name="uni042A" unicode="&#x42a;" 
d="M193 591h-129l18 107h258l-44 -260h98q46 0 81 -13.5t58 -37.5t35 -57t12 -72q0 -61 -17 -109t-49 -81t-77.5 -50.5t-102.5 -17.5h-239zM322 105q54 0 82 22t36 70l3 19q2 11 3 22.5t1 22.5q0 38 -21.5 55t-66.5 17h-80l-38 -228h81z" />
    <glyph glyph-name="uni042B" unicode="&#x42b;" 
d="M164 100q45 0 70.5 23t33.5 74l4 21q2 16 3 27.5t1 24.5q0 33 -16 50.5t-57 17.5h-40l-39 -238h40zM109 698h114l-43 -260h38q88 0 132 -46t44 -124q0 -129 -64 -198.5t-172 -69.5h-165zM525 698h114l-116 -698h-114z" />
    <glyph glyph-name="uni042C" unicode="&#x42c;" 
d="M291 105q54 0 81.5 22t35.5 70l4 19q2 11 3 22.5t1 22.5q0 38 -21.5 55t-66.5 17h-105l-38 -228h106zM155 698h128l-43 -260h123q46 0 81 -13.5t58 -37.5t35 -57t12 -72q0 -61 -17 -109t-49 -81t-77.5 -50.5t-102.5 -17.5h-264z" />
    <glyph glyph-name="uni042D" unicode="&#x42d;" 
d="M252 407h189q6 36 6 71q0 126 -112 126q-45 0 -77 -24t-61 -80l-107 41q44 89 104.5 129t150.5 40q115 0 173 -65.5t58 -196.5q0 -102 -23.5 -186.5t-65.5 -145.5t-101 -94.5t-130 -33.5q-194 0 -225 179l123 30q10 -55 35 -79t73 -24q63 0 103.5 50t58.5 156h-189z" />
    <glyph glyph-name="uni042E" unicode="&#x42e;" 
d="M350 -12q-72 0 -107.5 45t-35.5 145q0 25 2 57t7 68h-57l-51 -303h-114l116 698h114l-49 -294h57q20 94 46.5 160.5t55.5 95.5q50 50 123 50q72 0 107.5 -45t35.5 -145q0 -67 -11 -142t-28.5 -142.5t-40.5 -120.5t-47 -77q-50 -50 -123 -50zM358 84q16 0 28.5 5.5
t23 21.5t18.5 45t16 75l39 235q9 51 9 88q0 33 -11.5 46.5t-31.5 13.5q-16 0 -28.5 -5.5t-23 -21.5t-19 -45t-15.5 -75l-39 -235q-9 -51 -9 -88q0 -33 11.5 -46.5t31.5 -13.5z" />
    <glyph glyph-name="uni042F" unicode="&#x42f;" 
d="M17 108h56l74 115q20 30 38.5 44.5t48.5 21.5l1 6q-65 11 -100.5 50.5t-35.5 113.5q0 52 17 96t49 76t77 49.5t101 17.5h259l-116 -698h-129l46 276h-75l-125 -194q-31 -46 -63 -64t-74 -18h-66zM420 380l36 214h-101q-54 0 -81.5 -23t-35.5 -67l-3 -18q-2 -10 -2.5 -18
t-0.5 -18q0 -35 21 -52.5t66 -17.5h101z" />
    <glyph glyph-name="uni0430" unicode="&#x430;" 
d="M189 -12q-76 0 -111 52.5t-35 152.5q0 67 15.5 128t45 107t73 73t100.5 27t89 -27.5t46 -78.5h5l16 94h126l-70 -420h58l-16 -96h-70q-54 0 -79.5 27t-17.5 76l3 19h-4q-15 -30 -31.5 -54.5t-37 -42t-46.5 -27.5t-59 -10zM244 88q52 0 94 51q14 17 29.5 44.5t20.5 59.5
l15 94q7 40 -14 65.5t-72 25.5q-60 0 -90.5 -36t-40.5 -97l-11 -66q-2 -9 -3 -20t-1 -25q0 -43 17 -69.5t56 -26.5z" />
    <glyph glyph-name="uni0431" unicode="&#x431;" 
d="M267 -12q-51 0 -90.5 16t-66.5 44.5t-41 68.5t-14 89q0 60 12 126.5t33 128.5t48 113.5t57 81.5q43 43 100 65.5t147 24.5l141 5l-23 -116l-137 -4q-52 -2 -84 -14.5t-55 -36.5q-48 -49 -82 -175h7q29 51 66.5 76t91.5 25q37 0 68.5 -13t54.5 -38.5t36 -62.5t13 -85
q0 -74 -21 -133t-58.5 -100.5t-89.5 -63.5t-113 -22zM276 86q54 0 88 33t45 94l10 54q2 10 3 21.5t1 20.5q0 51 -27 75t-71 24q-59 0 -90.5 -30.5t-41.5 -88.5l-9 -51q-2 -13 -3.5 -27t-1.5 -24q0 -52 26 -76.5t71 -24.5z" />
    <glyph glyph-name="uni0432" unicode="&#x432;" 
d="M278 -12q-107 0 -161.5 55.5t-54.5 145.5q0 20 3 43t8 53q9 55 32.5 100t58.5 76.5t82 49t104 17.5q85 0 134 -35.5t49 -95.5q0 -51 -32.5 -80.5t-88.5 -40.5l-1 -4q48 -8 73.5 -33.5t25.5 -70.5q0 -40 -18 -73t-49.5 -57t-73.5 -37t-91 -13zM284 80q42 0 68 18.5
t31 53.5q1 5 1.5 10.5t0.5 12.5q0 50 -65 50q-17 0 -40 -2t-57 -7l-35 -6q-1 -5 -1.5 -12t-0.5 -15q0 -48 25.5 -75.5t72.5 -27.5zM247 294q46 6 76 13t48 15.5t25.5 19t10.5 23.5q2 10 2 17q0 22 -18 38t-56 16q-53 0 -88 -35t-46 -98l-2 -16z" />
    <glyph glyph-name="uni0433" unicode="&#x433;" 
d="M252 -12q-100 0 -150 36.5t-50 105.5q0 32 10.5 60t33 50.5t57.5 38.5t84 24l72 11q56 9 77 26t21 42q0 49 -77 49q-82 0 -147 -56l-65 68q49 44 104 64.5t123 20.5q91 0 139 -36.5t48 -103.5q0 -63 -44 -108.5t-141 -60.5l-71 -12q-57 -8 -78 -26t-21 -44t20 -39t70 -13
q48 0 90.5 17t73.5 46l66 -68q-45 -42 -104.5 -67t-140.5 -25z" />
    <glyph glyph-name="uni0434" unicode="&#x434;" 
d="M246 -12q-97 0 -148.5 57t-51.5 152q0 76 19.5 135t53 100t77.5 62.5t93 21.5q54 0 85.5 -26t43.5 -77h6v39q0 103 -35 147t-113 44q-26 0 -47.5 -3t-38.5 -8l18 110q19 5 43.5 7.5t52.5 2.5q126 0 186.5 -70.5t60.5 -208.5q0 -155 -32.5 -257.5t-83.5 -154.5
q-40 -40 -87.5 -56.5t-101.5 -16.5zM260 86q106 0 132 137l10 52q4 17 5.5 33.5t1.5 30.5q0 79 -94 79q-51 0 -83.5 -33.5t-44.5 -97.5l-11 -54q-6 -32 -6 -50q0 -47 23.5 -72t66.5 -25z" />
    <glyph glyph-name="uni0435" unicode="&#x435;" 
d="M280 -12q-110 0 -164.5 57.5t-54.5 163.5q0 71 21.5 130t60.5 101t94 65t122 23q39 0 72.5 -9t59 -26.5t40 -44t14.5 -61.5q0 -30 -13 -60.5t-51 -55.5t-108.5 -42.5t-184.5 -21.5q-1 -6 -1 -10.5v-7.5q0 -46 23.5 -74t84.5 -28q24 0 43 4.5t36.5 16t35 29.5t37.5 45
l80 -51q-21 -31 -44.5 -57.5t-53 -45.5t-66 -29.5t-83.5 -10.5zM347 436q-57 0 -94.5 -32.5t-52.5 -106.5l-3 -15q77 4 121.5 14t67.5 23t29.5 28.5t6.5 29.5q0 27 -17.5 43t-57.5 16z" />
    <glyph glyph-name="uni0436" unicode="&#x436;" 
d="M-17 96h72q13 24 25 66.5t20 96.5q5 36 7.5 67t2.5 57q0 8 -1 20.5t-3 16.5h-64l16 96h30q55 0 85 -32t30 -114q0 -37 -3 -62h57l34 208h105l-34 -208h53q27 124 67 166q23 23 49.5 32.5t65.5 9.5h32l-16 -96h-66q-13 -24 -25 -65.5t-20 -97.5q-5 -35 -7.5 -66.5
t-2.5 -57.5q0 -18 3 -37h69l-16 -96h-35q-54 0 -84 32t-30 114q0 20 0.5 38.5t1.5 32.5h-54l-36 -217h-105l36 217h-53q-14 -69 -31.5 -110.5t-37.5 -64.5q-22 -24 -49 -33t-67 -9h-37z" />
    <glyph glyph-name="uni0437" unicode="&#x437;" 
d="M256 -12q-75 0 -129 23t-93 68l77 75q28 -33 62.5 -51t85.5 -18q56 0 81.5 17t33.5 50q3 12 3 21q0 20 -14 32t-49 12h-105l15 88h86q42 0 64 15t27 42q1 4 1 7.5v6.5q0 24 -19 39.5t-68 15.5q-48 0 -82.5 -17t-66.5 -50l-66 69q51 50 107 72.5t126 22.5q95 0 146 -36.5
t51 -95.5q0 -50 -30 -83.5t-91 -46.5l-1 -5q46 -8 71 -32t25 -66q0 -38 -17 -70.5t-49 -55.5t-78 -36t-104 -13z" />
    <glyph glyph-name="uni0438" unicode="&#x438;" 
d="M373 122h-5q-29 -62 -68 -98t-101 -36q-36 0 -62.5 11.5t-43.5 31.5t-25.5 47t-8.5 59q0 37 10 96l47 283h126l-49 -295q-2 -14 -4.5 -30t-2.5 -32q0 -28 15 -50t52 -22q29 0 50 13.5t40 36.5q11 14 28 42.5t23 64.5l45 272h126l-86 -516h-126z" />
    <glyph glyph-name="uni0439" unicode="&#x439;" 
d="M373 122h-5q-29 -62 -68 -98t-101 -36q-36 0 -62.5 11.5t-43.5 31.5t-25.5 47t-8.5 59q0 37 10 96l47 283h126l-49 -295q-2 -14 -4.5 -30t-2.5 -32q0 -28 15 -50t52 -22q29 0 50 13.5t40 36.5q11 14 28 42.5t23 64.5l45 272h126l-86 -516h-126zM354 577q-111 0 -145 112
l-16 52l103 37l9 -107q11 -3 28 -5t28 -2q14 0 30 2t26 5l41 107l99 -37l-32 -57q-31 -56 -74 -81.5t-97 -25.5z" />
    <glyph glyph-name="uni043A" unicode="&#x43a;" 
d="M127 516h126l-33 -206h79l141 206h133l-124 -183q-20 -30 -40 -44.5t-49 -19.5l-1 -6q22 -5 36.5 -19.5t28.5 -49.5l37 -94h56l-17 -100h-57q-40 0 -64.5 17.5t-39.5 55.5l-55 141h-81l-36 -214h-126z" />
    <glyph glyph-name="uni043B" unicode="&#x43b;" 
d="M-6 102h71q16 19 29.5 41.5t24.5 51.5t20.5 66.5t17.5 85.5l28 169h369l-86 -516h-126l70 418h-127l-12 -74q-11 -64 -22.5 -111t-25 -81.5t-28.5 -58t-32 -40.5q-29 -29 -63 -43t-82 -14h-43z" />
    <glyph glyph-name="uni043C" unicode="&#x43c;" 
d="M102 516h133l69 -231h6l145 231h130l-86 -516h-106l45 267l20 94h-7l-180 -285l-85 285h-7l-12 -94l-44 -267h-106z" />
    <glyph glyph-name="uni043D" unicode="&#x43d;" 
d="M119 516h126l-34 -205h196l34 205h126l-86 -516h-126l35 213h-196l-35 -213h-126z" />
    <glyph glyph-name="uni043E" unicode="&#x43e;" 
d="M265 -12q-51 0 -91.5 15.5t-68 44.5t-42 70t-14.5 91q0 74 21 133t59 100.5t90.5 63.5t115.5 22q51 0 91.5 -15.5t68 -44.5t42 -70t14.5 -91q0 -74 -21 -133t-59 -100.5t-90.5 -63.5t-115.5 -22zM274 85q56 0 89.5 33.5t44.5 95.5l12 71q2 12 3.5 24t1.5 21
q0 51 -26.5 76t-72.5 25q-56 0 -89.5 -33.5t-44.5 -95.5l-12 -71q-2 -12 -3.5 -24t-1.5 -21q0 -51 26.5 -76t72.5 -25z" />
    <glyph glyph-name="uni043F" unicode="&#x43f;" 
d="M35 0l86 516h126l-20 -122h5q28 61 67.5 97.5t101.5 36.5q36 0 62.5 -11.5t43.5 -31.5t25.5 -47.5t8.5 -58.5q0 -37 -10 -96l-47 -283h-126l49 295q2 14 4.5 30t2.5 32q0 28 -15 50t-52 22q-29 0 -50 -13.5t-40 -36.5q-11 -14 -28 -42.5t-23 -64.5l-45 -272h-126z" />
    <glyph glyph-name="uni0440" unicode="&#x440;" 
d="M117 516h126l-21 -122h5q15 30 31.5 54.5t37.5 42t47.5 27.5t59.5 10q80 0 117 -53.5t37 -146.5q0 -69 -15.5 -131t-46 -108.5t-75.5 -73.5t-103 -27q-60 0 -93 27.5t-46 78.5h-6l-49 -294h-126zM277 88q61 0 94 36t43 97l10 62q2 9 3.5 22.5t1.5 25.5q0 43 -18.5 70
t-61.5 27q-29 0 -52.5 -13t-44.5 -38q-14 -17 -29 -43.5t-21 -60.5l-15 -94q-8 -43 15.5 -67t74.5 -24z" />
    <glyph glyph-name="uni0441" unicode="&#x441;" 
d="M272 -12q-103 0 -156.5 58t-53.5 160q0 68 19.5 127t55.5 102.5t88 68t117 24.5q87 0 133 -36.5t61 -92.5l-103 -47q-12 37 -34 55t-67 18q-50 0 -83 -31.5t-44 -95.5l-10 -60q-2 -11 -3 -23.5t-1 -23.5q0 -48 24.5 -74t76.5 -26q16 0 31.5 3.5t33 15.5t39 34.5
t49.5 60.5l81 -51q-26 -40 -52 -71t-56 -52t-65.5 -32t-80.5 -11z" />
    <glyph glyph-name="uni0442" unicode="&#x442;" 
d="M-5 0l86 516h104l-15 -87h6q18 44 45 71.5t69 27.5q41 0 62 -26.5t16 -74.5h5q19 45 48 73t76 28q88 0 88 -97q0 -16 -2 -37t-5 -39l-59 -355h-104l57 344q5 25 5 46q0 44 -33 44q-14 0 -27 -7.5t-26 -27.5q-11 -18 -18 -37t-10 -36l-54 -326h-104l57 344q5 25 5 46
q0 44 -33 44q-14 0 -27 -7.5t-26 -27.5q-11 -18 -18 -37t-10 -36l-54 -326h-104z" />
    <glyph glyph-name="uni0443" unicode="&#x443;" 
d="M214 -212q-69 0 -118 16t-84 58l77 79q23 -28 54 -40.5t69 -12.5q30 0 54.5 7t43 24.5t31 47.5t19.5 75l16 97h-5q-14 -31 -30.5 -56t-37 -42.5t-45.5 -27t-56 -9.5q-36 0 -62.5 11.5t-43.5 31.5t-25.5 47t-8.5 59q0 20 2 41t7 53l45 269h126l-47 -280q-2 -14 -4 -29
t-2 -31q0 -28 15 -50t52 -22q29 0 50 13t40 36q11 14 27.5 42.5t22.5 64.5l43 256h126l-82 -491q-20 -123 -89.5 -180t-179.5 -57z" />
    <glyph glyph-name="uni0444" unicode="&#x444;" 
d="M304 603q23 137 160 137h84l-16 -96h-117l-31 -190h5q20 39 43 56.5t54 17.5q92 0 92 -130q0 -59 -7 -114.5t-20 -102.5t-30.5 -84t-39.5 -59q-32 -32 -74 -32q-34 0 -52 17.5t-27 55.5h-6l-31 -184q-18 -107 -102 -107q-13 0 -24.5 2.5t-24 9t-26.5 17t-32 26.5l-38 31
l58 71l70 -60l13 5l32 190h-5q-20 -39 -43 -56.5t-54 -17.5q-92 0 -92 130q0 59 7 114.5t19.5 102.5t30.5 84t40 59q32 32 74 32q33 0 51.5 -17.5t27.5 -55.5h6zM266 359q12 71 -39 71q-29 0 -47.5 -32t-31.5 -106l-10 -56q-5 -24 -6 -41t-1 -32q0 -59 44 -59q48 0 60 70z
M374 104q29 0 47.5 32t31.5 106l10 56q5 24 6 41t1 32q0 59 -44 59q-48 0 -60 -70l-31 -185q-12 -71 39 -71z" />
    <glyph glyph-name="uni0445" unicode="&#x445;" 
d="M106 -12q-51 0 -79 34t-28 100q0 16 0.5 28t2.5 24l103 11q-1 -9 -1 -16v-9q0 -42 8 -60.5t31 -18.5q30 0 50 32.5t31.5 78t16 93.5t4.5 80q0 17 -1.5 33.5t-3.5 30.5l-13 6l-139 -93l-52 71l70 52q38 28 71.5 45.5t68.5 17.5q30 0 49 -12t30 -33t15.5 -50t4.5 -64h7
q20 86 56 122.5t87 36.5t79 -34t28 -100q0 -16 -0.5 -28t-2.5 -24l-103 -11q1 9 1 16v9q0 42 -8 60.5t-31 18.5q-20 0 -35.5 -15t-27 -40t-19 -55.5t-12 -62.5t-6.5 -61t-2 -50t1 -34.5t6 -29.5l12 -6l139 96l52 -68l-50 -44q-49 -43 -87 -60t-71 -17q-54 0 -78 42t-24 117
h-7q-20 -86 -56 -122.5t-87 -36.5z" />
    <glyph glyph-name="uni0446" unicode="&#x446;" 
d="M439 -190q-16 0 -32.5 3t-36 9.5t-44.5 18t-58 28.5l-9 -5l-9 -50h-101l6 38q16 102 103 102q14 0 29 -3t44 -11l116 -33l10 5l38 104l-3 2q-26 -22 -62 -22q-40 0 -64 25t-24 67q0 24 4 43h-5q-17 -36 -34.5 -62t-37 -42t-42 -23.5t-49.5 -7.5q-65 0 -99.5 38.5
t-34.5 110.5q0 18 2 38.5t7 55.5l47 277h126l-48 -287q-7 -34 -7 -61q0 -72 61 -72q24 0 42.5 11t39.5 38q20 26 33.5 54t17.5 52l44 265h126l-67 -405l15 -5l60 61l57 -56l-21 -23l-34 -170q-12 -58 -36.5 -83t-69.5 -25z" />
    <glyph glyph-name="uni0447" unicode="&#x447;" 
d="M385 259h-5q-29 -54 -66.5 -78.5t-92.5 -24.5q-66 0 -105.5 35t-39.5 97q0 16 1.5 31.5t3.5 31.5l28 165h126l-26 -151q-3 -17 -4 -28t-1 -22q0 -28 19 -43.5t54 -15.5q54 0 85.5 29.5t40.5 80.5l25 150h126l-86 -516h-126z" />
    <glyph glyph-name="uni0448" unicode="&#x448;" 
d="M103 -12q-89 0 -89 97q0 17 2 36.5t5 37.5l59 358h105l-57 -342q-2 -12 -4 -25t-2 -24q0 -44 34 -44q15 0 27.5 8t25.5 27q11 17 17 36.5t11 45.5l53 318h105l-57 -342q-2 -12 -3.5 -24.5t-1.5 -23.5q0 -45 33 -45q14 0 26.5 8t25.5 27t19 37.5t9 34.5l54 327h105
l-86 -516h-105l15 87h-6q-41 -99 -113 -99q-42 0 -63 26t-16 75h-4q-43 -101 -124 -101z" />
    <glyph glyph-name="uni0449" unicode="&#x449;" 
d="M449 -190q-20 0 -40 2.5t-43 9.5t-52 18.5t-68 28.5l-10 -5l-8 -50h-100l6 38q8 48 33 74t64 26q15 0 29 -2.5t40 -7.5l159 -38l9 5l38 104l-3 3q-20 -20 -45 -20q-28 0 -45 19t-17 56q0 5 0.5 11t1.5 14h-5q-20 -48 -47 -74t-63 -26q-40 0 -58.5 26.5t-13.5 74.5h-4
q-43 -101 -120 -101q-38 0 -58.5 24.5t-20.5 72.5q0 17 2 37t5 38l57 348h104l-55 -334q-2 -12 -4 -25t-2 -24q0 -42 30 -42q25 0 44 31t28 84l52 310h103l-56 -334q-2 -12 -3 -24.5t-1 -23.5q0 -43 28 -43t45 31q9 17 16 36.5t12 47.5l51 310h104l-70 -423l11 -4l43 43
l48 -49l-15 -16l-29 -149q-13 -62 -39 -85t-68 -23z" />
    <glyph glyph-name="uni044A" unicode="&#x44a;" 
d="M313 -12q-46 0 -81.5 12.5t-60 35t-37 54t-12.5 68.5q0 58 20.5 106.5t74.5 103.5l30 31l-98 30l-9 -5l-7 -42h-99l7 44q9 52 36 77t69 25q29 0 58.5 -14t77.5 -49l5 5l8 46h108l-10 -67l-113 -136l8 -7q33 28 63.5 40.5t64.5 12.5q62 0 99.5 -36t37.5 -106
q0 -51 -18 -93t-50 -72.5t-76 -47t-96 -16.5zM324 82q37 0 65 22t36 70q3 19 3 30q0 33 -19.5 49.5t-54.5 16.5q-46 0 -71.5 -22.5t-34.5 -59.5q-2 -9 -2.5 -16.5t-0.5 -16.5q0 -35 20 -54t59 -19z" />
    <glyph glyph-name="uni044B" unicode="&#x44b;" 
d="M184 -12q-80 0 -119 40.5t-39 115.5q0 22 2.5 46t7.5 57l46 269h108l-38 -223h6q20 40 48 61t70 21q52 0 79.5 -34t27.5 -100q0 -62 -16 -109.5t-43 -79.5t-63.5 -48t-76.5 -16zM185 77q29 0 49.5 21t30.5 80q2 9 3.5 22.5t1.5 26.5q0 59 -49 59q-34 0 -55 -25t-29 -65
q-5 -25 -5 -52q0 -34 14 -50.5t39 -16.5zM497 516h108l-86 -516h-108z" />
    <glyph glyph-name="uni044C" unicode="&#x44c;" 
d="M279 -12q-48 0 -84.5 13t-61.5 35.5t-38 53t-13 65.5q0 15 2 36t7 56l45 269h126l-38 -231h5q26 42 62.5 65.5t92.5 23.5q68 0 106 -37.5t38 -112.5q0 -53 -18.5 -96.5t-52 -74.5t-79 -48t-99.5 -17zM291 84q85 0 106 90q2 10 3 19.5t1 16.5q0 68 -75 68q-54 0 -81.5 -25
t-34.5 -63q-3 -17 -3 -33q0 -34 20.5 -53.5t63.5 -19.5z" />
    <glyph glyph-name="uni044D" unicode="&#x44d;" 
d="M222 303h178q0 6 0.5 12t0.5 12q0 49 -25.5 76t-78.5 27q-18 0 -34 -4t-31 -13t-30.5 -23.5t-33.5 -36.5l-80 53q24 31 48.5 54t51.5 38t58.5 22.5t70.5 7.5q103 0 156 -58t53 -160q0 -68 -19.5 -127t-55.5 -102.5t-88 -68t-117 -24.5q-159 0 -199 123l100 47
q14 -38 38 -55t64 -17q56 0 91.5 32.5t46.5 96.5h-179z" />
    <glyph glyph-name="uni044E" unicode="&#x44e;" 
d="M352 -12q-141 0 -141 163q0 38 3 65h-73l-36 -216h-108l86 516h108l-35 -208h70q23 106 76.5 163t130.5 57q141 0 141 -163q0 -88 -15 -158t-43.5 -118.5t-70 -74.5t-93.5 -26zM364 81q32 0 49.5 27t28.5 91l17 99q3 19 4.5 31.5t2 20t1 13t0.5 11.5q0 61 -46 61
q-32 0 -49.5 -27t-28.5 -91l-17 -99q-3 -20 -4.5 -32t-2 -19.5t-1 -13t-0.5 -11.5q0 -61 46 -61z" />
    <glyph glyph-name="uni044F" unicode="&#x44f;" 
d="M36 100h53l55 80q14 20 30.5 30t41.5 12l1 6q-63 8 -93.5 39.5t-30.5 80.5q0 41 17.5 74t49.5 56.5t77 36.5t100 13q111 0 205 -34l-82 -494h-126l32 195h-67l-90 -133q-23 -35 -49 -48.5t-64 -13.5h-76zM379 270l26 156q-15 5 -34 7.5t-39 2.5q-51 0 -77.5 -17.5
t-35.5 -54.5q-2 -6 -2 -11v-12q0 -71 85 -71h77z" />
    <glyph glyph-name="uni0450" unicode="&#x450;" 
d="M280 -12q-110 0 -164.5 57.5t-54.5 163.5q0 71 21.5 130t60.5 101t94 65t122 23q39 0 72.5 -9t59 -26.5t40 -44t14.5 -61.5q0 -30 -13 -60.5t-51 -55.5t-108.5 -42.5t-184.5 -21.5q-1 -6 -1 -10.5v-7.5q0 -46 23.5 -74t84.5 -28q24 0 43 4.5t36.5 16t35 29.5t37.5 45
l80 -51q-21 -31 -44.5 -57.5t-53 -45.5t-66 -29.5t-83.5 -10.5zM347 436q-57 0 -94.5 -32.5t-52.5 -106.5l-3 -15q77 4 121.5 14t67.5 23t29.5 28.5t6.5 29.5q0 27 -17.5 43t-57.5 16zM240 749l109 49l70 -190l-77 -33z" />
    <glyph glyph-name="uni0451" unicode="&#x451;" 
d="M280 -12q-110 0 -164.5 57.5t-54.5 163.5q0 71 21.5 130t60.5 101t94 65t122 23q39 0 72.5 -9t59 -26.5t40 -44t14.5 -61.5q0 -30 -13 -60.5t-51 -55.5t-108.5 -42.5t-184.5 -21.5q-1 -6 -1 -10.5v-7.5q0 -46 23.5 -74t84.5 -28q24 0 43 4.5t36.5 16t35 29.5t37.5 45
l80 -51q-21 -31 -44.5 -57.5t-53 -45.5t-66 -29.5t-83.5 -10.5zM347 436q-57 0 -94.5 -32.5t-52.5 -106.5l-3 -15q77 4 121.5 14t67.5 23t29.5 28.5t6.5 29.5q0 27 -17.5 43t-57.5 16zM260 600q-38 0 -53 14t-15 35q0 5 1 12.5t4 19.5q6 26 22.5 40.5t53.5 14.5q38 0 53 -14
t15 -35q0 -5 -1 -12.5t-4 -19.5q-6 -26 -22.5 -40.5t-53.5 -14.5zM469 600q-38 0 -53 14t-15 35q0 5 1 12.5t4 19.5q6 26 22.5 40.5t53.5 14.5q38 0 53 -14t15 -35q0 -5 -1 -12.5t-4 -19.5q-6 -26 -22.5 -40.5t-53.5 -14.5z" />
    <glyph glyph-name="uni0452" unicode="&#x452;" 
d="M327 -212q-36 0 -68 21.5t-72 74.5l-23 30l81 62l81 -89l14 5l67 403q2 14 4.5 30t2.5 32q0 28 -15 50t-52 22q-29 0 -50 -13t-40 -37q-11 -14 -28 -42.5t-23 -64.5l-45 -272h-126l98 589h-60l15 94h61l9 57h126l-9 -57h140l-16 -94h-140l-32 -195h5q28 61 67.5 97.5
t101.5 36.5q36 0 62.5 -11.5t43.5 -31.5t25.5 -47.5t8.5 -58.5q0 -37 -10 -96l-56 -341q-12 -73 -48 -113.5t-100 -40.5z" />
    <glyph glyph-name="uni0453" unicode="&#x453;" 
d="M252 -12q-100 0 -150 36.5t-50 105.5q0 32 10.5 60t33 50.5t57.5 38.5t84 24l72 11q56 9 77 26t21 42q0 49 -77 49q-82 0 -147 -56l-65 68q49 44 104 64.5t123 20.5q91 0 139 -36.5t48 -103.5q0 -63 -44 -108.5t-141 -60.5l-71 -12q-57 -8 -78 -26t-21 -44t20 -39t70 -13
q48 0 90.5 17t73.5 46l66 -68q-45 -42 -104.5 -67t-140.5 -25zM361 575l-74 40l113 183l100 -54z" />
    <glyph glyph-name="uni0454" unicode="&#x454;" 
d="M272 -12q-103 0 -156.5 58t-53.5 160q0 68 19.5 127t55.5 102.5t88 68t117 24.5q43 0 76 -9.5t57 -27t39 -41t23 -51.5l-99 -45q-13 42 -37 59.5t-70 17.5q-51 0 -85.5 -32.5t-45.5 -95.5h180l-15 -88h-179q-1 -7 -1 -13.5v-12.5q0 -49 26 -76.5t80 -27.5q35 0 63.5 16.5
t66.5 62.5l78 -51q-23 -31 -47 -54.5t-51.5 -39t-59 -23.5t-69.5 -8z" />
    <glyph glyph-name="uni0455" unicode="&#x455;" 
d="M261 -12q-77 0 -133 23t-85 65l75 70q24 -32 63 -49t89 -17q52 0 82 18t30 52q0 26 -16.5 36t-42.5 15l-74 15q-29 6 -55 15.5t-45.5 25t-31 39.5t-11.5 59q0 43 17.5 75t48.5 54t73 33t91 11q69 0 121.5 -20t79.5 -55l-72 -72q-17 22 -50.5 38.5t-83.5 16.5
q-48 0 -74.5 -17t-26.5 -49q0 -26 16.5 -36t42.5 -15l76 -16q30 -6 56 -15.5t45 -25t30 -38.5t11 -57q0 -42 -17.5 -75t-49.5 -56.5t-77.5 -35.5t-101.5 -12z" />
    <glyph glyph-name="uni0456" unicode="&#x456;" 
d="M340 598q-42 0 -58.5 16t-16.5 39q0 5 1 13t3 22q5 29 24.5 45.5t61.5 16.5t58.5 -16t16.5 -39q0 -5 -1 -13t-3 -22q-5 -29 -24.5 -45.5t-61.5 -16.5zM290 -12q-54 0 -82 28.5t-28 76.5q0 14 2 29t7 39l49 255h-166l17 100h293l-81 -422l19 -6l157 151l70 -63l-70 -74
q-56 -60 -98.5 -87t-88.5 -27z" />
    <glyph glyph-name="uni0457" unicode="&#x457;" 
d="M290 -12q-54 0 -82 28.5t-28 76.5q0 14 2 29t7 39l49 255h-166l17 100h293l-81 -422l19 -6l157 151l70 -63l-70 -74q-56 -60 -98.5 -87t-88.5 -27zM231 600q-38 0 -53 14t-15 35q0 5 1 12.5t4 19.5q6 26 22.5 40.5t53.5 14.5q38 0 53 -14t15 -35q0 -5 -1 -12.5t-4 -19.5
q-6 -26 -22.5 -40.5t-53.5 -14.5zM440 600q-38 0 -53 14t-15 35q0 5 1 12.5t4 19.5q6 26 22.5 40.5t53.5 14.5q38 0 53 -14t15 -35q0 -5 -1 -12.5t-4 -19.5q-6 -26 -22.5 -40.5t-53.5 -14.5z" />
    <glyph glyph-name="uni0458" unicode="&#x458;" 
d="M234 -212q-26 0 -46.5 8.5t-40 25.5t-40 43t-45.5 62l-42 56l86 63l127 -159l14 5l87 524h-196l17 100h322l-96 -574q-13 -78 -48 -116t-99 -38zM432 598q-42 0 -58.5 16t-16.5 39q0 5 1 13t3 22q5 29 24.5 45.5t61.5 16.5t58.5 -16t16.5 -39q0 -5 -1 -13t-3 -22
q-5 -29 -24.5 -45.5t-61.5 -16.5z" />
    <glyph glyph-name="uni0459" unicode="&#x459;" 
d="M392 -12q-72 0 -109 40.5t-37 113.5q0 21 2 44t7 55l30 183h-76l-10 -61q-13 -79 -25.5 -132.5t-25.5 -90t-28 -59.5t-32 -39q-26 -26 -55.5 -36t-66.5 -10h-19l16 97h45q13 15 25 36t23.5 53t21.5 76.5t21 107.5l25 150h282l-36 -217h5q39 75 112 75q47 0 74 -33t27 -99
q0 -62 -16 -109.5t-43 -79.5t-62.5 -48.5t-74.5 -16.5zM397 74q26 0 45.5 23t30.5 81q5 25 5 52q0 31 -11.5 44.5t-32.5 13.5q-29 0 -51 -24.5t-29 -67.5q-2 -14 -4 -28.5t-2 -26.5q0 -34 13 -50.5t36 -16.5z" />
    <glyph glyph-name="uni045A" unicode="&#x45a;" 
d="M392 -12q-72 0 -109.5 41t-37.5 114q0 15 1 28.5t3 27.5l2 17h-116l-36 -216h-104l86 516h105l-34 -207h115l34 207h105l-36 -217h5q39 75 112 75q47 0 74 -33t27 -99q0 -62 -16 -109.5t-43 -79.5t-62.5 -48.5t-74.5 -16.5zM397 74q26 0 45.5 23t30.5 81q5 25 5 52
q0 31 -11.5 44.5t-32.5 13.5q-30 0 -51.5 -25t-28.5 -67q-2 -14 -4 -28.5t-2 -26.5q0 -34 13 -50.5t36 -16.5z" />
    <glyph glyph-name="uni045B" unicode="&#x45b;" 
d="M133 589h-60l16 94h60l9 57h126l-9 -57h140l-16 -94h-140l-32 -195h5q28 61 67.5 97.5t101.5 36.5q36 0 62.5 -11.5t43.5 -31.5t25.5 -47.5t8.5 -58.5q0 -37 -10 -96l-47 -283h-126l49 295q2 14 4.5 30t2.5 32q0 28 -15 50t-52 22q-29 0 -50 -13.5t-40 -36.5
q-11 -14 -28 -42.5t-23 -64.5l-45 -272h-126z" />
    <glyph glyph-name="uni045C" unicode="&#x45c;" 
d="M127 516h126l-33 -206h79l141 206h133l-124 -183q-20 -30 -40 -44.5t-49 -19.5l-1 -6q22 -5 36.5 -19.5t28.5 -49.5l37 -94h56l-17 -100h-57q-40 0 -64.5 17.5t-39.5 55.5l-55 141h-81l-36 -214h-126zM354 575l-74 40l113 183l100 -54z" />
    <glyph glyph-name="uni045D" unicode="&#x45d;" 
d="M373 122h-5q-29 -62 -68 -98t-101 -36q-36 0 -62.5 11.5t-43.5 31.5t-25.5 47t-8.5 59q0 37 10 96l47 283h126l-49 -295q-2 -14 -4.5 -30t-2.5 -32q0 -28 15 -50t52 -22q29 0 50 13.5t40 36.5q11 14 28 42.5t23 64.5l45 272h126l-86 -516h-126zM233 749l109 49l70 -190
l-77 -33z" />
    <glyph glyph-name="uni045E" unicode="&#x45e;" 
d="M214 -212q-69 0 -118 16t-84 58l77 79q23 -28 54 -40.5t69 -12.5q30 0 54.5 7t43 24.5t31 47.5t19.5 75l16 97h-5q-14 -31 -30.5 -56t-37 -42.5t-45.5 -27t-56 -9.5q-36 0 -62.5 11.5t-43.5 31.5t-25.5 47t-8.5 59q0 20 2 41t7 53l45 269h126l-47 -280q-2 -14 -4 -29
t-2 -31q0 -28 15 -50t52 -22q29 0 50 13t40 36q11 14 27.5 42.5t22.5 64.5l43 256h126l-82 -491q-20 -123 -89.5 -180t-179.5 -57zM363 577q-111 0 -145 112l-16 52l103 37l9 -107q11 -3 28 -5t28 -2q14 0 30 2t26 5l41 107l99 -37l-32 -57q-31 -56 -74 -81.5t-97 -25.5z
" />
    <glyph glyph-name="uni045F" unicode="&#x45f;" 
d="M199 -12q-36 0 -62.5 11.5t-43.5 31.5t-25.5 47t-8.5 59q0 37 10 96l47 283h126l-49 -295q-2 -14 -4.5 -30t-2.5 -32q0 -28 15 -50t52 -22q29 0 50.5 13.5t39.5 36.5q5 7 12.5 18t15 25t14 30t9.5 34l45 272h126l-86 -516h-126l20 122h-5q-29 -62 -68 -98t-101 -36z
M191 -42h112l-27 -158h-112z" />
    <glyph glyph-name="uni0472" unicode="&#x472;" 
d="M273 -12q-119 0 -174 67.5t-55 187.5q0 82 16.5 165.5t53 150.5t96 109t146.5 42q119 0 174 -67.5t55 -187.5q0 -82 -16.5 -165.5t-53 -150.5t-96 -109t-146.5 -42zM274 85q71 0 108.5 50.5t54.5 152.5l2 12h-265l-2 -11q-4 -20 -5 -39t-1 -39q0 -61 25.5 -93.5
t82.5 -32.5zM457 407q5 22 6 41t1 39q0 61 -25.5 93.5t-82.5 32.5q-71 0 -108.5 -51t-55.5 -155h265z" />
    <glyph glyph-name="uni0473" unicode="&#x473;" 
d="M265 -12q-104 0 -160 60t-56 161q0 74 21 133t59 100.5t90.5 63.5t115.5 22q51 0 91.5 -15.5t68 -44.5t42 -70t14.5 -91q0 -74 -21 -133t-59 -100.5t-90.5 -63.5t-115.5 -22zM273 77q60 0 95.5 35t46.5 98l1 6h-246q-3 -18 -3 -33q0 -54 28 -80t78 -26zM431 305
q1 8 1.5 14.5t0.5 13.5q0 54 -28 80t-78 26q-60 0 -95.5 -35t-46.5 -99h246z" />
    <glyph glyph-name="uni0490" unicode="&#x490;" 
d="M189 698h295l25 150h116l-43 -257h-282l-98 -591h-129z" />
    <glyph glyph-name="uni0491" unicode="&#x491;" 
d="M167 516h267l24 142h112l-40 -240h-253l-70 -418h-126z" />
    <glyph glyph-name="uni0492" unicode="&#x492;" 
d="M68 397h87l50 301h412l-19 -107h-282l-33 -194h176l-16 -97h-176l-49 -300h-129l50 300h-87z" />
    <glyph glyph-name="uni0493" unicode="&#x493;" 
d="M135 200h-94l15 88h94l38 228h379l-16 -98h-253l-22 -130h150l-15 -88h-150l-33 -200h-126z" />
    <glyph glyph-name="uni0494" unicode="&#x494;" 
d="M355 -198q-38 0 -67.5 18.5t-61.5 62.5l-27 36l82 65l71 -79l13 5l40 221q4 21 6 40.5t2 36.5q0 45 -24.5 64t-69.5 19q-64 0 -117 -19l-45 -272h-129l116 698h411l-18 -107h-282l-36 -216h5q26 11 55 16.5t67 5.5q100 0 146.5 -45t46.5 -133q0 -31 -2.5 -57t-8.5 -60
l-28 -157q-12 -66 -47 -104.5t-98 -38.5z" />
    <glyph glyph-name="uni0495" unicode="&#x495;" 
d="M328 -212q-45 0 -77 28t-63 68l-21 27l81 63l79 -87l15 5l33 199q3 17 4 27.5t1 21.5q0 27 -19 42.5t-54 15.5q-54 0 -85.5 -29t-40.5 -80l-15 -89h-126l86 516h379l-16 -98h-253l-37 -223h5q29 54 66.5 78.5t92.5 24.5q66 0 105.5 -35t39.5 -96q0 -16 -1.5 -31.5
t-3.5 -32.5l-27 -161q-12 -73 -48 -113.5t-100 -40.5z" />
    <glyph glyph-name="uni0496" unicode="&#x496;" 
d="M477 0h-51l-22 304h-49l-51 -304h-112l51 304h-50l-118 -304h-119l100 258q17 46 40 69t58 29l1 5q-27 9 -39.5 30.5t-14.5 64.5l-12 242h107l15 -295h49l49 295h112l-49 -295h49l109 295h111l-93 -250q-16 -43 -35 -62t-51 -25l-1 -5q29 -9 42 -31.5t16 -67.5l13 -157
h55l-42 -250h-93z" />
    <glyph glyph-name="uni0497" unicode="&#x497;" 
d="M457 7q-32 11 -49.5 43.5t-17.5 95.5q0 20 0.5 38.5t2.5 32.5h-55l-36 -217h-105l36 217h-53q-14 -69 -31.5 -110.5t-37.5 -64.5q-22 -24 -49 -33t-67 -9h-37l16 96h72q13 24 25 66.5t20 96.5q5 36 7.5 67t2.5 57q0 8 -1 20.5t-3 16.5h-64l16 96h30q55 0 85 -32t30 -114
q0 -17 -0.5 -33t-1.5 -29h56l34 208h105l-34 -208h53q27 124 67 166q23 23 49.5 32.5t65.5 9.5h32l-16 -96h-66q-13 -24 -25 -65.5t-20 -97.5q-5 -35 -7.5 -66.5t-2.5 -57.5q0 -18 3 -37h80l-39 -236h-94z" />
    <glyph glyph-name="uni0498" unicode="&#x498;" 
d="M197 -7q-60 10 -104 37.5t-72 69.5l84 80q29 -39 70 -63t93 -24q54 0 85.5 25.5t37.5 71.5l2 15q1 6 1.5 12.5t0.5 11.5q0 34 -21.5 52.5t-76.5 18.5h-89l18 106h89q54 0 80.5 21.5t35.5 72.5l2 11q2 10 2 20q0 35 -26 54.5t-77 19.5q-46 0 -82 -18.5t-67 -56.5l-76 72
q45 53 103 80.5t136 27.5q107 0 163 -43t56 -121q0 -39 -13 -70.5t-35.5 -55t-53 -38t-66.5 -18.5l-1 -6q68 -11 99 -45.5t31 -90.5q0 -44 -14.5 -82.5t-41.5 -68.5t-66 -50.5t-89 -27.5l-23 -143h-119z" />
    <glyph glyph-name="uni0499" unicode="&#x499;" 
d="M201 -8q-54 7 -95 29.5t-72 57.5l77 75q28 -33 62.5 -51t85.5 -18q56 0 81.5 17t33.5 50q3 12 3 21q0 20 -14 32t-49 12h-105l15 88h86q42 0 64 15t27 42q1 4 1 7.5v6.5q0 24 -19 39.5t-68 15.5q-48 0 -82.5 -17t-66.5 -50l-66 69q51 50 107 72.5t126 22.5
q95 0 146 -36.5t51 -95.5q0 -50 -30 -83.5t-91 -46.5l-1 -5q46 -8 71 -32t25 -66q0 -67 -50 -113.5t-142 -58.5l-21 -131h-112z" />
    <glyph glyph-name="uni049A" unicode="&#x49a;" 
d="M432 1q-29 6 -48 27t-30 64l-53 209h-97l-50 -301h-129l116 698h129l-48 -292h98l165 292h132l-151 -267q-20 -35 -40.5 -50t-46.5 -20l-1 -5q23 -7 36.5 -24.5t24.5 -58.5l42 -166h85l-43 -257h-116z" />
    <glyph glyph-name="uni049B" unicode="&#x49b;" 
d="M400 0q-47 15 -70 73l-55 141h-81l-36 -214h-126l86 516h126l-34 -206h80l140 206h134l-125 -183q-20 -30 -39.5 -44.5t-48.5 -19.5l-1 -6q22 -5 36.5 -19.5t27.5 -49.5l38 -94h77l-40 -240h-112z" />
    <glyph glyph-name="uni049C" unicode="&#x49c;" 
d="M219 302h-46l-50 -302h-119l116 698h119l-48 -293h45l25 146h91l-24 -146h37l159 293h123l-146 -268q-18 -34 -39 -49t-47 -20l-1 -5q24 -7 37.5 -24.5t21.5 -57.5l36 -167h59l-18 -107h-53q-45 0 -70 22t-37 81l-44 199h-35l-24 -145h-92z" />
    <glyph glyph-name="uni049D" unicode="&#x49d;" 
d="M204 215h-46l-36 -215h-116l86 516h116l-35 -208h47l21 123h85l-21 -123h33l135 208h124l-118 -182q-20 -31 -40 -45.5t-49 -19.5l-1 -6q23 -5 37.5 -19.5t26.5 -49.5l32 -94h56l-17 -100h-47q-40 0 -65.5 17.5t-39.5 59.5l-49 138h-34l-18 -111h-85z" />
    <glyph glyph-name="uni04A0" unicode="&#x4a0;" 
d="M189 591h-128l18 107h257l-48 -292h77l154 292h132l-141 -266q-18 -35 -39 -50.5t-47 -20.5l-1 -5q25 -7 38 -25t21 -56l33 -168h58l-18 -107h-62q-45 0 -71 22.5t-37 84.5l-38 194h-77l-50 -301h-129z" />
    <glyph glyph-name="uni04A1" unicode="&#x4a1;" 
d="M160 418h-123l16 98h249l-34 -206h65l133 206h134l-119 -183q-20 -32 -41 -45.5t-47 -18.5l-1 -6q23 -6 37 -20t26 -50l32 -93h56l-17 -100h-57q-42 0 -66.5 18.5t-39.5 62.5l-45 133h-66l-36 -214h-126z" />
    <glyph glyph-name="uni04A2" unicode="&#x4a2;" 
d="M422 0h-92l50 300h-183l-50 -300h-129l116 698h129l-49 -291h183l49 291h128l-98 -591h80l-42 -257h-117z" />
    <glyph glyph-name="uni04A3" unicode="&#x4a3;" 
d="M419 0h-94l35 213h-177l-35 -213h-126l86 516h126l-34 -205h176l34 205h126l-69 -416h80l-39 -240h-113z" />
    <glyph glyph-name="uni04A4" unicode="&#x4a4;" 
d="M109 698h122l-49 -293h140l49 293h283l-17 -102h-161l-99 -596h-122l50 303h-140l-50 -303h-122z" />
    <glyph glyph-name="uni04A5" unicode="&#x4a5;" 
d="M81 516h116l-35 -206h133l34 206h288l-16 -95h-172l-70 -421h-116l36 215h-132l-36 -215h-116z" />
    <glyph glyph-name="uni04AA" unicode="&#x4aa;" 
d="M219 -4q-83 19 -122 84t-39 170q0 99 22 183.5t63 146t101 96t135 34.5q55 0 94.5 -14.5t66 -40.5t40.5 -61t17 -75l-122 -28q-3 24 -8.5 45t-17 36t-30.5 23.5t-47 8.5q-68 0 -105.5 -52.5t-53.5 -144.5l-18 -106q-4 -20 -6 -39t-2 -42q0 -58 26 -92t86 -34
q52 0 84.5 34t58.5 90l109 -36q-35 -82 -86 -131t-128 -60l-24 -141h-119z" />
    <glyph glyph-name="uni04AB" unicode="&#x4ab;" 
d="M218 -7q-76 14 -116 69.5t-40 143.5q0 68 19.5 127t55.5 102.5t88 68t117 24.5q87 0 133 -36.5t61 -92.5l-103 -47q-12 37 -34 55t-67 18q-50 0 -83 -31.5t-44 -95.5l-10 -59q-2 -12 -3 -24.5t-1 -23.5q0 -48 24.5 -74t76.5 -26q16 0 31.5 3.5t33 15.5t39 34.5t49.5 60.5
l81 -51q-43 -67 -88 -108t-108 -52l-22 -134h-112z" />
    <glyph glyph-name="uni04AE" unicode="&#x4ae;" 
d="M194 0l42 254l-154 444h137l55 -170l39 -144h8l89 144l109 170h145l-299 -440l-43 -258h-128z" />
    <glyph glyph-name="uni04AF" unicode="&#x4af;" 
d="M194 0l-107 516h130l33 -198l27 -185h6l88 185l100 198h127l-278 -516l-34 -200h-126z" />
    <glyph glyph-name="uni04B0" unicode="&#x4b0;" 
d="M105 256h131l-154 442h137l56 -170l39 -144h8l89 144l108 170h145l-299 -442h131l-17 -97h-131l-26 -159h-129l26 159h-131z" />
    <glyph glyph-name="uni04B1" unicode="&#x4b1;" 
d="M179 -88h-126l15 88h126l-107 516h130l33 -198l27 -185h6l88 185l100 198h127l-278 -516h125l-14 -88h-126l-19 -112h-126z" />
    <glyph glyph-name="uni04B2" unicode="&#x4b2;" 
d="M447 0h-50l-54 140l-44 121h-7l-82 -121l-101 -140h-143l266 361l-138 337h143l46 -118l42 -120h7l81 120l86 118h143l-249 -341l104 -250h84l-42 -257h-117z" />
    <glyph glyph-name="uni04B3" unicode="&#x4b3;" 
d="M450 28l-10 4q-19 -23 -38.5 -33.5t-43.5 -10.5q-54 0 -78 42t-24 117h-7q-20 -86 -56 -122.5t-87 -36.5t-79 34t-28 100q0 16 0.5 28t2.5 24l103 11q-1 -9 -1 -16v-9q0 -42 8 -60.5t31 -18.5q30 0 50 32.5t31.5 78t16 93.5t4.5 80q0 17 -1.5 33.5t-3.5 30.5l-13 6
l-139 -93l-52 71l70 52q38 28 71.5 45.5t68.5 17.5q28 0 47.5 -11t30.5 -31.5t16 -48t5 -60.5v-8h7q20 86 56 122.5t87 36.5t79 -34t28 -100q0 -16 -0.5 -28t-2.5 -24l-103 -11q1 9 1 16v9q0 42 -8 60.5t-31 18.5q-20 0 -35.5 -15t-27 -40t-19 -55.5t-12 -62.5t-6.5 -61
t-2 -50t1 -34.5t6 -29.5l12 -6l130 90l52 -68l-41 -243h-94z" />
    <glyph glyph-name="uni04B6" unicode="&#x4b6;" 
d="M422 0h-93l43 255h-5q-22 -11 -52 -17t-62 -6q-96 0 -142 45.5t-46 132.5q0 30 2.5 58.5t6.5 56.5l29 173h128l-33 -198q-5 -28 -6 -45t-1 -34q0 -44 23 -63.5t67 -19.5q28 0 55.5 4.5t52.5 14.5l57 341h128l-98 -591h80l-42 -257h-117z" />
    <glyph glyph-name="uni04B7" unicode="&#x4b7;" 
d="M419 0h-95l43 259h-5q-28 -54 -65 -78t-88 -24q-61 0 -100 34.5t-39 97.5q0 16 1 30.5t4 31.5l28 165h126l-25 -151q-3 -17 -4 -28t-1 -22q0 -28 17.5 -43.5t48.5 -15.5q51 0 81.5 29.5t38.5 80.5l25 150h126l-69 -416h80l-39 -240h-113z" />
    <glyph glyph-name="uni04B8" unicode="&#x4b8;" 
d="M239 233q-88 8 -127 53t-39 125q0 29 2.5 57.5t6.5 56.5l29 173h129l-34 -198q-5 -28 -6 -45t-1 -33q0 -32 13 -52.5t45 -28.5l27 160h92l-27 -161q21 2 39 6t35 11l57 341h129l-116 -698h-129l42 255h-5q-29 -13 -70 -19l-21 -129h-92z" />
    <glyph glyph-name="uni04B9" unicode="&#x4b9;" 
d="M386 243h-5q-12 -21 -29.5 -40.5t-35.5 -29.5l-16 -96h-85l14 80q-78 0 -118 34.5t-40 97.5q0 16 1 31t4 31l28 165h126l-25 -151q-3 -17 -4 -28.5t-1 -21.5q0 -45 46 -54l24 143h85l-24 -143q32 12 50.5 38.5t24.5 61.5l26 155h126l-86 -516h-126z" />
    <glyph glyph-name="uni04BA" unicode="&#x4ba;" 
d="M143 698h129l-43 -255h6q25 11 54 17.5t67 6.5q100 0 146.5 -46t46.5 -133q0 -30 -2.5 -58.5t-7.5 -56.5l-29 -173h-129l33 196q5 28 6.5 46t1.5 35q0 45 -22.5 64t-70.5 19q-32 0 -61 -5t-56 -14l-57 -341h-129z" />
    <glyph glyph-name="uni04BB" unicode="&#x4bb;" 
d="M158 740h126l-57 -346h5q28 61 67.5 97.5t101.5 36.5q36 0 62.5 -11.5t43.5 -31.5t25.5 -47.5t8.5 -58.5q0 -37 -10 -96l-47 -283h-126l49 295q2 14 4.5 30t2.5 32q0 28 -15 50t-52 22q-29 0 -50 -13.5t-40 -36.5q-11 -14 -28 -42.5t-23 -64.5l-45 -272h-126z" />
    <glyph glyph-name="uni04C0" unicode="&#x4c0;" 
d="M35 0l16 97h158l84 504h-158l16 97h444l-16 -97h-158l-84 -504h158l-16 -97h-444z" />
    <glyph glyph-name="uni04C1" unicode="&#x4c1;" 
d="M63 258q17 46 40 69t58 29l1 5q-27 9 -39 30.5t-14 64.5l-13 242h107l15 -295h51l49 295h112l-49 -295h51l109 295h111l-93 -250q-15 -43 -34.5 -62t-50.5 -25l-1 -5q28 -9 41 -31.5t17 -67.5l19 -257h-113l-22 304h-51l-51 -304h-112l51 304h-52l-117 -304h-120z
M386 747q-110 0 -144 112l-17 52l103 37l10 -107q10 -3 27 -5t28 -2q14 0 30 2t26 5l41 107l99 -37l-32 -57q-30 -56 -73.5 -81.5t-97.5 -25.5z" />
    <glyph glyph-name="uni04C2" unicode="&#x4c2;" 
d="M-17 96h72q13 24 25 66.5t20 96.5q5 36 7.5 67t2.5 57q0 8 -1 20.5t-3 16.5h-64l16 96h30q55 0 85 -32t30 -114q0 -37 -3 -62h57l34 208h105l-34 -208h53q27 124 67 166q23 23 49.5 32.5t65.5 9.5h32l-16 -96h-66q-13 -24 -25 -65.5t-20 -97.5q-5 -35 -7.5 -66.5
t-2.5 -57.5q0 -18 3 -37h69l-16 -96h-35q-54 0 -84 32t-30 114q0 20 0.5 38.5t1.5 32.5h-54l-36 -217h-105l36 217h-53q-14 -69 -31.5 -110.5t-37.5 -64.5q-22 -24 -49 -33t-67 -9h-37zM358 577q-111 0 -145 112l-16 52l103 37l9 -107q11 -3 28 -5t28 -2q14 0 30 2t26 5
l41 107l99 -37l-32 -57q-31 -56 -74 -81.5t-97 -25.5z" />
    <glyph glyph-name="uni04CF" unicode="&#x4cf;" 
d="M278 640h-161l17 100h289l-121 -640h162l-17 -100h-289z" />
    <glyph glyph-name="uni04D0" unicode="&#x4d0;" 
d="M412 0l-18 178h-212l-76 -178h-135l314 698h178l82 -698h-133zM359 572h-9l-124 -288h160zM384 747q-110 0 -144 112l-17 52l103 37l10 -107q10 -3 27 -5t28 -2q14 0 30 2t26 5l41 107l99 -37l-32 -57q-30 -56 -73.5 -81.5t-97.5 -25.5z" />
    <glyph glyph-name="uni04D1" unicode="&#x4d1;" 
d="M189 -12q-76 0 -111 52.5t-35 152.5q0 67 15.5 128t45 107t73 73t100.5 27t89 -27.5t46 -78.5h5l16 94h126l-70 -420h58l-16 -96h-70q-54 0 -79.5 27t-17.5 76l3 19h-4q-15 -30 -31.5 -54.5t-37 -42t-46.5 -27.5t-59 -10zM244 88q52 0 94 51q14 17 29.5 44.5t20.5 59.5
l15 94q7 40 -14 65.5t-72 25.5q-60 0 -90.5 -36t-40.5 -97l-11 -66q-2 -9 -3 -20t-1 -25q0 -43 17 -69.5t56 -26.5zM338 577q-111 0 -145 112l-16 52l103 37l9 -107q11 -3 28 -5t28 -2q14 0 30 2t26 5l41 107l99 -37l-32 -57q-31 -56 -74 -81.5t-97 -25.5z" />
    <glyph glyph-name="uni04D2" unicode="&#x4d2;" 
d="M412 0l-18 178h-212l-76 -178h-135l314 698h178l82 -698h-133zM359 572h-9l-124 -288h160zM283 770q-38 0 -53 14t-15 35q0 5 1 12.5t4 19.5q6 26 22.5 40.5t53.5 14.5q38 0 53 -14t15 -35q0 -5 -1 -12.5t-4 -19.5q-6 -26 -22.5 -40.5t-53.5 -14.5zM492 770q-38 0 -53 14
t-15 35q0 5 1 12.5t4 19.5q6 26 22.5 40.5t53.5 14.5q38 0 53 -14t15 -35q0 -5 -1 -12.5t-4 -19.5q-6 -26 -22.5 -40.5t-53.5 -14.5z" />
    <glyph glyph-name="uni04D3" unicode="&#x4d3;" 
d="M189 -12q-76 0 -111 52.5t-35 152.5q0 67 15.5 128t45 107t73 73t100.5 27t89 -27.5t46 -78.5h5l16 94h126l-70 -420h58l-16 -96h-70q-54 0 -79.5 27t-17.5 76l3 19h-4q-15 -30 -31.5 -54.5t-37 -42t-46.5 -27.5t-59 -10zM244 88q52 0 94 51q14 17 29.5 44.5t20.5 59.5
l15 94q7 40 -14 65.5t-72 25.5q-60 0 -90.5 -36t-40.5 -97l-11 -66q-2 -9 -3 -20t-1 -25q0 -43 17 -69.5t56 -26.5zM237 600q-38 0 -53 14t-15 35q0 5 1 12.5t4 19.5q6 26 22.5 40.5t53.5 14.5q38 0 53 -14t15 -35q0 -5 -1 -12.5t-4 -19.5q-6 -26 -22.5 -40.5t-53.5 -14.5z
M446 600q-38 0 -53 14t-15 35q0 5 1 12.5t4 19.5q6 26 22.5 40.5t53.5 14.5q38 0 53 -14t15 -35q0 -5 -1 -12.5t-4 -19.5q-6 -26 -22.5 -40.5t-53.5 -14.5z" />
    <glyph glyph-name="uni04D4" unicode="&#x4d4;" 
d="M305 179h-117l-71 -179h-126l289 698h390l-16 -98h-159l-33 -198h148l-16 -98h-148l-35 -206h159l-16 -98h-278zM353 608l-128 -332h97l55 332h-24z" />
    <glyph glyph-name="uni04D5" unicode="&#x4d5;" 
d="M113 -12q-52 0 -85 32.5t-33 98.5q0 84 55 131t154 49l47 1l7 46q2 11 3 19.5t1 15.5q0 33 -15 49.5t-42 16.5q-31 0 -52 -19.5t-38 -54.5l-69 43q27 58 67 85t97 27q51 0 81.5 -21.5t34.5 -63.5h4q21 38 55.5 61.5t83.5 23.5q60 0 95 -35.5t35 -94.5q0 -28 -10.5 -57
t-39 -53.5t-78.5 -40.5t-129 -18l-2 -13q-2 -14 -3 -28t-1 -24q0 -43 15.5 -67t46.5 -24t49.5 22.5t33.5 56.5l80 -35q-26 -60 -66.5 -94.5t-103.5 -34.5q-55 0 -94 29t-45 93h-5q-29 -122 -134 -122zM143 68q33 0 55.5 26.5t30.5 75.5l10 60l-37 -1q-45 -2 -73 -18.5
t-35 -57.5q-2 -14 -2.5 -22t-0.5 -11q0 -26 14.5 -39t37.5 -13zM456 448q-38 0 -63.5 -37.5t-36.5 -99.5l-2 -12q43 1 72 9.5t47 21.5t25.5 29.5t7.5 35.5q0 53 -50 53z" />
    <glyph glyph-name="uni04D6" unicode="&#x4d6;" 
d="M40 0l116 698h441l-18 -107h-313l-30 -184h300l-18 -107h-300l-32 -193h313l-18 -107h-441zM388 747q-110 0 -144 112l-17 52l103 37l10 -107q10 -3 27 -5t28 -2q14 0 30 2t26 5l41 107l99 -37l-32 -57q-30 -56 -73.5 -81.5t-97.5 -25.5z" />
    <glyph glyph-name="uni04D7" unicode="&#x4d7;" 
d="M280 -12q-110 0 -164.5 57.5t-54.5 163.5q0 71 21.5 130t60.5 101t94 65t122 23q39 0 72.5 -9t59 -26.5t40 -44t14.5 -61.5q0 -30 -13 -60.5t-51 -55.5t-108.5 -42.5t-184.5 -21.5q-1 -6 -1 -10.5v-7.5q0 -46 23.5 -74t84.5 -28q24 0 43 4.5t36.5 16t35 29.5t37.5 45
l80 -51q-21 -31 -44.5 -57.5t-53 -45.5t-66 -29.5t-83.5 -10.5zM347 436q-57 0 -94.5 -32.5t-52.5 -106.5l-3 -15q77 4 121.5 14t67.5 23t29.5 28.5t6.5 29.5q0 27 -17.5 43t-57.5 16zM361 577q-111 0 -145 112l-16 52l103 37l9 -107q11 -3 28 -5t28 -2q14 0 30 2t26 5
l41 107l99 -37l-32 -57q-31 -56 -74 -81.5t-97 -25.5z" />
    <glyph glyph-name="uni04D8" unicode="&#x4d8;" 
d="M267 -12q-111 0 -166 67t-55 191q0 17 1.5 45.5t6.5 57.5l7 41h392l2 12q4 21 5.5 40.5t1.5 32.5q0 62 -25.5 96t-82.5 34q-29 0 -52 -9t-41.5 -26t-33 -41t-26.5 -53l-106 44q36 91 104 140.5t167 49.5q113 0 167.5 -67t54.5 -208q0 -75 -16.5 -154t-54.5 -144
t-99.5 -107t-150.5 -42zM273 91q70 0 109 53t54 145l1 6h-259q-5 -20 -6.5 -43t-1.5 -40q0 -54 23 -87.5t80 -33.5z" />
    <glyph glyph-name="uni04D9" unicode="&#x4d9;" 
d="M241 -12q-39 0 -72.5 9t-59 26.5t-40 44t-14.5 61.5q0 30 13 60.5t51 55.5t108.5 42.5t184.5 21.5q1 6 1 10.5v7.5q0 46 -23.5 74t-84.5 28q-24 0 -43 -4.5t-36.5 -16t-35 -29.5t-37.5 -45l-80 51q21 31 44.5 57.5t53 45.5t66 29.5t83.5 10.5q110 0 164.5 -57.5
t54.5 -163.5q0 -71 -21.5 -130t-60.5 -101t-94 -65t-122 -23zM253 80q57 0 94.5 32.5t52.5 106.5l3 15q-77 -4 -121.5 -14t-67.5 -23t-29.5 -28.5t-6.5 -29.5q0 -27 17.5 -43t57.5 -16z" />
    <glyph glyph-name="uni04DC" unicode="&#x4dc;" 
d="M63 258q17 46 40 69t58 29l1 5q-27 9 -39 30.5t-14 64.5l-13 242h107l15 -295h51l49 295h112l-49 -295h51l109 295h111l-93 -250q-15 -43 -34.5 -62t-50.5 -25l-1 -5q28 -9 41 -31.5t17 -67.5l19 -257h-113l-22 304h-51l-51 -304h-112l51 304h-52l-117 -304h-120z
M285 770q-38 0 -53 14t-15 35q0 5 1 12.5t4 19.5q6 26 22.5 40.5t53.5 14.5q38 0 53 -14t15 -35q0 -5 -1 -12.5t-4 -19.5q-6 -26 -22.5 -40.5t-53.5 -14.5zM494 770q-38 0 -53 14t-15 35q0 5 1 12.5t4 19.5q6 26 22.5 40.5t53.5 14.5q38 0 53 -14t15 -35q0 -5 -1 -12.5
t-4 -19.5q-6 -26 -22.5 -40.5t-53.5 -14.5z" />
    <glyph glyph-name="uni04DD" unicode="&#x4dd;" 
d="M-17 96h72q13 24 25 66.5t20 96.5q5 36 7.5 67t2.5 57q0 8 -1 20.5t-3 16.5h-64l16 96h30q55 0 85 -32t30 -114q0 -37 -3 -62h57l34 208h105l-34 -208h53q27 124 67 166q23 23 49.5 32.5t65.5 9.5h32l-16 -96h-66q-13 -24 -25 -65.5t-20 -97.5q-5 -35 -7.5 -66.5
t-2.5 -57.5q0 -18 3 -37h69l-16 -96h-35q-54 0 -84 32t-30 114q0 20 0.5 38.5t1.5 32.5h-54l-36 -217h-105l36 217h-53q-14 -69 -31.5 -110.5t-37.5 -64.5q-22 -24 -49 -33t-67 -9h-37zM257 600q-38 0 -53 14t-15 35q0 5 1 12.5t4 19.5q6 26 22.5 40.5t53.5 14.5
q38 0 53 -14t15 -35q0 -5 -1 -12.5t-4 -19.5q-6 -26 -22.5 -40.5t-53.5 -14.5zM466 600q-38 0 -53 14t-15 35q0 5 1 12.5t4 19.5q6 26 22.5 40.5t53.5 14.5q38 0 53 -14t15 -35q0 -5 -1 -12.5t-4 -19.5q-6 -26 -22.5 -40.5t-53.5 -14.5z" />
    <glyph glyph-name="uni04DE" unicode="&#x4de;" 
d="M258 -12q-82 0 -142 30t-95 82l84 80q29 -39 70 -63t93 -24q54 0 85.5 25.5t37.5 71.5l2 15q1 6 1.5 12.5t0.5 11.5q0 34 -21.5 52.5t-76.5 18.5h-89l18 106h89q54 0 80.5 21.5t35.5 72.5l2 11q2 10 2 20q0 35 -26 54.5t-77 19.5q-46 0 -82 -18.5t-67 -56.5l-76 72
q45 53 103 80.5t136 27.5q107 0 163 -43t56 -121q0 -39 -13 -70.5t-35.5 -55t-53 -38t-66.5 -18.5l-1 -6q68 -11 99 -45.5t31 -90.5q0 -50 -18.5 -92.5t-53 -74t-84 -49.5t-112.5 -18zM270 770q-38 0 -53 14t-15 35q0 5 1 12.5t4 19.5q6 26 22.5 40.5t53.5 14.5q38 0 53 -14
t15 -35q0 -5 -1 -12.5t-4 -19.5q-6 -26 -22.5 -40.5t-53.5 -14.5zM479 770q-38 0 -53 14t-15 35q0 5 1 12.5t4 19.5q6 26 22.5 40.5t53.5 14.5q38 0 53 -14t15 -35q0 -5 -1 -12.5t-4 -19.5q-6 -26 -22.5 -40.5t-53.5 -14.5z" />
    <glyph glyph-name="uni04DF" unicode="&#x4df;" 
d="M256 -12q-75 0 -129 23t-93 68l77 75q28 -33 62.5 -51t85.5 -18q56 0 81.5 17t33.5 50q3 12 3 21q0 20 -14 32t-49 12h-105l15 88h86q42 0 64 15t27 42q1 4 1 7.5v6.5q0 24 -19 39.5t-68 15.5q-48 0 -82.5 -17t-66.5 -50l-66 69q51 50 107 72.5t126 22.5q95 0 146 -36.5
t51 -95.5q0 -50 -30 -83.5t-91 -46.5l-1 -5q46 -8 71 -32t25 -66q0 -38 -17 -70.5t-49 -55.5t-78 -36t-104 -13zM251 600q-38 0 -53 14t-15 35q0 5 1 12.5t4 19.5q6 26 22.5 40.5t53.5 14.5q38 0 53 -14t15 -35q0 -5 -1 -12.5t-4 -19.5q-6 -26 -22.5 -40.5t-53.5 -14.5z
M460 600q-38 0 -53 14t-15 35q0 5 1 12.5t4 19.5q6 26 22.5 40.5t53.5 14.5q38 0 53 -14t15 -35q0 -5 -1 -12.5t-4 -19.5q-6 -26 -22.5 -40.5t-53.5 -14.5z" />
    <glyph glyph-name="uni04E2" unicode="&#x4e2;" 
d="M137 698h123l-47 -283l-48 -196h8l110 166l208 313h120l-116 -698h-123l47 283l48 196h-8l-97 -146l-221 -333h-120zM251 884h297l-16 -91h-296z" />
    <glyph glyph-name="uni04E3" unicode="&#x4e3;" 
d="M373 122h-5q-29 -62 -68 -98t-101 -36q-36 0 -62.5 11.5t-43.5 31.5t-25.5 47t-8.5 59q0 37 10 96l47 283h126l-49 -295q-2 -14 -4.5 -30t-2.5 -32q0 -28 15 -50t52 -22q29 0 50 13.5t40 36.5q11 14 28 42.5t23 64.5l45 272h126l-86 -516h-126zM223 714h297l-16 -91h-296
z" />
    <glyph glyph-name="uni04E4" unicode="&#x4e4;" 
d="M137 698h123l-47 -283l-48 -196h8l110 166l208 313h120l-116 -698h-123l47 283l48 196h-8l-97 -146l-221 -333h-120zM281 770q-38 0 -53 14t-15 35q0 5 1 12.5t4 19.5q6 26 22.5 40.5t53.5 14.5q38 0 53 -14t15 -35q0 -5 -1 -12.5t-4 -19.5q-6 -26 -22.5 -40.5
t-53.5 -14.5zM490 770q-38 0 -53 14t-15 35q0 5 1 12.5t4 19.5q6 26 22.5 40.5t53.5 14.5q38 0 53 -14t15 -35q0 -5 -1 -12.5t-4 -19.5q-6 -26 -22.5 -40.5t-53.5 -14.5z" />
    <glyph glyph-name="uni04E5" unicode="&#x4e5;" 
d="M373 122h-5q-29 -62 -68 -98t-101 -36q-36 0 -62.5 11.5t-43.5 31.5t-25.5 47t-8.5 59q0 37 10 96l47 283h126l-49 -295q-2 -14 -4.5 -30t-2.5 -32q0 -28 15 -50t52 -22q29 0 50 13.5t40 36.5q11 14 28 42.5t23 64.5l45 272h126l-86 -516h-126zM253 600q-38 0 -53 14
t-15 35q0 5 1 12.5t4 19.5q6 26 22.5 40.5t53.5 14.5q38 0 53 -14t15 -35q0 -5 -1 -12.5t-4 -19.5q-6 -26 -22.5 -40.5t-53.5 -14.5zM462 600q-38 0 -53 14t-15 35q0 5 1 12.5t4 19.5q6 26 22.5 40.5t53.5 14.5q38 0 53 -14t15 -35q0 -5 -1 -12.5t-4 -19.5
q-6 -26 -22.5 -40.5t-53.5 -14.5z" />
    <glyph glyph-name="uni04E6" unicode="&#x4e6;" 
d="M273 -12q-119 0 -174 67.5t-55 187.5q0 82 16.5 165.5t53 150.5t96 109t146.5 42q119 0 174 -67.5t55 -187.5q0 -82 -16.5 -165.5t-53 -150.5t-96 -109t-146.5 -42zM275 94q68 0 103.5 51.5t50.5 144.5l20 117q6 40 6 76q0 57 -24 89t-77 32q-68 0 -103.5 -51.5
t-50.5 -144.5l-20 -117q-6 -41 -6 -76q0 -57 24 -89t77 -32zM272 770q-38 0 -53 14t-15 35q0 5 1 12.5t4 19.5q6 26 22.5 40.5t53.5 14.5q38 0 53 -14t15 -35q0 -5 -1 -12.5t-4 -19.5q-6 -26 -22.5 -40.5t-53.5 -14.5zM481 770q-38 0 -53 14t-15 35q0 5 1 12.5t4 19.5
q6 26 22.5 40.5t53.5 14.5q38 0 53 -14t15 -35q0 -5 -1 -12.5t-4 -19.5q-6 -26 -22.5 -40.5t-53.5 -14.5z" />
    <glyph glyph-name="uni04E7" unicode="&#x4e7;" 
d="M265 -12q-51 0 -91.5 15.5t-68 44.5t-42 70t-14.5 91q0 74 21 133t59 100.5t90.5 63.5t115.5 22q51 0 91.5 -15.5t68 -44.5t42 -70t14.5 -91q0 -74 -21 -133t-59 -100.5t-90.5 -63.5t-115.5 -22zM274 85q56 0 89.5 33.5t44.5 95.5l12 71q2 12 3.5 24t1.5 21
q0 51 -26.5 76t-72.5 25q-56 0 -89.5 -33.5t-44.5 -95.5l-12 -71q-2 -12 -3.5 -24t-1.5 -21q0 -51 26.5 -76t72.5 -25zM257 600q-38 0 -53 14t-15 35q0 5 1 12.5t4 19.5q6 26 22.5 40.5t53.5 14.5q38 0 53 -14t15 -35q0 -5 -1 -12.5t-4 -19.5q-6 -26 -22.5 -40.5
t-53.5 -14.5zM466 600q-38 0 -53 14t-15 35q0 5 1 12.5t4 19.5q6 26 22.5 40.5t53.5 14.5q38 0 53 -14t15 -35q0 -5 -1 -12.5t-4 -19.5q-6 -26 -22.5 -40.5t-53.5 -14.5z" />
    <glyph glyph-name="uni04E8" unicode="&#x4e8;" 
d="M273 -12q-119 0 -174 67.5t-55 187.5q0 82 16.5 165.5t53 150.5t96 109t146.5 42q119 0 174 -67.5t55 -187.5q0 -82 -16.5 -165.5t-53 -150.5t-96 -109t-146.5 -42zM274 85q71 0 108.5 50.5t54.5 152.5l2 12h-265l-2 -11q-4 -20 -5 -39t-1 -39q0 -61 25.5 -93.5
t82.5 -32.5zM457 407q5 22 6 41t1 39q0 61 -25.5 93.5t-82.5 32.5q-71 0 -108.5 -51t-55.5 -155h265z" />
    <glyph glyph-name="uni04E9" unicode="&#x4e9;" 
d="M265 -12q-104 0 -160 60t-56 161q0 74 21 133t59 100.5t90.5 63.5t115.5 22q51 0 91.5 -15.5t68 -44.5t42 -70t14.5 -91q0 -74 -21 -133t-59 -100.5t-90.5 -63.5t-115.5 -22zM273 77q60 0 95.5 35t46.5 98l1 6h-246q-3 -18 -3 -33q0 -54 28 -80t78 -26zM431 305
q1 8 1.5 14.5t0.5 13.5q0 54 -28 80t-78 26q-60 0 -95.5 -35t-46.5 -99h246z" />
    <glyph glyph-name="uni04EE" unicode="&#x4ee;" 
d="M96 107h110l35 67l-140 524h129l65 -266l23 -128h3l56 127l139 267h134l-317 -587q-17 -32 -34 -53.5t-36.5 -34t-43 -18t-53.5 -5.5h-88zM250 884h297l-16 -91h-296z" />
    <glyph glyph-name="uni04EF" unicode="&#x4ef;" 
d="M214 -212q-69 0 -118 16t-84 58l77 79q23 -28 54 -40.5t69 -12.5q30 0 54.5 7t43 24.5t31 47.5t19.5 75l16 97h-5q-14 -31 -30.5 -56t-37 -42.5t-45.5 -27t-56 -9.5q-36 0 -62.5 11.5t-43.5 31.5t-25.5 47t-8.5 59q0 20 2 41t7 53l45 269h126l-47 -280q-2 -14 -4 -29
t-2 -31q0 -28 15 -50t52 -22q29 0 50 13t40 36q11 14 27.5 42.5t22.5 64.5l43 256h126l-82 -491q-20 -123 -89.5 -180t-179.5 -57zM232 714h297l-16 -91h-296z" />
    <glyph glyph-name="uni04F0" unicode="&#x4f0;" 
d="M96 107h110l35 67l-140 524h129l65 -266l23 -128h3l56 127l139 267h134l-317 -587q-17 -32 -34 -53.5t-36.5 -34t-43 -18t-53.5 -5.5h-88zM280 770q-38 0 -53 14t-15 35q0 5 1 12.5t4 19.5q6 26 22.5 40.5t53.5 14.5q38 0 53 -14t15 -35q0 -5 -1 -12.5t-4 -19.5
q-6 -26 -22.5 -40.5t-53.5 -14.5zM489 770q-38 0 -53 14t-15 35q0 5 1 12.5t4 19.5q6 26 22.5 40.5t53.5 14.5q38 0 53 -14t15 -35q0 -5 -1 -12.5t-4 -19.5q-6 -26 -22.5 -40.5t-53.5 -14.5z" />
    <glyph glyph-name="uni04F1" unicode="&#x4f1;" 
d="M214 -212q-69 0 -118 16t-84 58l77 79q23 -28 54 -40.5t69 -12.5q30 0 54.5 7t43 24.5t31 47.5t19.5 75l16 97h-5q-14 -31 -30.5 -56t-37 -42.5t-45.5 -27t-56 -9.5q-36 0 -62.5 11.5t-43.5 31.5t-25.5 47t-8.5 59q0 20 2 41t7 53l45 269h126l-47 -280q-2 -14 -4 -29
t-2 -31q0 -28 15 -50t52 -22q29 0 50 13t40 36q11 14 27.5 42.5t22.5 64.5l43 256h126l-82 -491q-20 -123 -89.5 -180t-179.5 -57zM262 600q-38 0 -53 14t-15 35q0 5 1 12.5t4 19.5q6 26 22.5 40.5t53.5 14.5q38 0 53 -14t15 -35q0 -5 -1 -12.5t-4 -19.5q-6 -26 -22.5 -40.5
t-53.5 -14.5zM471 600q-38 0 -53 14t-15 35q0 5 1 12.5t4 19.5q6 26 22.5 40.5t53.5 14.5q38 0 53 -14t15 -35q0 -5 -1 -12.5t-4 -19.5q-6 -26 -22.5 -40.5t-53.5 -14.5z" />
    <glyph glyph-name="uni04F2" unicode="&#x4f2;" 
d="M96 107h110l35 67l-140 524h129l65 -266l23 -128h3l56 127l139 267h134l-317 -587q-17 -32 -34 -53.5t-36.5 -34t-43 -18t-53.5 -5.5h-88zM292 746l-68 34l108 185l95 -51zM480 746l-68 34l108 185l95 -51z" />
    <glyph glyph-name="uni04F3" unicode="&#x4f3;" 
d="M214 -212q-69 0 -118 16t-84 58l77 79q23 -28 54 -40.5t69 -12.5q30 0 54.5 7t43 24.5t31 47.5t19.5 75l16 97h-5q-14 -31 -30.5 -56t-37 -42.5t-45.5 -27t-56 -9.5q-36 0 -62.5 11.5t-43.5 31.5t-25.5 47t-8.5 59q0 20 2 41t7 53l45 269h126l-47 -280q-2 -14 -4 -29
t-2 -31q0 -28 15 -50t52 -22q29 0 50 13t40 36q11 14 27.5 42.5t22.5 64.5l43 256h126l-82 -491q-20 -123 -89.5 -180t-179.5 -57zM274 576l-68 34l108 185l95 -51zM462 576l-68 34l108 185l95 -51z" />
    <glyph glyph-name="uni04F4" unicode="&#x4f4;" 
d="M399 255h-5q-25 -11 -54.5 -17t-66.5 -6q-100 0 -146.5 45.5t-46.5 132.5q0 30 2.5 58.5t6.5 56.5l29 173h129l-34 -198q-5 -28 -6 -45t-1 -34q0 -45 22.5 -64t70.5 -19q33 0 62 5t55 14l57 341h129l-116 -698h-129zM272 770q-38 0 -53 14t-15 35q0 5 1 12.5t4 19.5
q6 26 22.5 40.5t53.5 14.5q38 0 53 -14t15 -35q0 -5 -1 -12.5t-4 -19.5q-6 -26 -22.5 -40.5t-53.5 -14.5zM481 770q-38 0 -53 14t-15 35q0 5 1 12.5t4 19.5q6 26 22.5 40.5t53.5 14.5q38 0 53 -14t15 -35q0 -5 -1 -12.5t-4 -19.5q-6 -26 -22.5 -40.5t-53.5 -14.5z" />
    <glyph glyph-name="uni04F5" unicode="&#x4f5;" 
d="M385 259h-5q-29 -54 -66.5 -78.5t-92.5 -24.5q-66 0 -105.5 35t-39.5 97q0 16 1.5 31.5t3.5 31.5l28 165h126l-26 -151q-3 -17 -4 -28t-1 -22q0 -28 19 -43.5t54 -15.5q54 0 85.5 29.5t40.5 80.5l25 150h126l-86 -516h-126zM245 600q-38 0 -53 14t-15 35q0 5 1 12.5
t4 19.5q6 26 22.5 40.5t53.5 14.5q38 0 53 -14t15 -35q0 -5 -1 -12.5t-4 -19.5q-6 -26 -22.5 -40.5t-53.5 -14.5zM454 600q-38 0 -53 14t-15 35q0 5 1 12.5t4 19.5q6 26 22.5 40.5t53.5 14.5q38 0 53 -14t15 -35q0 -5 -1 -12.5t-4 -19.5q-6 -26 -22.5 -40.5t-53.5 -14.5z
" />
    <glyph glyph-name="uni04F8" unicode="&#x4f8;" 
d="M164 100q45 0 70.5 23t33.5 74l4 21q2 16 3 27.5t1 24.5q0 33 -16 50.5t-57 17.5h-40l-39 -238h40zM109 698h114l-43 -260h38q88 0 132 -46t44 -124q0 -129 -64 -198.5t-172 -69.5h-165zM525 698h114l-116 -698h-114zM286 770q-38 0 -53 14t-15 35q0 5 1 12.5t4 19.5
q6 26 22.5 40.5t53.5 14.5q38 0 53 -14t15 -35q0 -5 -1 -12.5t-4 -19.5q-6 -26 -22.5 -40.5t-53.5 -14.5zM495 770q-38 0 -53 14t-15 35q0 5 1 12.5t4 19.5q6 26 22.5 40.5t53.5 14.5q38 0 53 -14t15 -35q0 -5 -1 -12.5t-4 -19.5q-6 -26 -22.5 -40.5t-53.5 -14.5z" />
    <glyph glyph-name="uni04F9" unicode="&#x4f9;" 
d="M184 -12q-80 0 -119 40.5t-39 115.5q0 22 2.5 46t7.5 57l46 269h108l-38 -223h6q20 40 48 61t70 21q52 0 79.5 -34t27.5 -100q0 -62 -16 -109.5t-43 -79.5t-63.5 -48t-76.5 -16zM185 77q29 0 49.5 21t30.5 80q2 9 3.5 22.5t1.5 26.5q0 59 -49 59q-34 0 -55 -25t-29 -65
q-5 -25 -5 -52q0 -34 14 -50.5t39 -16.5zM497 516h108l-86 -516h-108zM257 600q-38 0 -53 14t-15 35q0 5 1 12.5t4 19.5q6 26 22.5 40.5t53.5 14.5q38 0 53 -14t15 -35q0 -5 -1 -12.5t-4 -19.5q-6 -26 -22.5 -40.5t-53.5 -14.5zM466 600q-38 0 -53 14t-15 35q0 5 1 12.5
t4 19.5q6 26 22.5 40.5t53.5 14.5q38 0 53 -14t15 -35q0 -5 -1 -12.5t-4 -19.5q-6 -26 -22.5 -40.5t-53.5 -14.5z" />
    <glyph glyph-name="uni0E3F" unicode="&#xe3f;" 
d="M287 -113h-96l19 113h-179l116 698h179l19 113h96l-19 -114q80 -5 121.5 -48t41.5 -111q0 -72 -40 -117t-112 -61v-4q55 -12 87 -45t32 -93q0 -48 -16.5 -88t-47.5 -69t-74.5 -45t-98.5 -16h-9zM283 399l34 205h-69l-34 -205h69zM462 538q0 29 -16.5 44.5t-46.5 19.5
l-33 -200q76 7 88 77l5 30q3 18 3 29zM232 94l36 217h-69l-36 -217h69zM430 240q0 67 -79 71l-36 -216q46 2 72.5 20.5t33.5 60.5l5 30q2 9 3 18.5t1 15.5z" />
    <glyph glyph-name="Wgrave" unicode="&#x1e80;" 
d="M262 919l109 49l70 -190l-77 -33zM21 0l70 698h111l-44 -404l-19 -174h9l137 417h123l2 -417h9l34 161l94 417h107l-163 -698h-169l6 396h-9l-129 -396h-169z" />
    <glyph glyph-name="wgrave" unicode="&#x1e81;" 
d="M116 -11q-49 0 -71.5 29t-22.5 77q0 14 2 39t6 48l56 334h100l-55 -330q-2 -11 -4 -26.5t-2 -26.5q0 -42 36 -42q17 0 30 11t25 29q9 13 14.5 32.5t8.5 37.5l53 315h99l-56 -337q-2 -11 -3.5 -25.5t-1.5 -22.5q0 -19 7.5 -30.5t26.5 -11.5q21 0 40.5 23.5t34.5 62.5
t24 89t9 103q0 35 -5 70t-15 59l91 27q14 -28 23 -67.5t9 -88.5q0 -90 -22.5 -167.5t-62.5 -129.5q-30 -40 -68.5 -60.5t-80.5 -20.5q-51 0 -73 29.5t-19 78.5h-6q-20 -53 -51 -80.5t-76 -27.5zM233 749l109 49l70 -190l-77 -33z" />
    <glyph glyph-name="Wacute" unicode="&#x1e82;" 
d="M390 745l-74 40l113 183l100 -54zM21 0l70 698h111l-44 -404l-19 -174h9l137 417h123l2 -417h9l34 161l94 417h107l-163 -698h-169l6 396h-9l-129 -396h-169z" />
    <glyph glyph-name="wacute" unicode="&#x1e83;" 
d="M361 575l-74 40l113 183l100 -54zM116 -11q-49 0 -71.5 29t-22.5 77q0 14 2 39t6 48l56 334h100l-55 -330q-2 -11 -4 -26.5t-2 -26.5q0 -42 36 -42q17 0 30 11t25 29q9 13 14.5 32.5t8.5 37.5l53 315h99l-56 -337q-2 -11 -3.5 -25.5t-1.5 -22.5q0 -19 7.5 -30.5
t26.5 -11.5q21 0 40.5 23.5t34.5 62.5t24 89t9 103q0 35 -5 70t-15 59l91 27q14 -28 23 -67.5t9 -88.5q0 -90 -22.5 -167.5t-62.5 -129.5q-30 -40 -68.5 -60.5t-80.5 -20.5q-51 0 -73 29.5t-19 78.5h-6q-20 -53 -51 -80.5t-76 -27.5z" />
    <glyph glyph-name="Wdieresis" unicode="&#x1e84;" 
d="M21 0l70 698h111l-44 -404l-19 -174h9l137 417h123l2 -417h9l34 161l94 417h107l-163 -698h-169l6 396h-9l-129 -396h-169zM282 770q-38 0 -53 14t-15 35q0 5 1 12.5t4 19.5q6 26 22.5 40.5t53.5 14.5q38 0 53 -14t15 -35q0 -5 -1 -12.5t-4 -19.5q-6 -26 -22.5 -40.5
t-53.5 -14.5zM491 770q-38 0 -53 14t-15 35q0 5 1 12.5t4 19.5q6 26 22.5 40.5t53.5 14.5q38 0 53 -14t15 -35q0 -5 -1 -12.5t-4 -19.5q-6 -26 -22.5 -40.5t-53.5 -14.5z" />
    <glyph glyph-name="wdieresis" unicode="&#x1e85;" 
d="M253 600q-38 0 -53 14t-15 35q0 5 1 12.5t4 19.5q6 26 22.5 40.5t53.5 14.5q38 0 53 -14t15 -35q0 -5 -1 -12.5t-4 -19.5q-6 -26 -22.5 -40.5t-53.5 -14.5zM462 600q-38 0 -53 14t-15 35q0 5 1 12.5t4 19.5q6 26 22.5 40.5t53.5 14.5q38 0 53 -14t15 -35q0 -5 -1 -12.5
t-4 -19.5q-6 -26 -22.5 -40.5t-53.5 -14.5zM116 -11q-49 0 -71.5 29t-22.5 77q0 14 2 39t6 48l56 334h100l-55 -330q-2 -11 -4 -26.5t-2 -26.5q0 -42 36 -42q17 0 30 11t25 29q9 13 14.5 32.5t8.5 37.5l53 315h99l-56 -337q-2 -11 -3.5 -25.5t-1.5 -22.5q0 -19 7.5 -30.5
t26.5 -11.5q21 0 40.5 23.5t34.5 62.5t24 89t9 103q0 35 -5 70t-15 59l91 27q14 -28 23 -67.5t9 -88.5q0 -90 -22.5 -167.5t-62.5 -129.5q-30 -40 -68.5 -60.5t-80.5 -20.5q-51 0 -73 29.5t-19 78.5h-6q-20 -53 -51 -80.5t-76 -27.5z" />
    <glyph glyph-name="uni1E9E" unicode="&#x1e9e;" 
d="M115 698h499l-19 -115l-171 -174l-1 -5q30 -1 57.5 -10.5t48.5 -28.5t34 -49t13 -72q0 -45 -14.5 -90.5t-44 -82t-75 -60t-108.5 -23.5q-48 0 -93.5 17.5t-73.5 51.5l80 78q16 -23 38.5 -33.5t49.5 -10.5q46 0 71 29t34 70q5 21 6 33t1 20q0 31 -18.5 49.5t-60.5 18.5
h-86l17 105l177 182h-250l-100 -598h-128z" />
    <glyph glyph-name="uni1EA0" unicode="&#x1ea0;" 
d="M412 0l-18 178h-212l-76 -178h-135l314 698h178l82 -698h-133zM359 572h-9l-124 -288h160zM234 -193q-36 0 -51 14.5t-15 35.5q0 5 1 13.5t3 16.5q5 26 22 41t54 15q36 0 51 -14.5t15 -35.5q0 -5 -1 -13.5t-3 -16.5q-5 -26 -22 -41t-54 -15z" />
    <glyph glyph-name="uni1EA1" unicode="&#x1ea1;" 
d="M189 -12q-76 0 -111 52.5t-35 152.5q0 67 15.5 128t45 107t73 73t100.5 27t89 -27.5t46 -78.5h5l16 94h126l-70 -420h58l-16 -96h-70q-54 0 -79.5 27t-17.5 76l3 19h-4q-15 -30 -31.5 -54.5t-37 -42t-46.5 -27.5t-59 -10zM244 88q52 0 94 51q14 17 29.5 44.5t20.5 59.5
l15 94q7 40 -14 65.5t-72 25.5q-60 0 -90.5 -36t-40.5 -97l-11 -66q-2 -9 -3 -20t-1 -25q0 -43 17 -69.5t56 -26.5zM219 -193q-36 0 -51 14.5t-15 35.5q0 5 1 13.5t3 16.5q5 26 22 41t54 15q36 0 51 -14.5t15 -35.5q0 -5 -1 -13.5t-3 -16.5q-5 -26 -22 -41t-54 -15z" />
    <glyph glyph-name="uni1EA2" unicode="&#x1ea2;" 
d="M412 0l-18 178h-212l-76 -178h-135l314 698h178l82 -698h-133zM359 572h-9l-124 -288h160zM305 954h134q39 0 58 -16.5t19 -40.5q0 -29 -13.5 -53t-36.5 -50l-50 -58l-63 32l57 95h-120z" />
    <glyph glyph-name="uni1EA3" unicode="&#x1ea3;" 
d="M189 -12q-76 0 -111 52.5t-35 152.5q0 67 15.5 128t45 107t73 73t100.5 27t89 -27.5t46 -78.5h5l16 94h126l-70 -420h58l-16 -96h-70q-54 0 -79.5 27t-17.5 76l3 19h-4q-15 -30 -31.5 -54.5t-37 -42t-46.5 -27.5t-59 -10zM244 88q52 0 94 51q14 17 29.5 44.5t20.5 59.5
l15 94q7 40 -14 65.5t-72 25.5q-60 0 -90.5 -36t-40.5 -97l-11 -66q-2 -9 -3 -20t-1 -25q0 -43 17 -69.5t56 -26.5zM259 784h134q39 0 58 -16.5t19 -40.5q0 -29 -13.5 -53t-36.5 -50l-50 -58l-63 32l57 95h-120z" />
    <glyph glyph-name="uni1EA4" unicode="&#x1ea4;" 
d="M412 0l-18 178h-212l-76 -178h-135l314 698h178l82 -698h-133zM359 572h-9l-124 -288h160zM570 891l-68 35l102 184l97 -50zM456 936l111 -146l-66 -52l-105 108l-136 -108l-56 54l157 144h95z" />
    <glyph glyph-name="uni1EA5" unicode="&#x1ea5;" 
d="M189 -12q-76 0 -111 52.5t-35 152.5q0 67 15.5 128t45 107t73 73t100.5 27t89 -27.5t46 -78.5h5l16 94h126l-70 -420h58l-16 -96h-70q-54 0 -79.5 27t-17.5 76l3 19h-4q-15 -30 -31.5 -54.5t-37 -42t-46.5 -27.5t-59 -10zM244 88q52 0 94 51q14 17 29.5 44.5t20.5 59.5
l15 94q7 40 -14 65.5t-72 25.5q-60 0 -90.5 -36t-40.5 -97l-11 -66q-2 -9 -3 -20t-1 -25q0 -43 17 -69.5t56 -26.5zM524 721l-68 35l102 184l97 -50zM410 766l111 -146l-66 -52l-105 108l-136 -108l-56 54l157 144h95z" />
    <glyph glyph-name="uni1EA6" unicode="&#x1ea6;" 
d="M412 0l-18 178h-212l-76 -178h-135l314 698h178l82 -698h-133zM359 572h-9l-124 -288h160zM132 1064l101 47l67 -188l-66 -32zM456 936l111 -146l-66 -52l-105 108l-136 -108l-56 54l157 144h95z" />
    <glyph glyph-name="uni1EA7" unicode="&#x1ea7;" 
d="M189 -12q-76 0 -111 52.5t-35 152.5q0 67 15.5 128t45 107t73 73t100.5 27t89 -27.5t46 -78.5h5l16 94h126l-70 -420h58l-16 -96h-70q-54 0 -79.5 27t-17.5 76l3 19h-4q-15 -30 -31.5 -54.5t-37 -42t-46.5 -27.5t-59 -10zM244 88q52 0 94 51q14 17 29.5 44.5t20.5 59.5
l15 94q7 40 -14 65.5t-72 25.5q-60 0 -90.5 -36t-40.5 -97l-11 -66q-2 -9 -3 -20t-1 -25q0 -43 17 -69.5t56 -26.5zM86 894l101 47l67 -188l-66 -32zM410 766l111 -146l-66 -52l-105 108l-136 -108l-56 54l157 144h95z" />
    <glyph glyph-name="uni1EA8" unicode="&#x1ea8;" 
d="M412 0l-18 178h-212l-76 -178h-135l314 698h178l82 -698h-133zM359 572h-9l-124 -288h160zM475 1099h127q40 0 58.5 -16.5t18.5 -40.5q0 -27 -13 -49.5t-33 -47.5l-54 -65l-63 32l58 97h-113zM456 936l111 -146l-66 -52l-105 108l-136 -108l-56 54l157 144h95z" />
    <glyph glyph-name="uni1EA9" unicode="&#x1ea9;" 
d="M189 -12q-76 0 -111 52.5t-35 152.5q0 67 15.5 128t45 107t73 73t100.5 27t89 -27.5t46 -78.5h5l16 94h126l-70 -420h58l-16 -96h-70q-54 0 -79.5 27t-17.5 76l3 19h-4q-15 -30 -31.5 -54.5t-37 -42t-46.5 -27.5t-59 -10zM244 88q52 0 94 51q14 17 29.5 44.5t20.5 59.5
l15 94q7 40 -14 65.5t-72 25.5q-60 0 -90.5 -36t-40.5 -97l-11 -66q-2 -9 -3 -20t-1 -25q0 -43 17 -69.5t56 -26.5zM429 929h127q40 0 58.5 -16.5t18.5 -40.5q0 -27 -13 -49.5t-33 -47.5l-54 -65l-63 32l58 97h-113zM410 766l111 -146l-66 -52l-105 108l-136 -108l-56 54
l157 144h95z" />
    </font>
</defs>
</svg>
